#TITLE:Silvia Drive;
#SUBTITLE:;
#ARTIST:dj TAKA feat. のりあ;
#TITLETRANSLIT:;
#SUBTITLETRANSLIT:;
#ARTISTTRANSLIT:Dj Taka feat. Noria;
#CREDIT:;
#BANNER:bn.PNG;
#BACKGROUND:bg.PNG;
#LYRICSPATH:;
#CDTITLE:Beatmania IIDX.png;
#MUSIC:Silvia Drive.mp3;
#OFFSET:0.050;
#SAMPLESTART:9.070;
#SAMPLELENGTH:15.720;
#SELECTABLE:YES;
#BPMS:0.000=129.000;
#STOPS:;
#BGCHANGES:;

//---------------dance-single - ----------------
#NOTES:
     dance-single:
     :
     Hard:
     6:
     0.378,0.464,0.423,0.247,0.018:
0000
0000
0000
0000
,
0000
0000
0000
0000
,
0000
0000
0000
0000
,
0000
0000
0000
0000
,
0000
0000
0000
1000
0100
1000
0000
0001
,
0100
0001
0000
0010
0001
0010
0000
0010
,
1000
0010
1000
0000
1001
0000
0001
0000
,
1001
0020
1030
0200
,
0301
0000
0000
0010
0001
0010
0000
0100
,
1000
0100
0000
0010
1000
0010
0000
0001
,
0100
0001
1000
0000
1100
0000
0010
0000
,
0011
0002
1003
0020
,
1030
2000
0000
3002
,
0000
0000
0013
0000
1000
0010
1000
0010
,
1000
0010
1010
0000
1000
0000
0100
0000
,
0010
1001
1010
0101
,
1100
0002
0000
2003
,
0000
0000
3010
0000
0010
0100
0010
0100
,
0010
1000
0001
0000
0001
0000
0100
0000
,
0001
0010
0001
1000
,
0100
1001
1001
1001
,
1001
1001
1001
1001
,
1001
1001
1001
1001
,
1001
1001
1001
1020
,
1030
0100
1000
0001
,
0000
1000
0001
1000
0001
2000
0000
0000
,
3010
0100
0001
0010
,
1000
0001
0100
0002
0000
0010
0000
0000
,
0013
1010
0101
1100
,
0000
1000
0100
0010
0001
0020
0000
0000
,
0031
0110
1010
1001
,
0010
1000
0001
0200
0000
0001
0000
0000
,
0000
0301
0000
0000
,
0000
0000
0000
0000
,
0000
0001
1000
0100
,
0010
0000
0000
0001
0000
0000
1000
0000
0000
0100
0001
0100
,
0001
1000
0001
0100
,
0010
2000
3010
0002
,
0103
0020
1030
0200
,
1300
0000
0000
1001
0000
0000
0000
0000
0000
1000
0100
0010
,
0001
0002
1000
0100
,
0010
0010
0010
0010
,
0000
2003
0000
0000
0000
3020
0000
0000
,
0030
0101
1100
0101
,
1100
2020
0000
0000
,
3030
0002
0000
0000
0000
2003
0000
0000
,
0000
3020
0000
0000
0000
0200
0030
0000
,
0000
0302
0013
0100
,
1001
0000
0000
1000
0100
1000
0000
0001
,
0010
0001
0000
0100
0001
0100
0000
0010
,
1000
0010
1010
0000
1010
0000
0101
0000
,
0100
0011
0011
1100
,
1100
0000
0000
0010
0010
0010
0000
0100
,
0100
0100
0000
1000
1000
1000
0000
0001
,
0001
0001
1000
0000
0001
0000
0100
0000
,
0010
1000
0100
0010
,
0001
0011
0001
0010
,
1100
0010
0101
1000
,
1010
0002
0003
0000
;

//---------------dance-single - ----------------
#NOTES:
     dance-single:
     :
     Medium:
     5:
     0.302,0.468,0.247,0.194,0.000:
0000
0000
0000
0000
,
0000
0000
0000
0000
,
0000
0000
0000
0000
,
0000
0000
0000
0000
,
0000
0000
0000
0100
0001
0100
0000
0100
,
0001
0100
0000
0100
0001
0100
0000
0100
,
0001
0100
0001
0000
0001
0000
0001
0000
,
0001
0001
0001
0001
,
0001
0000
0000
0010
1000
0010
0000
0010
,
1000
0010
0000
0010
1000
0010
0000
0010
,
1000
0010
1000
0000
1000
0000
1000
0000
,
1000
1000
1000
1000
,
1000
0002
0000
2003
,
0000
3010
0100
0001
,
0010
0100
0100
0100
,
0100
0001
0001
0001
,
0001
2002
3003
1010
,
0000
0001
0100
0010
,
1000
0100
0100
0100
,
0100
0010
0010
0010
,
0010
1002
1000
1000
,
1000
1000
1000
1000
,
1003
2001
0001
0001
,
0001
0001
0001
0002
,
3003
0010
0010
0010
,
0000
0000
1000
0000
0100
0200
0000
0000
,
0310
1001
1000
0100
,
0001
0000
0020
0000
0000
0001
0000
0000
,
0031
0100
1000
0011
,
0000
0001
0010
1000
,
0100
0010
0001
0011
,
0001
2000
0000
0000
,
0000
3001
0000
0000
,
0000
0000
0000
0000
,
0000
1000
0000
0100
,
0000
0010
0000
0001
,
1000
0020
0000
2030
,
0000
3002
0000
0023
,
0000
0032
0000
0000
,
0000
0103
0000
1100
,
0011
0002
0000
0000
,
0000
2003
0000
3020
,
0000
1030
0001
0100
,
0000
0110
0110
0110
,
0110
2002
0000
3003
,
0000
1000
0000
0000
0000
0001
0000
0000
,
0000
0010
0000
0000
0000
0100
0000
0000
,
0000
1000
0000
0000
0000
0000
0001
0000
,
1000
0000
0000
0100
1000
0100
0000
0100
,
0001
0100
0000
0010
0001
0010
0000
0010
,
1000
0010
1010
0000
0101
0000
1100
0000
,
0011
1001
1010
0101
,
1100
0000
0000
0001
1000
0001
0000
0010
,
1000
0010
0000
0001
0100
0001
0000
0010
,
0001
0010
0001
0000
0100
0000
0010
0000
,
0001
0011
0001
0010
,
0100
1100
0100
0010
,
0011
0100
1100
0010
,
1010
0202
0000
0000
,
0303
0000
0000
0000
;

//---------------dance-single - ----------------
#NOTES:
     dance-single:
     :
     Easy:
     3:
     0.241,0.309,0.071,0.185,0.000:
0000
0000
0000
0000
,
0000
0000
0000
0000
,
0000
0000
0000
0000
,
0000
0000
0000
0000
,
0000
1000
0000
0001
,
0000
0100
0000
0010
,
0000
1000
0001
1000
,
0001
1000
0001
1000
,
0001
0100
0000
0010
,
0000
1000
0000
0001
,
0000
1000
0100
0010
,
0001
0010
0100
1000
,
0010
0002
0000
2003
,
0000
3100
0010
1000
,
0001
0100
0100
0100
,
0100
0100
0100
0100
,
0100
0020
0000
2030
,
0000
3002
0203
0320
,
2030
3010
0010
0010
,
0010
0010
0010
0010
,
0010
0011
1100
1001
,
0010
1000
0010
0100
,
0100
1001
0010
1000
,
0100
0001
0000
0000
,
0100
1000
0100
0010
,
0000
0001
1000
0100
,
0010
0001
0001
0001
,
0000
1000
0000
0100
,
0010
0001
1000
0100
,
0000
0010
0100
1000
,
0001
1000
1000
1000
,
0000
0001
0100
0010
,
1000
2002
0000
0000
,
3000
2003
0000
0000
,
0000
3200
0000
0310
,
0000
0020
0000
0000
,
0030
0002
0000
0203
,
0000
0320
0000
2030
,
0000
3200
0310
0001
,
1000
1001
0000
0000
,
0000
0100
1000
0100
,
0000
0200
0300
0020
,
0030
1000
0001
1000
,
0100
0010
0001
0100
,
0010
0001
0000
0001
,
0000
1000
0001
1000
,
0000
1000
0100
0010
,
0000
0010
0000
0000
,
0000
0000
1000
0000
,
1000
0000
1000
0000
,
1000
1100
0011
0010
,
0100
0010
1000
0001
,
0100
0001
0000
0001
,
0000
1000
0000
1000
,
0000
1000
0001
1000
,
0001
1000
0001
1000
,
0001
1000
0001
1000
,
0001
1000
0001
1000
,
0001
2000
3000
0000
;

//---------------dance-single - ----------------
#NOTES:
     dance-single:
     :
     Challenge:
     7:
     0.532,0.516,1.000,0.053,0.018:
0000
0000
0000
0000
,
0000
0000
0000
0000
,
0000
0000
0000
0000
,
0000
0000
0000
0000
,
0000
0000
0000
1000
0100
0011
0000
0010
,
0100
0011
0000
0010
0100
1001
0000
0010
,
0100
0010
1010
0000
0101
0000
1100
0000
,
0011
0110
1010
0101
,
0110
0000
0000
0010
0100
0011
0000
0010
,
0100
1100
0000
0010
0001
1100
0000
0100
,
0010
0011
0010
0000
0011
0000
0011
0000
,
0110
1010
0101
0110
,
1010
0101
0010
1010
,
0010
0000
1010
0000
0010
0100
0011
0010
,
0100
0010
1100
0000
0011
0000
0110
0000
,
1010
0101
1100
0011
,
0110
1002
0000
1003
,
0000
0011
1100
0110
,
1001
1010
0101
1100
,
0011
0110
1010
0101
,
0110
1010
1010
1010
,
1010
1100
1100
1100
,
1100
0101
0101
0101
,
0101
0011
0011
0011
,
0011
0000
2000
0000
0001
3000
1010
0000
,
0000
0001
0010
0100
0010
1000
0001
0100
,
0010
0001
0020
0000
1000
0000
0130
0000
,
0000
1001
1010
0101
,
1000
0100
0011
0000
1100
0000
0110
0000
,
1001
0000
0010
1000
0001
0100
0010
1000
,
0001
0100
1010
0000
0101
0000
1100
0000
,
0011
0000
0110
0000
1001
0000
0010
1000
,
0010
0100
0011
0000
0110
0000
0000
0000
,
0010
1000
0010
0000
0010
0000
0100
0000
,
1000
0000
0001
0100
0010
0000
0100
0000
,
1100
0000
0000
0000
0000
0000
0010
0000
0000
0100
0000
0000
0001
0000
0000
1000
0000
0000
0010
0000
0100
0000
0010
0000
,
0100
0000
1000
0100
0010
0001
1000
0100
,
0010
0001
1000
0100
0010
0001
1000
0100
,
0010
0001
0001
0010
0100
1000
0001
0100
,
0010
0000
0000
0100
0000
0000
0001
0000
0000
0010
0000
0000
0100
0000
0000
1000
0000
0000
0110
0000
0001
0000
1000
0000
,
0110
0000
1000
0100
0010
0000
0001
0100
,
1001
0000
0010
1000
1010
0000
0001
0010
,
0011
0000
0110
0000
1010
0000
0001
0100
,
1001
0010
1010
0101
,
1100
0000
0011
0000
0010
0100
0110
0000
,
0010
1000
1010
0000
0001
0010
0011
0000
,
0001
0100
0101
0000
1010
0000
0110
0000
,
1001
0000
0010
1000
0100
0010
0001
0010
,
0100
0010
0100
0010
1000
1010
0000
0011
,
0010
0110
0000
1010
0001
0011
0000
0110
,
0001
1001
1010
0000
0101
0000
1100
0000
,
0011
0110
1010
0102
,
0103
0000
0010
1010
0001
0011
0000
0010
,
0110
0110
0000
0010
0100
1001
0000
1010
,
0100
0001
1100
0000
0011
0000
0110
0000
,
1010
0101
1100
0011
,
1001
1010
0101
1100
,
0011
1100
0011
0110
,
1010
2002
3003
0000
;

//---------------dance-single - ----------------
#NOTES:
     dance-single:
     :
     Beginner:
     1:
     0.083,0.102,0.018,0.000,0.000: // measure 1
0000
0000
0000
0000
,  // measure 2
0000
0000
0000
0000
,  // measure 3
0000
0000
0000
0000
,  // measure 4
0000
0000
0000
0000
,  // measure 5
0000
0000
1000
0000
,  // measure 6
0000
0000
0000
0000
,  // measure 7
0000
1000
0000
0001
,  // measure 8
0000
1000
0000
0001
,  // measure 9
0000
0100
0000
0000
,  // measure 10
0000
0010
0000
0000
,  // measure 11
0000
0010
0000
0010
,  // measure 12
0000
0010
0000
0010
,  // measure 13
0000
0100
0000
0000
,  // measure 14
0000
0000
0000
0000
,  // measure 15
0000
1000
0000
0000
,  // measure 16
0000
0001
0000
0001
,  // measure 17
0000
0001
0000
0000
,  // measure 18
0000
0100
0000
0000
,  // measure 19
0000
0010
0000
0010
,  // measure 20
0000
0010
0000
0010
,  // measure 21
0000
0110
0000
0000
,  // measure 22
0000
0000
0000
0000
,  // measure 23
0000
1001
0000
0000
,  // measure 24
0000
0000
0000
0000
,  // measure 25
0000
1000
1000
1000
,  // measure 26
0000
0000
0000
0000
,  // measure 27
0000
0001
0001
0001
,  // measure 28
0000
0000
0000
0000
,  // measure 29
0000
0010
0010
0010
,  // measure 30
0000
0000
0000
0000
,  // measure 31
0000
0100
0100
0100
,  // measure 32
0000
0000
0000
0000
,  // measure 33
0000
1000
0000
0000
,  // measure 34
0000
0000
0000
0000
,  // measure 35
0000
0001
0000
0000
,  // measure 36
0000
0000
0000
0001
,  // measure 37
0001
0001
0000
0000
,  // measure 38
0000
1000
0000
0000
,  // measure 39
0000
0010
0000
0000
,  // measure 40
0000
0000
0000
0100
,  // measure 41
0100
0100
0000
0000
,  // measure 42
0000
0000
0000
0000
,  // measure 43
0000
0010
0000
0000
,  // measure 44
0000
1000
0000
1000
,  // measure 45
0000
0001
0000
0000
,  // measure 46
0000
0001
0000
0001
,  // measure 47
0000
0001
0000
0000
,  // measure 48
0000
1000
0000
0000
,  // measure 49
0000
0010
0000
0000
,  // measure 50
0000
0000
0000
0000
,  // measure 51
0000
0100
0000
0000
,  // measure 52
0000
1000
0000
1000
,  // measure 53
0000
1000
0000
0000
,  // measure 54
0000
0000
0000
0000
,  // measure 55
0000
0001
0000
0000
,  // measure 56
0000
0010
0000
0000
,  // measure 57
0000
0010
0000
0010
,  // measure 58
0000
0010
0000
0010
;
