#TITLE:SigSig;
#SUBTITLE:;
#ARTIST:kors k;
#TITLETRANSLIT:;
#SUBTITLETRANSLIT:;
#ARTISTTRANSLIT:;
#CREDIT:;
#BANNER:bn.PNG;
#BACKGROUND:bg.png;
#LYRICSPATH:;
#CDTITLE:Beatmania IIDX.png;
#MUSIC:SigSig.ogg;
#OFFSET:-10.450;
#SAMPLESTART:77.809;
#SAMPLELENGTH:12.500;
#SELECTABLE:YES;
#BPMS:0.000=179.000;
#STOPS:;
#BGCHANGES:;

//---------------dance-single - ----------------
#NOTES:
     dance-single:
     :
     Hard:
     8:
     0.498,0.555,0.167,0.271,0.016:
0002
0000
0000
0000
0000
0010
0000
0000
0020
0000
0000
0000
0033
0000
0000
0000
,
1100
0010
1000
0100
,
0001
0000
0100
0000
0100
0010
0001
0010
,
0110
0000
0010
0000
0100
0000
1000
0100
,
1100
0010
0100
1000
,
1010
0000
0010
0000
0100
0000
1000
0100
,
1000
0100
0000
0000
0000
0000
0000
0010
,
0100
0000
0000
1000
0100
0000
0000
0010
,
0001
0010
0100
1000
0100
0010
1000
0010
,
0200
0000
0000
0000
,
0301
0000
0100
1000
0100
1000
0010
0000
,
0010
0000
0001
0100
0010
0100
0001
0100
,
0010
0000
0001
0100
0010
1000
0001
0000
,
0001
0000
0001
0010
0100
1000
0100
0010
,
0011
0000
0010
0100
0010
1000
0010
0000
,
0011
0000
0001
0100
0010
1000
0010
0010
,
0010
0000
0100
1000
0001
0100
0010
0000
,
0100
0000
1000
0100
0010
0100
0001
0100
,
0010
1000
0100
0001
1000
0100
0010
0002
,
0000
0000
0003
0000
,
0010
0100
0010
1000
0001
0100
1000
0200
,
0000
0000
1000
0310
,
0001
1000
0010
0100
1000
0100
0010
0002
,
0000
0000
0000
0000
0000
0003
0000
0000
,
0100
1000
0010
0100
0001
1000
0010
0001
,
2000
0000
0000
0000
0000
0100
0000
0000
0002
0000
0000
0000
0000
0000
3003
0000
,
0001
0100
0010
1000
0100
0010
0001
0100
,
0010
1000
0020
0000
0230
0000
0301
0000
,
1000
0100
0010
0001
0010
0100
0001
1000
,
0200
1300
0020
0130
,
0001
1000
0100
0010
1000
0001
0100
1000
,
0010
0100
2000
0000
3020
0000
0230
0000
,
0301
1000
0100
1000
0100
0010
0001
0010
,
0200
0310
2000
3002
,
0103
1000
0100
0010
,
0001
0100
1000
0010
,
0100
1000
0100
0010
,
0001
0100
1000
0100
,
1000
0000
0010
1000
0010
0000
0100
0000
,
1000
0100
0010
0001
,
0100
0000
0010
0100
0010
0100
0010
0100
,
0001
1000
0100
0010
,
0011
0000
0000
0000
,
0000
0000
0000
0000
0000
1100
0000
0010
,
0110
0000
0000
0000
,
1100
0000
0110
0000
0011
0000
0000
0001
,
0011
0000
0000
0000
0000
0100
0000
0100
,
1000
0000
0000
0000
0000
0000
0000
0001
,
0100
0000
0000
0100
1000
0000
0000
0010
,
0200
1000
2000
3300
,
0000
0000
0010
0100
0001
0000
0010
0000
,
0100
1000
0020
0130
,
1000
0000
1000
0100
0001
0000
0010
0000
,
0200
2300
3020
0130
,
0001
0000
0100
1000
0010
0000
0100
0000
,
1000
0100
0010
0001
,
0100
0000
0001
0010
0100
1000
0010
0100
,
1000
0100
0020
0000
,
0130
0000
0001
0100
0010
0000
1000
0000
,
1100
0110
0022
0033
,
0101
0000
0010
0100
0001
0000
1000
0000
,
1010
0110
2002
3003
,
0101
0000
0010
0100
2000
0000
0100
0000
,
0100
0010
0001
0010
,
3001
0000
0010
0100
1000
0100
0010
1000
,
0001
0000
0000
0000
0000
2000
0000
0000
0200
0000
0000
0000
3000
0000
0000
0000
,
0310
0000
0001
0100
0010
0000
0100
1000
,
0100
0000
0010
0001
0100
0000
1000
0000
,
0100
0000
0001
0100
0010
0000
1000
0000
,
0010
0000
0001
0000
0001
0100
0010
1000
,
0100
0000
0010
1000
0010
0000
0001
0000
,
1000
0010
0001
0010
,
0100
0000
1000
0100
0010
0000
0001
0000
,
0010
0100
1000
0000
,
0001
0010
0100
1000
,
0100
0010
1000
0001
,
0100
1000
0010
0100
,
0010
0100
0001
0010
1000
0100
0010
0001
,
0010
0100
1000
0010
,
0001
0100
1000
0100
,
0010
0001
0100
1000
,
0020
0000
0000
0000
0000
0100
0000
0000
0200
0000
0000
0000
0000
0000
0000
0000
,
0330
0000
0000
0000
;

//---------------dance-single - ----------------
#NOTES:
     dance-single:
     :
     Medium:
     5:
     0.386,0.457,0.103,0.366,0.000:
0002
0000
0200
0303
,
0101
0001
0010
0100
,
1000
0000
0010
0000
1000
0000
0001
0100
,
0001
0000
0000
0000
0000
0000
0000
1000
,
0100
0000
0000
0000
,
1001
0000
0000
0000
0000
0000
0000
0010
,
1000
0010
0000
0000
0000
0000
0000
0001
,
0100
0000
0000
1000
0100
0000
0000
0001
,
0100
0010
1000
0010
,
2002
0000
0000
3003
,
0001
0000
0100
0001
0100
0000
0002
0000
,
0103
0000
0010
0000
1000
0000
0010
0100
,
0010
0000
1000
0010
1000
0000
0020
0000
,
0130
2000
0001
0001
,
3001
0000
0001
0100
0001
0000
0020
0000
,
1030
0000
0010
0100
0010
0000
2000
0000
,
3001
0000
0100
1000
0100
0000
0020
0000
,
0130
0002
0000
0003
,
1000
0001
0100
0010
1000
0010
0100
0010
,
0000
0000
0000
0000
,
1000
0100
1000
0100
0010
0001
0010
0001
,
0000
0000
0002
0203
,
0310
1000
0001
0100
0010
1000
0001
1000
,
0000
0000
0000
0000
,
0001
0100
0001
0100
0010
1000
0010
1000
,
0002
0000
0200
0303
,
0001
1000
0010
0100
,
0020
2030
3020
0230
,
0310
0000
1000
0000
0001
0000
0100
0001
,
2000
3002
0203
0320
,
1030
0010
0100
0010
,
1000
0002
0203
0320
,
1030
0000
1010
0000
,
0020
2030
3020
0230
,
0002
0000
0000
0000
,
0000
0000
0303
0000
,
0001
0001
1000
1000
,
0100
0100
0100
0000
,
1010
0010
0100
1000
,
0001
0010
0100
1000
,
0010
1000
0200
1300
,
0010
0010
0010
0000
,
1001
0000
0000
0000
,
0000
0000
0000
0000
0000
1000
0000
0001
,
0100
0000
0000
0000
,
0110
0000
0110
0000
0110
0000
0000
0010
,
0100
0000
0000
0000
0000
1000
0000
0001
,
1000
0000
0000
0000
0000
0000
0000
1000
,
0100
0000
0000
0010
0001
0000
0000
0001
,
0200
0310
2000
3002
,
0003
1000
0001
0100
,
0010
0000
1000
0000
0010
1000
0010
0000
,
1000
0100
0010
0001
,
0002
0023
0032
0013
,
0001
0000
0001
0100
0001
0000
0100
0000
,
0010
1000
0001
0010
,
0100
0010
1000
0010
,
1010
0110
0022
0033
,
0001
0000
1000
0001
0100
0000
0010
0000
,
1000
0010
0200
0300
,
0010
0000
0001
1000
0010
0000
1000
0000
,
0002
0100
0100
0103
,
1001
0000
0000
0000
0000
0010
0000
0100
,
0010
0000
0000
0000
0000
0000
0000
1000
,
0100
0000
0000
0001
0100
0000
0000
0010
,
0200
0000
0020
0330
,
0001
0000
1000
0000
,
0001
0100
0010
1000
,
0010
0000
0100
0000
,
1000
0000
0001
0000
1000
0001
0100
0001
,
0100
0000
0001
0000
,
1000
0010
0100
0010
,
1000
0001
0010
0100
,
1000
1000
1000
0000
,
0001
0000
0100
0000
,
0010
0000
1000
0000
,
0001
0000
0100
0000
,
0010
1000
0010
0100
,
0001
0000
1000
0000
,
0001
0000
0100
0000
,
0010
0000
1000
0000
,
0002
0000
2000
0000
,
3003
0000
0000
0000
;

//---------------dance-single - ----------------
#NOTES:
     dance-single:
     :
     Easy:
     4:
     0.267,0.359,0.080,0.215,0.000:
0002
0000
0200
0303
,
0110
0000
0000
0000
,
0000
0000
0010
1000
,
0010
0000
0000
0000
,
0100
0000
0000
0000
,
0110
0000
0000
0000
,
0010
0000
0000
0000
,
0010
0000
0010
0000
,
0010
1000
0001
0100
,
0002
0000
0000
0003
,
1000
0001
0100
0002
,
0103
0010
1000
0010
,
0010
1000
0001
0200
,
0310
2000
0000
3000
,
1000
0100
0010
0001
,
0001
0100
0010
1000
,
1000
0010
0100
2000
,
3010
0200
0000
0300
,
0010
1000
0010
0200
,
0000
0000
0300
0000
,
0010
1000
0002
0200
,
0000
0303
1001
1100
,
0010
1000
0020
0200
,
0000
0330
0000
0000
,
0001
1000
0010
0100
,
0020
0000
2000
3030
,
1000
0001
0100
0010
,
1000
2000
0001
3001
,
0001
0100
0010
1000
,
0002
0103
2000
3100
,
0010
1000
0010
1000
,
0001
0100
0100
0100
,
0010
1000
0001
0010
,
0100
1000
0010
0001
,
0200
0000
0000
0000
,
0300
0000
0000
0000
,
0000
0000
0000
0000
,
0000
0000
0000
0000
,
1001
0000
0000
0000
,
0000
0000
0000
0000
,
0000
0000
0000
0000
,
0000
0000
0000
0000
,
0001
0000
0001
0000
,
0001
0001
0001
0000
,
1000
0000
1000
0000
,
1000
1000
1000
0000
,
0010
0000
0010
0000
,
0010
0000
0010
0000
,
0100
0000
0100
0000
,
0100
0100
0100
0000
,
0001
1001
0001
1000
,
0001
0100
0002
0103
,
0001
0100
0010
1000
,
0020
0100
0200
0330
,
0110
0010
1000
0001
,
1000
0001
0100
0010
,
1000
0010
0100
0010
,
2000
0001
0002
3003
,
0000
0001
0000
0100
0000
0010
0000
1000
,
0000
0010
0000
0100
0000
0010
0000
1000
,
0000
0001
0000
1000
0000
0001
0000
0100
,
0000
0010
0000
1000
0000
0010
0000
0000
,
0110
0000
0000
0000
0000
0010
0000
0000
,
0010
0000
0000
1000
,
1100
0000
0011
0000
,
0002
0000
0200
0303
,
1000
0000
0001
0000
,
0100
0000
0010
0000
,
1000
0000
0001
0000
,
0100
0100
0010
0010
,
1000
0000
0001
0000
,
1000
0000
1000
0000
,
1000
0000
0001
0000
,
0100
0001
0100
0000
,
1000
0000
0000
0000
,
0001
0000
0000
0000
,
0100
0000
0000
0000
,
0010
0000
0010
0000
,
0010
0000
0000
0000
,
1000
0000
0000
0000
,
0001
0000
0000
0000
,
0002
0000
0000
0000
,
0003
0000
0000
0000
;

//---------------dance-single - ----------------
#NOTES:
     dance-single:
     :
     Beginner:
     1:
     0.069,0.163,0.008,0.000,0.000: // measure 1
0000
0000
0000
0000
,  // measure 2
1000
0000
0000
0000
,  // measure 3
0000
0000
0000
0000
,  // measure 4
0001
0000
0000
0000
,  // measure 5
0100
0000
0000
0000
,  // measure 6
0010
0000
0000
0000
,  // measure 7
1000
0000
0000
0000
,  // measure 8
0001
0000
0001
0000
,  // measure 9
0001
0000
0000
0000
,  // measure 10
0000
0000
0000
0000
,  // measure 11
0010
0000
0000
0000
,  // measure 12
0000
0000
0000
0000
,  // measure 13
1000
0000
0000
0000
,  // measure 14
0000
0000
0000
0000
,  // measure 15
0100
0000
0000
0000
,  // measure 16
0000
0000
0000
0000
,  // measure 17
0001
0000
0000
0000
,  // measure 18
0000
0000
0000
0000
,  // measure 19
1000
0000
0000
0000
,  // measure 20
0000
0000
0000
0000
,  // measure 21
0001
0000
0000
0000
,  // measure 22
0000
0000
0100
0100
,  // measure 23
0100
0000
0000
0000
,  // measure 24
0000
0000
0000
0000
,  // measure 25
0010
0000
0000
0000
,  // measure 26
0010
0000
0010
0000
,  // measure 27
0010
0000
0000
0000
,  // measure 28
0000
0000
0000
0000
,  // measure 29
1000
0000
0000
0000
,  // measure 30
0000
0000
0000
0000
,  // measure 31
0001
0000
0000
0000
,  // measure 32
0000
0000
0000
0000
,  // measure 33
0100
0000
0000
0000
,  // measure 34
0000
0000
0000
0000
,  // measure 35
1000
0000
0000
0000
,  // measure 36
0000
0000
0000
0000
,  // measure 37
0000
0000
0000
0000
,  // measure 38
0000
0000
0000
0000
,  // measure 39
0001
0000
0000
0000
,  // measure 40
0000
0000
0000
0000
,  // measure 41
0000
0000
0000
0000
,  // measure 42
0000
0000
0000
0000
,  // measure 43
0100
0000
0000
0000
,  // measure 44
0000
0000
0000
0000
,  // measure 45
0010
0000
0000
0000
,  // measure 46
1000
1000
1000
0000
,  // measure 47
0001
0000
0000
0000
,  // measure 48
0001
0000
0000
0000
,  // measure 49
1000
0000
0001
0000
,  // measure 50
0100
0000
0010
0000
,  // measure 51
0000
1000
0000
0000
,  // measure 52
0000
0000
0000
0000
,  // measure 53
0001
0000
0000
0000
,  // measure 54
0000
0000
0000
0000
,  // measure 55
0010
0000
0000
0000
,  // measure 56
0000
0000
0000
0000
,  // measure 57
0100
0000
0000
0000
,  // measure 58
0010
0000
0010
0000
,  // measure 59
0010
0000
0000
0000
,  // measure 60
0000
0000
0000
0000
,  // measure 61
1000
0000
0000
0000
,  // measure 62
0000
0000
0000
0000
,  // measure 63
0001
0000
0000
0000
,  // measure 64
1000
0000
0000
0000
,  // measure 65
0010
0000
0100
0000
,  // measure 66
0001
0000
1000
0000
,  // measure 67
0001
0000
0000
0000
,  // measure 68
0000
0000
0000
0000
,  // measure 69
0000
0000
0000
0000
,  // measure 70
0000
0000
0000
0000
,  // measure 71
1000
0000
0000
0000
,  // measure 72
0000
0000
0000
0000
,  // measure 73
0010
0000
0000
0000
,  // measure 74
0000
0000
0000
0000
,  // measure 75
0100
0000
0000
0000
,  // measure 76
0000
0000
0000
0000
,  // measure 77
0000
0000
0000
0000
,  // measure 78
0010
0000
0000
0000
,  // measure 79
0010
0000
0000
0000
,  // measure 80
0000
0000
0000
0000
,  // measure 81
0000
0000
0000
0000
,  // measure 82
1000
0000
0001
0000
,  // measure 83
1001
0000
0000
0000
;
