#TITLE:SigSig;
#SUBTITLE:Raver Rose Mix;
#ARTIST:Teranod And MC Natsack;
#TITLETRANSLIT:;
#SUBTITLETRANSLIT:;
#ARTISTTRANSLIT:;
#CREDIT:;
#BANNER:bn.PNG;
#BACKGROUND:bg.png;
#LYRICSPATH:;
#CDTITLE:Beatmania IIDX.png;
#MUSIC:09 SigSig (Raver Rose remix).mp3;
#OFFSET:-14.310;
#SAMPLESTART:22.729;
#SAMPLELENGTH:12.500;
#SELECTABLE:YES;
#BPMS:0.000=170.000,152.000=85.000,166.000=340.000,168.000=170.000;
#STOPS:166.000=1.059
;
#BGCHANGES:;

//---------------dance-single - ----------------
#NOTES:
     dance-single:
     :
     Hard:
     7:
     0.517,0.512,0.412,0.412,0.000:
0000
0000
0000
0000
,
0000
0000
0000
0000
,
0000
0000
0000
0000
,
0000
0000
0000
0000
,
1000
0001
1000
0010
,
0010
1000
0010
1000
0010
1000
0010
1000
,
0002
0000
1003
1000
0100
0000
0010
0000
,
0002
0203
0020
0330
,
1010
0000
0001
0100
0002
0000
0103
0000
,
1010
0101
2002
3003
,
0110
0000
0010
1000
0002
0000
0103
0000
,
2000
3100
0020
0031
,
1000
0100
0010
0001
0020
0000
0130
0000
,
1001
1001
2002
3003
,
0110
0000
0010
1000
0200
0000
0310
0000
,
0020
0031
2002
3003
,
0110
0000
1000
0100
0020
0000
0001
0000
,
0200
0030
2300
0000
0002
0000
0000
3003
,
0110
0000
0001
1000
0020
0000
1030
0000
,
2000
3010
0002
0103
,
0110
0000
1000
0100
0001
0010
0100
0000
,
0000
0010
0110
0000
0010
0000
0000
0000
,
0000
1000
0100
0010
0001
0010
0200
0000
,
0000
1300
0100
1000
0100
1000
0100
0000
,
0010
0100
0001
0100
0010
1000
0010
0000
,
1010
0101
1100
0011
,
0001
0100
0010
1000
0010
0100
0020
0000
,
0030
0100
1000
0100
0010
0001
0020
0000
,
0030
0100
0001
0100
0001
0100
1000
0100
,
0001
0001
0100
0000
0010
0000
1010
0000
,
1000
0100
0010
0000
0001
0100
0010
0000
,
0010
0100
0010
1000
0001
0001
1001
0000
,
0010
0100
0110
0000
1000
0100
1100
0000
,
0010
0100
0001
0100
0010
0010
0010
0000
,
0010
0100
0110
0000
1000
1000
1100
0000
,
0010
0010
0010
0000
0001
0001
0001
0000
,
0000
1001
0000
0000
0010
0100
0010
1000
,
0010
0100
0001
1000
0010
0000
0010
0000
,
1002
0203
0302
0023
,
0230
0320
0032
0203
,
0302
0000
0020
0000
0000
0003
0032
0000
,
2003
0000
3200
0000
0000
0300
0000
0000
,
1000
0000
0100
0010
0100
0010
0001
0000
,
0011
0000
0001
0100
0010
1000
0010
0010
,
0010
0000
0010
1000
0010
0100
0102
0000
,
1003
0000
0010
1000
0010
0100
0001
0100
,
0110
0000
0010
0100
0010
0100
1100
0000
,
1100
0000
1000
0100
0010
0001
0100
0100
,
0100
0000
0010
1000
0001
0100
0010
0000
,
1010
0000
1000
0100
0010
0001
0010
0100
,
0101
0000
0010
1000
0010
0100
0010
0000
,
0110
0000
1000
1000
0001
0001
0100
0100
,
0010
0000
0010
0010
1000
0001
0100
0000
,
1100
0000
0010
0100
0001
0000
0010
0000
,
1001
0000
0010
0100
0110
0000
1000
0100
,
1100
0000
0010
0001
0010
0000
0010
0000
,
0011
0010
0000
1100
0000
0010
0000
0000
,
1001
1001
0000
0010
0000
0000
0020
0000
,
0030
0000
0000
0000
;

//---------------dance-single - ----------------
#NOTES:
     dance-single:
     :
     Medium:
     6:
     0.415,0.483,0.186,0.304,0.000:
0000
0000
0000
0000
,
0000
0000
0000
0000
,
0000
0000
0000
0000
,
1000
0000
0001
0000
,
0100
1000
0010
0100
,
0010
1000
0001
0200
,
0310
0000
1000
0100
1000
0000
0010
0000
,
0100
0001
2000
0000
,
3100
0000
0010
1000
0001
0000
0100
0000
,
0001
0010
0200
0000
,
0310
0000
1000
0001
0100
0000
0010
0000
,
1000
0001
0100
0010
,
1000
0000
0001
0010
0100
1000
0010
0100
,
0001
0001
0010
0000
,
0100
0000
0010
1000
0001
0000
0100
0000
,
0010
1000
2002
3003
,
0010
0000
0100
1000
0100
0000
0001
0000
,
0011
1100
1001
0000
,
0110
0000
0001
1000
0100
0000
0010
0000
,
1100
0011
0110
1010
,
0101
0000
1000
0100
0010
0001
0010
0100
,
1000
0000
0100
0000
0200
0000
0000
0300
,
1000
0000
0100
0000
0010
0100
0010
0000
,
0001
0000
1000
0000
0001
0100
0010
0000
,
0100
1000
0100
0010
,
0002
1000
2003
3010
,
0000
1100
0010
0100
,
1000
0100
0010
0001
,
0200
0000
0010
0310
0010
1000
0001
0100
,
0020
0031
0002
0103
,
0002
0000
0103
0000
0010
1000
0010
0000
,
0100
1000
0100
0000
0010
0000
0000
0000
,
0001
0100
0010
0000
1000
0000
0010
0000
,
0100
0100
0100
1001
,
1000
0100
0010
0100
0010
0100
0010
0000
,
0001
1000
0010
0100
0001
1000
0010
0000
,
1000
0001
1000
0000
0010
0100
0010
0000
,
1100
0000
0011
0000
0010
0000
1000
0010
,
0200
0320
0230
0302
,
2003
3200
0320
0032
,
0203
0320
0000
2030
,
3002
0203
0310
0000
,
1000
0000
0100
0000
0010
0100
0010
0000
,
0001
0000
0001
0000
0100
0000
0001
0100
,
0010
0100
1100
1100
,
0010
0000
0100
0000
1000
0000
0001
1000
,
0001
0000
0100
0000
1000
0100
0010
0000
,
0011
0000
0001
0000
0100
0000
0010
1000
,
0010
0000
0100
0000
0001
1000
0010
0000
,
0010
0000
0100
0000
1000
0000
0010
1000
,
0001
0000
0100
0000
1000
0100
0010
0000
,
0001
0000
0100
0000
0001
1000
0001
0000
,
0010
0000
0100
1000
0100
0000
0010
0000
,
0002
0203
0320
2030
,
3010
0000
0100
0010
0100
0000
0000
0000
,
1100
0000
0011
0000
,
0020
0000
1000
0000
0100
0000
0001
0030
,
0200
0000
1000
0000
0010
0000
0001
0301
;

//---------------dance-single - ----------------
#NOTES:
     dance-single:
     :
     Easy:
     4:
     0.342,0.399,0.383,0.186,0.000:
0000
0000
0000
0000
,
0000
0000
0000
0000
,
1000
0000
1000
0000
,
1000
0000
0001
0000
,
0001
1000
0001
1000
,
2002
0000
0000
3003
,
1001
0001
1000
0001
,
0100
0010
2000
3000
,
0010
1000
0100
0010
,
1000
1000
2000
3000
,
0001
1000
0100
0010
,
0001
0010
0001
0100
,
0001
1000
0001
0100
,
0020
1000
2000
3030
,
1010
0010
1000
0100
,
0010
0010
0010
0000
,
0010
0100
0010
1000
,
0001
0001
0002
0003
,
1000
0001
0100
0010
,
1000
0010
0100
0010
,
0000
0100
0000
0100
,
0000
0010
0000
0000
,
0010
0100
0010
1000
,
0001
2000
0002
3003
,
0001
0100
0010
1000
,
1010
1010
2020
3030
,
0010
1000
0010
0100
,
0010
1000
0001
1000
,
0001
0100
0001
0010
,
0011
0000
1100
0000
2002
0000
0000
3003
,
0001
0001
0100
0100
,
0010
0000
1000
0000
0010
1000
0010
0000
,
1000
1000
0001
0001
,
0100
0000
0010
0000
0010
0100
0010
0000
,
0110
0010
0110
0100
,
1001
1000
1001
0001
,
1000
1000
0001
0100
,
0010
1000
0001
1000
,
2002
0000
3003
0000
,
0000
0000
0000
0000
,
1000
0000
1000
0000
,
0001
1000
0100
0000
,
1001
0001
1000
1001
,
1001
0001
0100
0101
,
1010
0010
0100
0110
,
0110
0010
1000
0010
,
1010
0101
1010
0000
,
1100
0011
1100
0000
,
0110
1001
0110
0000
,
1010
0101
1001
0000
,
1000
0001
0100
0010
,
0010
0000
0100
0000
0010
0000
1000
0010
,
1000
0010
1000
0010
,
0100
0010
1000
0001
,
1001
0000
0011
0000
,
1100
0000
1010
0000
,
0202
0000
0000
0303
,
1000
0001
0000
0100
0000
0000
0220
0000
,
0330
0000
0000
0000
;

//---------------dance-single - ----------------
#NOTES:
     dance-single:
     :
     Beginner:
     2:
     0.091,0.198,0.059,0.000,0.000: // measure 1
0000
0000
0000
0000
,  // measure 2
0000
0000
0000
0000
,  // measure 3
0000
0000
0000
0000
,  // measure 4
0000
0000
0000
0000
,  // measure 5
0000
0000
0000
0000
,  // measure 6
0000
0000
0000
0000
,  // measure 7
1001
0000
0000
0000
,  // measure 8
0000
0000
0000
0000
,  // measure 9
0010
0000
0000
0000
,  // measure 10
0000
0000
0000
0000
,  // measure 11
1000
0000
0000
0000
,  // measure 12
0000
0000
0000
0000
,  // measure 13
0001
0000
0001
0000
,  // measure 14
0001
0001
0001
0000
,  // measure 15
1001
0000
0000
0000
,  // measure 16
0000
0000
0000
0000
,  // measure 17
1000
0000
0000
0000
,  // measure 18
0000
0000
0000
0000
,  // measure 19
0010
0000
0000
0000
,  // measure 20
0000
0000
0000
0000
,  // measure 21
0100
0000
0100
0000
,  // measure 22
0100
0100
0100
0000
,  // measure 23
1000
0000
0000
0000
,  // measure 24
1000
0000
0000
0000
,  // measure 25
1000
0000
0000
0000
,  // measure 26
0001
0001
0001
0000
,  // measure 27
0001
0000
0000
0000
,  // measure 28
0010
0000
0000
0000
,  // measure 29
0100
0000
0000
0000
,  // measure 30
0010
0010
0010
0000
,  // measure 31
0010
0000
0000
0000
,  // measure 32
0000
0000
0000
0000
,  // measure 33
0010
0000
0000
0000
,  // measure 34
0000
0000
0000
0000
,  // measure 35
1000
0000
0000
0000
,  // measure 36
1000
0000
0000
0000
,  // measure 37
1001
0000
0000
0000
,  // measure 38
0001
0000
1000
0000
,  // measure 39
1001
0000
0000
0000
,  // measure 40
0000
0000
0000
0000
,  // measure 41
0000
0000
0000
0000
,  // measure 42
0000
0000
0000
0000
,  // measure 43
0010
0000
0000
0000
,  // measure 44
0000
0010
0010
0000
,  // measure 45
0100
0000
0000
0000
,  // measure 46
0000
1000
1000
0000
,  // measure 47
1001
0000
0000
0001
,  // measure 48
0001
0000
0000
0000
,  // measure 49
1000
0000
0000
0010
,  // measure 50
0010
0000
0000
0000
,  // measure 51
0100
0000
0000
0000
,  // measure 52
0010
0000
0000
0000
,  // measure 53
1000
0000
0000
0000
,  // measure 54
0001
0000
0000
0000
,  // measure 55
1000
0000
1000
0000
,  // measure 56
0001
0000
0100
0000
,  // measure 57
0010
0000
0000
0000
,  // measure 58
0010
0000
0000
1001
;
