#TITLE:¥真超深TION¥;
#SUBTITLE:;
#ARTIST:Des-あさ;
#TITLETRANSLIT:ShinchoushinTION (GFDM version);
#SUBTITLETRANSLIT:;
#ARTISTTRANSLIT:Des-Asa;
#CREDIT:;
#BANNER:bn.PNG;
#BACKGROUND:bg.PNG;
#LYRICSPATH:;
#CDTITLE:./CDTITLES/GUITAR FREAKS & DRUMMANIA.PNG;
#MUSIC:ShinchoushinTION (GFDM version).mp3;
#OFFSET:-0.108;
#SAMPLESTART:54.318;
#SAMPLELENGTH:10.000;
#SELECTABLE:YES;
#DISPLAYBPM:177.000;
#BPMS:0.000=88.500,48.000=177.000,176.000=88.500,192.000=354.000,320.000=88.501;
#STOPS:;
#BGCHANGES:;

//---------------dance-single - ----------------
#NOTES:
     dance-single:
     :
     Hard:
     9:
     0.610,0.928,0.547,0.278,0.052:
0000
0000
0000
0000
,
0000
0000
0000
0000
,
0000
0000
0000
0000
,
0000
0000
0000
0000
,
1000
0000
0001
0000
0010
0100
0000
1000
0000
0001
0100
0000
0010
0000
0101
0000
,
0010
0000
0100
0000
1000
0001
0000
0010
0000
0100
1000
0000
0100
0000
1000
0000
,
0010
0000
1000
0000
0001
1000
0100
0000
0010
0000
0010
0000
0100
0000
1000
0001
,
1000
0000
0100
0000
0001
0010
0001
0000
0010
0000
0100
0000
1000
0000
0100
1000
,
1100
0100
0110
0010
0011
0100
0101
0100
,
0110
1000
1100
0010
1010
0100
1100
0010
,
1001
0010
0011
0100
0101
1000
1100
0010
,
1001
0100
1100
0010
0101
1000
1100
0001
,
0011
0010
0100
1000
0100
1000
0100
1000
,
0010
1000
0001
1000
0010
0100
0010
0100
,
0001
0100
0010
0001
0010
0100
1000
0100
,
0010
0001
1000
0100
0010
0001
0010
0100
,
1000
0100
0001
0100
0010
0001
0010
0100
,
1000
0100
0010
1000
0010
1000
0010
0100
,
0101
0001
0100
0101
0001
0010
0110
1000
,
0010
0001
0010
0100
1000
0001
1000
0100
,
0010
0001
0020
0000
0031
1000
0200
0000
,
0310
0001
0020
0000
0031
1000
0200
0000
,
0310
0001
0020
0000
0130
0010
0002
0000
,
1003
0100
2000
0000
3010
0100
0002
0000
,
0103
0001
0020
0000
0130
1000
0200
0000
,
0310
0001
0020
0000
0031
1000
0002
0000
,
0103
0001
0020
0000
0130
0010
0002
0000
,
1003
0001
2000
0000
3010
0100
0002
0000
,
1003
0001
1000
0001
0010
0100
0001
1000
,
0010
1000
0001
1000
0010
1000
0001
1000
,
0001
0100
1000
0100
0001
0100
1000
0100
,
0001
0100
0001
0100
0001
1000
0001
0000
,
0010
1000
0010
1000
0100
1000
0010
0100
,
0010
0100
0010
0100
0001
0010
0100
0000
,
0010
1000
0010
1000
0010
0001
0010
0100
,
0010
1000
0001
0100
0010
1000
0010
0000
,
1001
0000
0110
0000
1000
0100
0010
0000
,
0001
0000
0011
0000
0001
0100
0001
0000
,
0010
0000
1010
0000
0010
0100
0010
0000
,
1000
0000
1100
0000
0010
1000
0010
1000
,
0010
0000
0110
0000
0001
0010
0100
0000
,
1000
0000
1100
0000
0010
1000
0001
0000
,
0100
0000
0110
0000
0100
0010
1000
0000
,
0001
1000
0010
0000
0100
1000
0010
0000
,
0022
0000
0000
0030
0023
0000
0230
0000
,
2300
0000
3020
0230
,
0301
0000
0002
2003
,
3020
0000
0230
0302
,
1003
0100
1000
0100
,
0010
0001
0010
0100
,
0001
0100
0001
0100
,
0010
1000
0010
0100
,
0010
1000
0100
0010
,
0001
0010
0100
0001
,
0100
0010
1000
0001
,
0100
0010
1000
0001
,
0100
1000
0100
0010
,
0001
0010
0100
0001
,
1000
0001
1000
0001
,
0010
1000
0010
1000
,
0010
0100
0010
1000
,
0100
0010
0001
0010
,
0100
1000
0100
0010
,
0001
0010
0100
1000
,
1001
0000
1100
0000
,
0011
0000
0110
0000
,
1010
0000
0011
0000
,
1100
0000
0110
0000
,
1001
0000
1010
0000
,
0011
0000
1100
0000
,
0101
0000
0011
0000
,
1100
0000
0110
0000
,
1001
0000
1010
0000
,
0011
0000
1100
0000
,
0110
0000
1001
0000
,
1010
0000
0011
0000
,
1100
0000
0101
0000
,
0011
0000
1010
0000
,
1100
0000
0011
0000
,
0110
0000
1010
0000
,
0022
0000
0000
0000
,
0000
0000
0000
0000
,
0033
0000
0000
0000
1000
0200
2000
0000
3300
0000
0000
0000
0000
0000
0000
0000
0000
0000
0000
0000
0000
0000
0000
0000
0000
0000
0000
0000
0000
0000
0000
0000
0000
0000
0000
0000
0000
0000
0000
0000
0000
0000
0000
0000
0000
0000
0000
0000
;

//---------------dance-single - ----------------
#NOTES:
     dance-single:
     :
     Medium:
     6:
     0.483,0.678,0.608,0.191,0.000:
0000
0000
0000
0000
,
0000
0000
0000
0000
,
0000
0000
0000
0000
,
0000
0000
0000
0000
,
1100
0100
0010
0000
0001
0000
0010
0000
,
0100
0010
0100
0000
0200
0000
1300
0000
,
1000
0100
0010
0000
0002
0000
0013
0000
,
0010
0100
2000
0000
0100
0000
3100
0000
,
1000
1000
0001
0001
1000
1000
0001
0001
,
1000
0001
1000
0001
1000
0001
1000
0001
,
0010
0010
0100
0100
0010
0010
0100
0100
,
0010
0100
0010
0100
0010
0100
0010
1001
,
1001
0000
1000
0000
0100
0000
0010
0001
,
0010
0000
0001
0000
0100
0000
0010
0100
,
0001
0000
1000
0000
1000
0000
0100
1000
,
0100
0010
0100
0001
,
1001
0000
0001
0000
0001
1000
0001
0000
,
1010
0000
0010
0000
0010
0100
0010
0000
,
1100
0000
0000
0101
0000
0000
0011
0000
,
1000
0100
0010
0001
0010
0100
1000
0100
,
0020
0031
0002
0103
,
0020
0130
0200
1300
,
0020
1030
0002
0103
,
0020
0000
0130
0000
0200
0000
1300
0100
,
2000
3100
0020
0130
,
0002
0013
0002
0103
,
0020
0130
2000
3100
,
0020
0130
2000
3100
,
1000
1100
0011
0110
,
1001
1010
0011
1100
,
0110
1001
1100
0011
,
0110
1001
0110
1001
,
1000
0101
1100
0110
,
1001
1010
0011
0110
,
1100
0110
0011
1100
,
1001
1010
0101
1100
,
1000
0100
0010
0000
0001
0000
0010
0000
,
0001
0000
0100
0000
0001
0100
0001
0000
,
0010
1000
0010
0100
,
1000
0000
0100
0000
1000
0100
0010
0001
,
0010
0001
0100
0001
,
0001
1000
0010
0000
1000
0000
0100
0000
,
0010
0001
0100
0001
,
1000
0001
1000
0000
0010
0000
0100
0000
,
1000
0100
0010
0001
,
0010
0100
1000
0001
,
0100
0010
1000
0100
,
0010
0001
2000
3001
,
1000
0100
1000
0000
,
0010
0001
0010
0000
,
0001
0100
0001
0000
,
0010
1000
0010
1000
,
0010
1000
0001
0000
,
1000
0100
0010
0000
,
0001
0100
0001
0000
,
0010
1000
0001
0100
,
0010
1000
0001
0000
,
1000
0100
0010
0000
,
0001
0100
0001
0000
,
0010
1000
0010
0000
,
0010
0100
0010
0000
,
1000
0100
1000
0000
,
0010
0001
0010
0100
,
1000
0100
0010
0001
,
0011
0000
1100
0000
,
0110
0000
1001
0000
,
1010
0000
0011
0000
,
0110
0000
1100
0000
,
1001
0000
0110
0000
,
0101
0000
0110
0000
,
1100
0000
0110
0000
,
0101
0000
0010
1000
,
1010
0000
0110
0000
,
0011
0000
1100
0000
,
0110
0000
1001
0000
,
1010
0000
0011
0000
,
1100
0000
0110
0000
,
1001
0000
1010
0000
,
0101
0000
1100
0000
,
0011
0000
1010
0000
,
2002
0000
0000
0000
,
0000
0000
0000
0000
,
0000
0000
3003
0000
0000
0000
0000
0000
0000
0000
0000
0000
;

//---------------dance-single - ----------------
#NOTES:
     dance-single:
     :
     Easy:
     4:
     0.334,0.500,0.391,0.122,0.000:
0000
0000
0000
0000
,
0000
0000
0000
0000
,
0000
0000
0000
0000
,
0000
0000
0000
0000
,
1000
0100
0100
0100
,
0010
0100
0100
0100
,
0010
0100
0100
0100
,
1000
0001
0100
0010
,
1100
1000
0100
0010
,
0001
0010
0100
1000
,
1001
0001
0100
1000
,
0010
0001
0100
1000
,
1010
1000
0010
0100
,
0101
0001
0010
0100
,
1000
0001
1000
0100
,
0010
0001
0010
0001
,
0101
0100
0101
0100
,
1100
1000
1100
0100
,
1010
0000
0000
0101
0000
0000
1100
0000
,
1000
0100
0010
0001
,
2000
0000
3200
0000
,
2300
0000
3200
0000
,
1300
0010
0100
0001
,
0100
0010
0100
0001
,
0002
0000
2003
0000
,
3020
0000
2030
0000
,
3200
0000
2300
0000
,
0002
0000
0000
3003
,
0000
0001
1000
0001
,
1000
0001
1000
0001
,
0000
0010
0100
0010
,
0100
0010
0100
0010
,
0000
1000
0100
0010
,
0001
0010
0100
1000
,
0000
0001
1000
0100
,
0010
0001
0010
0100
,
0001
1000
0000
1000
,
0000
1000
0000
0001
,
1000
0001
0000
0100
,
0010
0100
1000
0100
,
0010
0001
0000
1000
,
0000
0001
0000
0100
,
1000
0010
0000
0001
,
1000
0100
0010
0001
,
2000
0000
3001
0001
,
1001
0000
0100
0100
,
0100
0000
0010
0010
,
0010
0000
1000
0001
,
1000
0000
0100
0000
,
1000
0000
0100
0000
,
0010
0000
0001
0000
,
0010
0000
0100
0000
,
1000
0000
0100
0000
,
0010
0000
0001
0000
,
0100
0000
0001
0000
,
0100
0000
0010
0000
,
0100
0000
0100
0000
,
0100
0000
0001
0000
,
0100
0000
0010
0000
,
0100
0000
0001
0000
,
1000
0000
0100
0000
,
0010
0000
0001
0000
,
0100
0000
1001
0000
,
0001
0000
1000
0000
,
1100
0000
0110
0000
,
0011
0000
0101
0000
,
0110
0000
1001
0000
,
1100
0000
0011
0000
,
0110
0000
1010
0000
,
0110
0000
0110
0000
,
1001
0000
1010
0000
,
0101
0000
0000
0000
,
1100
0000
0011
0000
,
0110
0000
1001
0000
,
1010
0000
0101
0000
,
1100
0000
0011
0000
,
0110
0000
1001
0000
,
1010
0000
0101
0000
,
1100
0000
0011
0000
,
1010
0000
0101
0000
,
2002
0000
0000
0000
,
0000
0000
0000
0000
,
0000
0000
0000
0000
0000
0000
0000
0000
0000
0000
0000
0000
0000
0000
0000
0000
0000
0000
0000
0000
0000
0000
0000
0000
0000
0000
0000
0000
0000
0000
0000
0000
0003
3000
0000
0000
0000
0000
0000
0000
0000
0000
0000
0000
0000
0000
0000
0000
0000
0000
0000
0000
0000
0000
0000
0000
0000
0000
0000
0000
0000
0000
0000
0000
0000
0000
0000
0000
0000
0000
0000
0000
0000
0000
0000
0000
0000
0000
0000
0000
0000
0000
0000
0000
0000
0000
0000
0000
0000
0000
0000
0000
0000
0000
0000
0000
0000
0000
0000
0000
0000
0000
0000
0000
0000
0000
0000
0000
0000
0000
0000
0000
0000
0000
0000
0000
0000
0000
0000
0000
0000
0000
0000
0000
0000
0000
0000
0000
0000
0000
0000
0000
0000
0000
0000
0000
0000
0000
0000
0000
0000
0000
0000
0000
0000
0000
0000
0000
0000
0000
0000
0000
0000
0000
0000
0000
0000
0000
0000
0000
0000
0000
0000
0000
0000
0000
0000
0000
0000
0000
0000
0000
0000
0000
0000
0000
0000
0000
0000
0000
0000
0000
0000
0000
0000
0000
0000
0000
0000
0000
0000
0000
;

//---------------dance-single - ----------------
#NOTES:
     dance-single:
     :
     Beginner:
     2:
     0.097,0.243,0.026,0.000,0.000: // measure 1
0000
0000
0000
0000
,  // measure 2
0000
0000
0000
0000
,  // measure 3
0000
0000
0000
0000
,  // measure 4
0000
0000
0000
0000
,  // measure 5
1000
0000
0000
0000
,  // measure 6
1000
0000
0000
0000
,  // measure 7
0010
0000
0000
0000
,  // measure 8
0010
0000
0000
0000
,  // measure 9
0100
0000
0000
0000
,  // measure 10
0100
0000
0000
0000
,  // measure 11
0001
0000
0000
0000
,  // measure 12
0001
0000
0000
0000
,  // measure 13
1001
0000
0000
0000
,  // measure 14
1000
0000
0000
0000
,  // measure 15
0010
0000
0000
0000
,  // measure 16
0100
0000
0000
0000
,  // measure 17
0010
0000
0000
0000
,  // measure 18
0010
0000
0000
0000
,  // measure 19
1000
0000
0000
0000
,  // measure 20
0001
0000
0001
0000
,  // measure 21
0001
0000
0000
0000
,  // measure 22
0001
0000
0000
0000
,  // measure 23
1000
0000
0000
0000
,  // measure 24
0010
0000
0010
0000
,  // measure 25
0010
0000
0000
0000
,  // measure 26
0100
0000
0000
0000
,  // measure 27
0010
0000
0000
0000
,  // measure 28
1000
0000
0000
0000
,  // measure 29
0001
0000
0000
0000
,  // measure 30
0000
0000
0000
0000
,  // measure 31
1000
0000
0000
0000
,  // measure 32
0000
0000
0000
0000
,  // measure 33
0010
0000
0000
0000
,  // measure 34
0000
0000
0000
0000
,  // measure 35
0100
0000
0000
0000
,  // measure 36
0000
0000
0000
0000
,  // measure 37
1000
0000
0000
0000
,  // measure 38
0000
0000
0000
0000
,  // measure 39
0001
0000
0000
0000
,  // measure 40
0100
0000
0100
0000
,  // measure 41
0100
0000
0000
0000
,  // measure 42
0010
0000
0000
0000
,  // measure 43
0010
0000
0000
0000
,  // measure 44
0010
0000
1000
0000
,  // measure 45
0001
0000
1000
1000
,  // measure 46
1000
0000
0001
0001
,  // measure 47
0001
0000
0010
0000
,  // measure 48
0010
0000
0100
0000
,  // measure 49
0100
0000
0000
0000
,  // measure 50
0000
0000
0000
0000
,  // measure 51
0010
0000
0000
0000
,  // measure 52
0010
0000
0000
0000
,  // measure 53
0010
0000
0000
0000
,  // measure 54
0000
0000
0000
0000
,  // measure 55
0100
0000
0000
0000
,  // measure 56
0100
0000
0000
0000
,  // measure 57
0100
0000
0000
0000
,  // measure 58
0000
0000
1000
0000
,  // measure 59
0000
0000
0000
0000
,  // measure 60
1000
0000
0000
0000
,  // measure 61
0001
0000
0000
0000
,  // measure 62
0001
0000
0000
0000
,  // measure 63
0001
0000
0000
0000
,  // measure 64
0001
0000
0000
0000
,  // measure 65
1001
0000
0000
0000
,  // measure 66
0000
0000
0000
0000
,  // measure 67
0010
0000
0000
0000
,  // measure 68
0000
0000
0000
0000
,  // measure 69
0100
0000
0000
0000
,  // measure 70
0000
0000
0000
0000
,  // measure 71
0010
0000
0010
0000
,  // measure 72
0010
0000
0010
0000
,  // measure 73
0010
0000
0000
0000
,  // measure 74
0000
0000
0000
0000
,  // measure 75
1000
0000
0000
0000
,  // measure 76
0000
0000
0000
0000
,  // measure 77
0001
0000
0000
0000
,  // measure 78
0000
0000
0000
0000
,  // measure 79
1000
0000
0000
0000
,  // measure 80
0001
0000
0000
0000
,  // measure 81
1001
0000
0000
0000
;
