#TITLE:Setsugekka;
#SUBTITLE:;
#ARTIST:Ryu;
#TITLETRANSLIT:Setsugekka;
#SUBTITLETRANSLIT:;
#ARTISTTRANSLIT:;
#CREDIT:;
#BANNER:bn.PNG;
#BACKGROUND:bg.PNG;
#LYRICSPATH:;
#CDTITLE:;
#MUSIC:104.setsugekka.mp3;
#OFFSET:0.020;
#SAMPLESTART:84.600;
#SAMPLELENGTH:12.000;
#SELECTABLE:YES;
#BPMS:0.000=151.000;
#STOPS:;
#BGCHANGES:;

//---------------dance-single - ----------------
#NOTES:
     dance-single:
     :
     Hard:
     9:
     0.532,0.627,0.138,0.052,0.229:
0000
0000
0000
0000
,
0000
0000
0000
0000
,
0000
0000
0000
0000
,
0000
0000
0000
0000
,
0000
0000
0000
0000
,
0000
0000
0000
0000
,
0000
0000
0000
0000
,
0000
0000
0000
0000
,
0000
0000
0000
0000
,
0000
0000
0000
0000
,
0000
0000
0001
0100
0001
0010
1000
0100
,
0010
0000
0001
1000
0001
1000
0001
0010
,
0100
1000
0100
1000
0001
0100
0001
0010
,
0100
0000
0001
1000
0100
0000
0010
1000
,
0001
0010
1000
0100
1000
0010
0001
1000
,
0001
0000
1000
0001
0010
0001
1000
0001
,
0100
0010
1000
0001
0100
0001
0010
0100
,
1000
0000
0000
0000
0001
0000
0100
0000
0010
0000
1000
0000
0001
0000
1000
0100
,
0010
0100
0001
0010
0001
0100
0010
1000
,
0001
0000
0001
1000
0001
0100
0001
0010
,
0100
1000
0001
1000
0001
0100
0001
0010
,
0100
0000
1000
0001
0100
0000
0010
1000
,
0001
1000
0100
0010
0100
1000
0001
0100
,
0010
0000
1000
0001
0100
1000
0100
0010
,
0100
0000
1000
0001
0010
0100
1000
0001
,
0100
0001
1000
0100
0010
0001
1000
0001
,
0100
0001
1001
0000
0000
0000
0000
0000
,
0000
0000
0000
0000
,
1100
0000
0000
1000
0000
0001
0000
0010
0000
0100
0000
1000
,
0000
0001
0000
0100
0000
0010
0000
1000
0000
1001
0000
0110
,
0000
1100
0000
0011
0000
0001
0000
1000
0000
0100
0000
0010
,
0000
0001
0000
0101
0000
0100
0000
0010
0000
1000
0000
0001
,
0000
0100
0000
0110
0000
0100
0000
1000
0000
0101
0000
1000
,
0000
0000
0000
0000
0001
0000
0000
0000
0000
0000
0000
0000
1100
0000
0000
0000
0000
0000
1000
0000
0000
0100
0000
0000
1000
0000
0000
0000
0000
0000
0001
0000
0000
0010
0000
0000
0001
0000
0000
0000
0000
0000
1000
0000
0000
0001
0000
0000
,
0000
1000
0100
0000
1000
0000
0100
0000
0010
0000
0001
0000
1000
0000
0100
0000
,
0010
0001
1000
0100
0010
0001
1000
0100
,
0010
0001
0010
0100
1000
0001
0010
0100
,
1000
0001
0010
0100
1000
0001
0010
0100
,
1000
0001
0100
0010
1000
0001
0100
0010
,
1000
0001
0100
0010
1000
0001
0100
0010
,
1000
0001
1000
0001
0100
0001
1000
0001
,
0010
0000
0001
0000
1000
0000
0001
0000
0000
0100
0000
0000
0010
0000
0000
1000
,
0000
0001
2000
0000
0000
0000
0000
0000
,
0000
0000
0000
0000
3000
0000
0001
0100
,
0010
1000
0002
0000
0000
0000
0000
0000
,
0000
0000
0000
0000
0003
0000
0010
0100
,
0010
1000
0020
0000
0000
0000
0000
0000
,
0000
0000
0000
0000
0030
0000
0100
0010
,
1000
0001
0200
0000
0000
0000
0000
0000
,
0000
0302
0000
2000
,
3003
0000
0000
0000
1000
0100
1000
0000
0001
0100
0001
0000
0010
0000
1000
0100
,
0000
0001
0100
0000
0010
0000
1000
0001
0100
0000
0001
1000
0100
0000
0001
1000
,
0100
0000
0001
0100
0010
0000
0010
0000
0010
0000
0010
0000
0010
0000
0010
1000
,
0001
0100
0101
0100
0001
0010
1000
0001
,
0100
0000
0001
0000
0010
0000
0000
1000
0100
0000
0001
0000
0100
0000
0010
0000
,
1000
0001
0100
0010
1000
0100
0010
0100
,
1000
0000
0001
0000
0100
0000
0000
0001
0100
0000
0010
0000
1000
0000
0001
0000
,
0100
0001
1000
0010
1000
0100
0001
1000
,
0010
0000
1000
0000
0100
0000
0000
0001
0010
0000
1000
0000
0010
0000
0100
0000
,
0001
1000
0010
0100
0001
0010
0100
0010
,
0001
0000
1000
0000
0010
0000
0000
1000
0010
0000
0000
0100
0001
0000
1000
0001
,
0010
0000
0100
0000
0010
0000
1000
0000
0100
0000
0010
0000
0001
0000
1000
0001
,
0100
0000
0010
0000
0100
0000
0000
1000
0100
0000
0001
0000
0100
0000
0010
0001
,
1000
0000
0001
0000
1000
0000
0001
0000
0100
0000
0010
0000
1000
0000
0001
1000
,
0001
0000
0100
0000
0010
0000
0001
1000
0100
0000
0100
0001
0100
0000
0001
0000
,
0001
0000
0010
0000
1010
0000
1000
0000
0001
0000
0010
0000
1000
0000
0001
0100
,
0001
0000
1000
0000
0001
0000
0000
0100
0010
0000
1000
0001
0100
0000
0100
0000
,
0100
0010
1000
0001
0010
1000
0001
0100
,
0010
0000
0001
0000
1001
0000
0000
0101
0000
0000
1100
0000
0000
0001
1000
0000
,
0001
0110
0000
0000
0000
0000
0000
0000
;

//---------------dance-single - ----------------
#NOTES:
     dance-single:
     :
     Medium:
     6:
     0.389,0.448,0.086,0.233,0.000:
0000
0000
0000
0000
,
0000
0000
0000
0000
,
0000
0000
0000
0000
,
0000
0000
0000
0000
,
0000
0000
0000
0000
,
0000
0000
0000
0000
,
0000
0000
0000
0000
,
0000
0000
0000
0000
,
0000
0000
0000
0000
,
0000
0000
0000
0000
,
0000
1000
0100
0010
,
0001
1000
0010
0000
0100
0000
1000
0000
,
0010
0100
0001
0000
0100
0000
1000
0000
,
0010
0100
1000
0000
0010
0000
0100
0000
,
0001
0010
0100
0000
0010
0000
1000
0000
,
1000
0100
0010
0000
0100
0000
0001
0000
,
0010
1000
0001
0000
0100
0000
0010
0000
,
1000
0100
0010
0000
0001
0100
0010
1000
,
0001
0100
0010
0000
1010
0000
0001
0100
,
1000
0100
0010
0000
0011
0000
0001
0000
,
0100
0000
1000
0100
0010
0000
0001
0000
,
0100
0000
1000
0100
0010
0001
0010
0100
,
1000
0100
0010
0000
0001
0000
0100
0000
,
1000
0010
0100
0000
0001
0000
1000
0000
,
0100
0010
1000
0000
0001
0000
1000
0000
,
0100
1000
0010
0100
0001
0100
0010
1000
,
0010
0100
0002
0000
0000
0000
0000
0000
,
0000
1003
0000
1001
,
0000
0020
0000
0230
,
0000
0000
2300
0000
0000
3000
0200
0000
,
0000
0320
0000
2030
,
0000
3002
0000
0203
,
0000
0300
0110
0000
0010
0000
1010
0000
,
0001
0000
0010
0200
0310
2000
3001
0100
,
0010
0000
0010
1000
0010
0000
0010
0100
,
0010
0000
0001
0100
0001
0000
0010
0001
,
0010
0000
0001
0100
0001
0000
0010
1000
,
0010
0000
1000
0100
1000
0000
0010
0100
,
0010
0000
0001
1000
0001
0000
0010
1000
,
0010
0000
0001
0100
0001
0000
0001
0010
,
0001
0000
0100
1000
0100
0000
0010
0100
,
0010
0000
1000
0001
1000
0000
0010
0100
,
0010
2000
0000
0000
,
0000
0000
0000
3200
,
0320
0032
0000
0000
,
0000
0000
0000
0023
,
0230
2300
0000
0000
,
0000
0000
0000
0000
,
0000
0002
0000
0000
,
0000
0000
0000
0000
,
0000
3003
0010
0100
0010
0100
0010
1000
,
0001
0100
0010
1000
0001
0100
0010
1000
,
0010
1000
0001
0100
1000
0100
0010
0001
,
0010
0100
0010
0000
1100
0000
0010
0000
,
0001
0100
0020
0000
1000
0000
0100
0000
,
0031
0000
0100
0000
1100
0000
0010
1000
,
0001
0100
0020
0000
0001
0000
0100
0100
,
0130
1000
0001
0010
,
0001
0010
0200
0000
1000
0000
0010
0010
,
0310
0001
1000
0100
,
0001
1000
0010
0000
2100
0000
0010
0010
,
3010
0000
0002
0000
0103
0000
1000
0100
,
0010
0001
0200
0000
0010
0000
1000
0000
,
0301
0000
0020
0000
0130
0000
1000
0100
,
0010
0001
0010
0000
0011
0000
0001
0100
,
0010
1000
0010
0000
1001
0000
0010
0000
,
1000
0100
0020
0000
0100
0000
0001
0000
,
1000
1030
0100
1000
0100
1000
0100
0010
,
0001
0010
0100
1000
0010
0100
0001
1000
,
0001
1000
0000
0000
0000
0000
0000
0000
;

//---------------dance-single - ----------------
#NOTES:
     dance-single:
     :
     Easy:
     4:
     0.241,0.388,0.138,0.095,0.000:
0000
0000
0000
0000
,
0000
0000
0000
0000
,
0000
0000
0000
0000
,
0000
0000
0000
0000
,
0000
0000
0000
0000
,
0000
0000
0000
0000
,
0000
0000
0000
0000
,
0000
0000
0000
0000
,
0000
0000
0000
0000
,
0000
0000
0000
0000
,
0000
1000
0000
0000
,
0000
0001
0000
0000
,
0000
0100
0000
0000
,
0000
0010
1000
0010
,
0100
0001
0000
0000
,
0000
1000
0000
0000
,
0000
0001
0000
0000
,
0000
0100
0010
2000
,
3100
1000
1000
0100
,
1000
0001
0100
0001
,
0100
0001
0010
0001
,
0010
0001
0001
1000
,
1000
0101
0001
0100
,
0010
1000
0010
0100
,
0010
1000
0001
0100
,
0010
1010
0010
0110
,
0010
2002
0000
3003
,
0000
0000
0000
0000
,
1000
1100
0000
0010
,
0000
0001
0000
0010
,
0000
1001
0000
0010
,
0000
0110
0000
1000
,
0000
1100
0000
0011
,
0000
0102
0203
0002
,
0303
0001
0001
0001
,
0001
0001
0001
0001
,
0001
1000
1000
1000
,
1000
1000
1000
1000
,
1000
0010
0010
0010
,
0010
0010
0010
0010
,
0010
0100
0100
0100
,
0100
0100
0100
0100
,
0100
0020
0000
0000
,
0000
0000
0030
1000
,
0001
0200
0000
0000
,
0000
0000
0300
1000
,
0001
2000
0000
0000
,
0000
0000
3000
0010
,
0100
0020
0000
0000
,
0000
1030
0000
0001
,
0000
1001
0001
0102
,
0000
0103
0010
1000
,
0001
0000
1000
0001
1000
0001
1000
0000
,
0000
0001
0000
1000
,
0000
0010
1000
0010
,
0100
0001
0000
1000
,
0000
0010
0001
0010
,
0100
1000
0000
0001
,
0000
1000
0000
1000
,
0000
0001
0000
1000
,
0000
0100
0010
1000
,
0001
0100
0000
0001
,
1000
0100
0000
1000
,
0010
0100
0000
0010
,
1000
0001
0000
1000
,
0001
0100
0010
1000
,
0001
1000
0100
0010
,
0001
1001
1001
1001
,
1001
0001
1000
0001
,
0100
0001
0000
0000
0000
0000
0000
0000
;

//---------------dance-single - ----------------
#NOTES:
     dance-single:
     :
     Beginner:
     2:
     0.083,0.177,0.026,0.000,0.000: // measure 1
0000
0000
0000
0000
,  // measure 2
0000
0000
0000
0000
,  // measure 3
0000
0000
0000
0000
,  // measure 4
0000
0000
0000
0000
,  // measure 5
0000
0000
0000
0000
,  // measure 6
0000
0000
0000
0000
,  // measure 7
0000
0000
0000
0000
,  // measure 8
0000
0000
0000
0000
,  // measure 9
0000
0000
0000
0000
,  // measure 10
0000
0000
0000
0000
,  // measure 11
0000
0010
0000
0000
,  // measure 12
0000
0010
0000
0000
,  // measure 13
0000
1000
0000
0000
,  // measure 14
0000
0001
0000
0001
,  // measure 15
0000
0001
0000
0000
,  // measure 16
0000
1000
0000
0000
,  // measure 17
0000
0010
0000
0000
,  // measure 18
0000
0100
0000
0100
,  // measure 19
0000
0100
0000
0000
,  // measure 20
0000
0010
0000
0000
,  // measure 21
0000
0001
0000
0000
,  // measure 22
0000
1000
0000
1000
,  // measure 23
0000
1000
0000
0000
,  // measure 24
0000
0010
0000
0000
,  // measure 25
0000
0100
0000
0000
,  // measure 26
0000
0010
0000
1000
,  // measure 27
0000
1001
0000
0000
,  // measure 28
0000
0000
0000
0000
,  // measure 29
0000
0010
0000
0000
,  // measure 30
0000
0000
0000
0001
,  // measure 31
0000
0001
0000
0000
,  // measure 32
0000
1000
0000
0000
,  // measure 33
0000
0010
0000
0010
,  // measure 34
0000
0100
0000
0000
,  // measure 35
0000
1000
0000
0000
,  // measure 36
0000
0000
0000
0000
,  // measure 37
0000
0001
0000
0000
,  // measure 38
0000
0000
0000
0000
,  // measure 39
0000
0100
0000
0000
,  // measure 40
0000
0000
0000
0000
,  // measure 41
0000
0010
0000
0000
,  // measure 42
0000
1000
0000
0000
,  // measure 43
0000
0001
0000
0000
,  // measure 44
0000
0000
0000
0000
,  // measure 45
0000
1000
0000
0000
,  // measure 46
0000
0000
0000
0000
,  // measure 47
0000
0010
0000
0000
,  // measure 48
0000
0000
0000
0000
,  // measure 49
0000
0100
0000
0000
,  // measure 50
0000
0000
0000
0000
,  // measure 51
1000
1001
0000
0001
,  // measure 52
0000
1000
0000
1000
,  // measure 53
0000
0001
0001
0001
,  // measure 54
0000
0100
0000
0000
,  // measure 55
0000
0010
0000
0000
,  // measure 56
0000
1000
0000
0000
,  // measure 57
0000
0001
0000
0000
,  // measure 58
0000
1000
0000
0000
,  // measure 59
0000
0010
0000
0000
,  // measure 60
0000
0100
0000
0000
,  // measure 61
0000
1000
0000
0000
,  // measure 62
0000
0001
0000
0000
,  // measure 63
1000
0000
0000
0000
,  // measure 64
0001
0000
0000
0000
,  // measure 65
0100
0000
0000
0010
,  // measure 66
0010
0010
0000
0000
,  // measure 67
1000
0000
0000
0000
,  // measure 68
0001
0000
0000
1000
,  // measure 69
0000
1001
0000
0000
;
