#TITLE:Sense 2007;
#SUBTITLE:;
#ARTIST:Good-Cool;
#TITLETRANSLIT:;
#SUBTITLETRANSLIT:;
#ARTISTTRANSLIT:;
#CREDIT:;
#BANNER:bn.PNG;
#BACKGROUND:bg.PNG;
#LYRICSPATH:;
#CDTITLE:14 Gold.png;
#MUSIC:Sense 2007.mp3;
#OFFSET:0.040;
#SAMPLESTART:74.060;
#SAMPLELENGTH:12.000;
#SELECTABLE:YES;
#BPMS:0.000=140.000;
#STOPS:;
#BGCHANGES:;

//---------------dance-single - ----------------
#NOTES:
     dance-single:
     :
     Hard:
     9:
     0.533,0.705,0.033,0.166,0.448:
0000
0000
0000
0000
,
0000
0000
0000
0000
,
0000
1001
0000
0000
,
0000
0000
0000
0000
0001
0000
0010
0000
0000
0100
0000
0000
0000
0000
0100
0000
,
0010
1000
0000
0001
1000
0001
0000
1000
,
0001
0000
0010
0000
0000
0000
0100
0000
0000
0100
0000
0000
0001
0000
0010
0000
,
0100
1000
0001
0010
0100
1000
0001
1000
,
0100
0000
0010
0000
0001
0000
1000
0000
0000
0001
0000
0000
0000
0000
0001
0000
,
1000
0100
0000
0010
0100
0010
0000
0100
,
0010
0000
1000
0000
0000
0000
0001
0000
0000
0001
0000
0000
0010
0000
1000
0000
,
0001
0100
0010
1000
0001
0100
0010
0100
,
0001
1000
0010
0000
1000
0100
0010
0001
,
0010
0000
0000
0000
0000
0000
0001
0100
0001
0000
0100
0000
0010
0000
1000
0000
,
0010
0000
0000
0000
0001
0000
0100
0000
1000
0000
0100
0000
0010
0000
0000
0001
,
0000
0000
0000
0000
1000
0000
0001
0000
0000
0010
0000
0000
1000
0000
0000
0010
,
0000
0001
0000
0000
0100
1000
0010
1000
,
0001
0000
0000
0000
0000
0100
0001
0100
0001
0000
0010
0000
1000
0000
0001
0000
,
0100
0000
0000
0000
1000
0000
0100
0000
0000
0010
0000
0000
0001
0000
0000
0100
,
0000
2002
0000
0000
,
3003
0000
0100
0010
0100
0000
0000
1000
0000
0000
0010
0000
0000
0001
0000
0000
,
0100
0000
1000
0000
0010
0000
0000
0001
0000
0000
1000
0000
0000
0100
0000
0000
,
0010
0000
0000
0000
0001
0000
0000
1000
0000
0000
0100
0000
0000
1000
0000
0000
,
0010
0100
0001
0000
0000
0000
0000
0000
,
1000
0001
1000
0001
1000
0000
0000
0100
0000
0000
0010
0000
0000
1000
0000
0000
,
0001
0000
0100
0000
1000
0000
0000
0010
0000
0000
0100
0000
0000
1000
0000
0000
,
0001
0000
0000
0000
0010
0000
0000
1000
0000
0000
0001
0000
0000
0100
0000
0000
,
1000
0000
0100
0000
0010
0001
0010
0001
0010
0001
0010
0001
0010
0001
0010
0001
,
0010
0001
0010
0001
0010
0000
0000
0010
0000
0000
1000
0000
0001
0000
0000
1000
,
0000
0000
0100
0000
0010
0000
0000
0001
0000
0000
1000
0000
0001
0000
0010
0000
,
1000
0000
0001
0000
0100
0000
0010
0000
0000
0000
1000
0000
0001
0000
0000
0100
,
0000
0000
0010
0000
1000
0000
0000
1000
0000
0000
0001
0000
0100
0000
0010
0000
,
0001
0000
1000
0000
0000
0000
0001
0000
0000
0000
1000
0000
0100
0000
0000
0010
,
0000
0000
1000
0000
0001
0000
0000
0100
0000
0000
1000
0000
0100
0000
0010
0000
,
0001
0000
0010
0000
0001
0010
0001
0010
0001
0000
0000
0000
0010
0000
0000
0100
,
0000
0000
1000
0000
0100
0010
1000
0001
0010
0100
0001
1000
0010
0100
0001
1000
,
0010
2000
0000
3000
,
0000
0002
0000
0003
,
0000
0020
0000
0030
,
0000
0200
0000
0300
,
0000
2000
3200
0310
,
0001
2000
0000
3100
0000
0020
0000
0000
,
0000
1030
0100
0010
,
0001
0100
2000
0000
3002
0000
0023
0000
,
0230
0000
0000
0000
1300
0000
0100
0000
0000
0100
0000
0000
2000
0000
0000
0000
,
3010
0000
0000
0001
0001
0001
1001
0000
,
0000
0000
0000
0000
0000
0000
1000
0000
0000
0001
0000
0000
0020
0000
0000
0000
,
0130
0000
0000
0000
1000
0000
0100
0000
0010
0000
0010
0100
0000
0000
0100
0000
,
0001
0000
1000
0000
0010
0000
0001
0000
0000
0001
0000
0000
2000
0000
0000
0000
,
3010
0000
0001
0010
0100
0000
0001
1000
,
0000
1000
0001
0000
0000
0000
0001
0000
0000
0100
0000
0000
0020
0000
0000
0000
,
1030
0000
1000
0100
1000
0010
0001
0100
,
0001
0000
0010
0000
1000
0000
0100
0000
0010
0000
0001
0000
0010
0000
0001
0010
,
0000
0010
0001
0000
0001
0000
0100
0000
0001
0000
0100
0000
0010
0000
0010
1000
,
0000
1000
0010
0000
0010
0000
0100
0000
0010
0000
1000
0000
0010
0000
0010
1000
,
0000
1000
0010
0000
0001
1000
0001
1000
0001
1000
0001
1000
0001
1000
0001
1000
,
0001
1000
0001
1000
0001
0000
0010
0000
1000
0000
0100
0000
1000
0000
0010
1000
,
0000
1000
0010
0000
0001
0000
1000
0000
0100
0000
0010
0000
0001
0000
0001
0010
,
0000
0010
0100
0000
1000
0000
0001
0000
1000
0000
0001
0000
0100
0000
0010
1000
,
0000
1000
0001
0000
1000
0001
1000
0001
1000
0001
1000
0001
1000
0001
1000
0001
,
1000
0001
1000
0001
1000
0000
0000
0100
0000
0000
0010
0000
0000
0001
0000
0000
,
1000
0000
0001
0000
0100
0000
0000
0010
0000
0000
1000
0000
0000
0100
0000
0000
,
0001
0000
0010
0000
1000
0000
0000
0010
0000
0000
0001
0000
0000
0100
0000
0000
,
1000
0000
0001
0000
1000
0000
0000
0000
0010
0000
0000
0001
0000
0000
0000
0000
,
0000
0000
0000
0000
0010
1000
0000
0010
1000
0000
0010
1000
0000
0010
1000
0000
,
0010
0000
1000
0000
0001
0100
0000
0001
0100
0000
0001
0100
0000
0001
0100
0000
,
0001
0000
0100
0000
0010
0001
0000
0010
0001
0000
0010
0001
0000
0010
0001
0000
,
0010
0000
0001
0000
1000
0100
0000
1000
0100
0000
1000
0100
0000
1000
0100
0000
,
1000
0001
2002
0000
0000
0000
0000
0000
,
3003
0000
0000
0000
;

//---------------dance-single - ----------------
#NOTES:
     dance-single:
     :
     Medium:
     6:
     0.403,0.423,0.058,0.158,0.182:
0000
0000
0000
0000
,
0000
0000
0000
0000
,
0000
2002
0000
3003
,
0000
1000
0100
0010
,
0001
0100
0001
0000
0100
0000
0010
1000
,
0010
0000
1000
0000
0100
0000
0001
1000
,
0001
0100
0001
0100
,
0010
1000
0001
0000
1000
0000
0100
0000
,
1000
0100
1000
0000
0100
0000
0010
0000
,
0001
1000
0100
0000
1000
0000
0100
0000
,
0010
0002
0000
0000
,
0000
0000
0103
0000
1000
0100
1000
0000
,
1100
0000
1000
0000
0001
0000
0100
0001
,
1000
1000
0100
0010
,
0001
0200
0010
1300
,
1010
0000
1001
0000
1000
0001
1000
0001
,
1000
0000
0100
0000
0010
0100
0010
0100
,
0010
0000
1000
0000
0100
0000
0010
0001
,
0100
2000
0000
0000
,
0000
0000
0001
0000
3001
0000
0000
1000
0000
0000
0100
0000
0000
0010
0000
0000
,
0001
0000
0010
0000
0001
0000
0000
0010
0000
0000
0100
0000
0000
1000
0000
0000
,
0100
0000
0000
0000
1000
0000
0000
0100
0000
0000
0010
0000
0000
0001
0000
0000
,
1000
0001
0000
0000
0000
0000
0000
0000
,
0010
0000
0010
0000
0100
0000
0000
0010
0000
0000
0100
0000
0000
0010
0000
0000
,
1000
0000
0100
0000
0010
0000
0000
0001
0000
0000
0100
0000
0000
0001
0000
0000
,
1000
0000
0000
0000
0001
0000
0000
1000
0000
0000
0100
0000
0000
0010
0000
0000
,
0001
0200
0020
0000
0000
0000
0000
0000
,
0330
0000
0000
0000
1000
0000
0000
1000
0000
0000
0001
0000
0100
0000
0000
0010
,
0000
0000
0100
0000
0010
0000
0000
0100
0000
0000
1000
0000
0100
0000
0010
0000
,
0001
0000
0010
0000
0000
0000
0100
0000
0000
0000
1000
0000
0100
0000
0000
0100
,
0000
0000
1000
0000
0100
0000
0000
0010
0000
0000
0001
0000
0100
0000
0001
0000
,
0100
0000
0000
0000
0000
0000
0001
0000
0000
0000
0000
0000
0100
0000
0000
0010
,
0000
0000
0100
0000
0010
0000
0000
0100
0000
0000
0010
0000
0100
0000
1000
0000
,
0100
0000
0010
0000
0000
0000
0001
0000
0100
0000
0001
0000
0100
0000
0000
0001
,
0000
0001
1000
0100
0010
0001
0010
0100
,
1000
0002
0000
0003
,
0000
0200
0000
0300
,
0000
0020
0000
0030
,
0000
2000
0000
3000
,
0000
0001
1000
0100
,
0010
0001
0010
0100
,
1000
0001
0100
0010
,
1000
2002
0000
0000
,
3003
0000
0000
0000
0000
0000
1000
0000
0000
1000
0000
0000
2000
0000
0000
0000
,
0000
0000
0001
3001
,
0000
0000
0000
0000
0000
0000
0001
0000
0000
0001
0000
0000
0002
0000
0000
0000
,
0000
0000
0103
0001
0100
0010
1000
0010
,
1000
0000
0100
0000
1000
0000
0100
0000
0000
0100
0000
0000
0200
0000
0000
0000
,
0000
0000
0300
0010
1000
0000
0001
0001
,
0000
0000
0001
0000
0000
0000
0100
0000
0000
0100
0000
0000
0200
0000
0000
0000
,
0000
0000
0001
0000
0001
0000
0301
1000
,
0001
0000
0100
0000
1000
0000
0100
0000
0010
0000
0001
0000
0010
0000
0000
0010
,
0000
0000
0010
0000
0001
0000
0010
0000
0100
0000
1000
0000
0100
0000
0000
0100
,
0000
0000
0100
0000
1000
0000
0100
0000
0010
0000
0001
0000
1000
0000
0000
0001
,
0000
1000
1000
0001
1000
0001
1000
0001
,
1000
0000
0001
0000
1000
0000
0001
0000
0100
0000
0001
0000
0100
0000
0000
0100
,
0000
0000
0100
0000
0001
0000
0100
0000
1000
0000
0010
0000
1000
0000
0000
0010
,
0000
0000
1000
0000
0001
0000
0010
0000
0100
0000
1000
0000
0100
0000
0000
0100
,
0000
0100
1000
0100
0010
0001
0010
0100
,
0010
0000
1000
0000
0001
0000
0000
0000
1000
0000
0000
0001
0000
0000
0010
0000
,
1000
0000
0100
0000
0010
0000
0000
0001
0000
0000
0100
0000
0000
1000
0000
0000
,
0010
0000
0001
0000
0010
0000
0000
0010
0000
0000
0100
0000
0000
1000
0000
0000
,
0100
0000
1000
0000
0100
0000
0000
0010
0000
0000
0001
0000
0000
0000
0000
0000
,
1001
0000
0000
0000
0001
0000
0000
0001
0000
0000
0001
0000
0000
1000
0000
0000
,
0001
0000
1000
0000
0001
0000
0000
1000
0000
0000
0100
0000
0000
0010
0000
0000
,
0001
0000
1000
0000
0001
0000
0000
0100
0000
0000
1000
0000
0000
0100
0000
0000
,
0010
0000
0100
0000
0010
0000
0000
0100
0000
0000
1000
0000
0000
0100
0000
0000
,
0010
0001
2002
0000
0000
0000
0000
0000
,
3003
0000
0000
0000
;

//---------------dance-single - ----------------
#NOTES:
     dance-single:
     :
     Easy:
     4:
     0.272,0.395,0.116,0.174,0.000: // measure 1
0000
0000
0000
0000
,  // measure 2
0000
0000
0000
0000
,  // measure 3
0000
0000
0000
0000
,  // measure 4
0000
1000
1000
0001
,  // measure 5
0100
0010
1000
0100
,  // measure 6
1000
0100
0010
0001
,  // measure 7
0100
0002
0100
0010
,  // measure 8
0103
0101
0001
0100
,  // measure 9
1000
0010
1000
0100
,  // measure 10
0010
0001
0100
0010
,  // measure 11
1000
0002
1000
0100
,  // measure 12
0013
0011
0001
0010
,  // measure 13
0010
0000
0001
0100
,  // measure 14
1000
0001
1000
0100
,  // measure 15
0010
0002
0000
0000
,  // measure 16
1003
1100
1000
0100
,  // measure 17
0100
0000
0100
0100
,  // measure 18
0100
0010
1000
0001
,  // measure 19
0100
0202
0000
0000
,  // measure 20
0303
1000
0000
1000
,  // measure 21
0000
0001
0100
1000
,  // measure 22
0100
0010
0000
0010
,  // measure 23
0000
0000
0000
0000
,  // measure 24
1000
1001
0001
1000
,  // measure 25
0001
0100
0001
0100
,  // measure 26
0000
0001
1000
0100
,  // measure 27
1000
0000
0000
0000
,  // measure 28
0000
1000
0000
1000
,  // measure 29
0000
0001
0000
0100
,  // measure 30
0010
1000
0000
0001
,  // measure 31
0000
0100
0010
1000
,  // measure 32
0100
0000
1000
0000
,  // measure 33
0001
0000
0100
0000
,  // measure 34
0010
0000
1000
0000
,  // measure 35
0100
0010
0001
0100
,  // measure 36
0010
1000
0000
0000
,  // measure 37
0000
0001
0000
0000
,  // measure 38
0000
0100
0000
0000
,  // measure 39
0000
0010
0000
0000
,  // measure 40
0000
2000
0000
3000
,  // measure 41
0000
0002
0000
0003
,  // measure 42
0000
0200
0000
0300
,  // measure 43
0000
0020
0000
0000
,  // measure 44
0000
1030
0100
0002
,  // measure 45
0003
0000
1000
1001
,  // measure 46
0000
0000
0002
0200
,  // measure 47
0303
0001
0100
1000
,  // measure 48
0100
1001
0001
2000
,  // measure 49
3000
0000
0100
1000
,  // measure 50
1000
0001
0100
0020
,  // measure 51
0000
1000
1000
1000
,  // measure 52
1030
0001
1000
0001
,  // measure 53
1000
0001
0100
0001
,  // measure 54
0101
0100
1000
0100
,  // measure 55
1100
2000
0100
0100
,  // measure 56
3100
1000
0100
0010
,  // measure 57
0011
0001
0100
0010
,  // measure 58
1001
0001
1000
0100
,  // measure 59
1100
0002
0203
0320
,  // measure 60
2030
3100
0100
0100
,  // measure 61
0100
0001
0001
0001
,  // measure 62
0001
1000
1000
1000
,  // measure 63
1000
0010
0010
0010
,  // measure 64
1001
0001
0001
0001
,  // measure 65
0001
1000
1000
1000
,  // measure 66
1000
0100
0100
0100
,  // measure 67
0100
0010
0010
0010
,  // measure 68
0010
2002
0000
0000
,  // measure 69
3003
0000
0000
0000
;

//---------------dance-single - ----------------
#NOTES:
     dance-single:
     :
     Challenge:
     9:
     0.671,0.761,0.307,0.265,0.663:
0000
0000
0000
0000
,
0000
0000
0000
0000
,
0000
0000
0000
0000
1000
0000
0000
2000
0000
0000
0100
0000
3001
0000
0000
0000
,
0000
0000
0000
0000
1000
0000
0001
0000
0000
0100
0000
0000
0000
0001
1000
0000
,
0001
0000
1000
0000
0000
1000
0100
1000
0000
1000
0100
0000
0000
0001
0010
0000
,
0100
0000
1000
0000
0000
0000
0001
0000
0000
0010
0000
0000
0000
1000
0100
0000
,
0010
0000
0001
0000
0000
0001
1000
0001
1000
0001
0000
1000
0000
0001
1000
0000
,
0100
0000
0010
0000
0100
0000
0010
0000
0000
0001
0000
0000
0000
0010
0100
0000
,
0010
0000
0100
0000
0000
0100
0001
0100
0000
0100
0001
0000
0000
0010
1000
0000
,
0001
0000
0100
0000
0000
0000
0010
0000
0000
1000
0000
0000
0000
0100
0001
0000
,
1000
0000
0010
0000
0000
0010
0100
0010
0100
0010
0000
0100
0000
0010
0100
0000
,
0001
1000
0010
0100
1000
0100
0001
0100
,
1000
0000
0000
0000
0000
0000
0010
1000
0010
0000
1000
0000
0010
0000
1000
0000
,
0001
0000
0000
0000
1000
0000
0100
0000
0010
0000
0001
0000
0020
0000
0000
0031
,
0000
0000
0000
0000
1000
0000
0100
0000
0000
1000
0000
0000
0200
0000
0000
0010
,
0310
0000
1001
0000
0001
0010
1000
0010
,
0001
0000
0000
0000
0000
0100
0001
0100
0001
0000
0100
0000
0010
0000
0100
0000
,
0001
0000
0000
0000
1000
0000
0000
0100
0010
0000
0001
0010
0000
0100
1000
0000
,
0001
1000
2200
0000
0000
0000
0000
0000
,
3300
0000
0001
0010
0001
0000
0000
0011
0000
0000
0100
0000
0000
1100
0000
0000
,
1000
0000
0100
0000
1000
0000
0000
1100
0000
0000
0100
0000
0000
1100
0000
0000
,
0101
0000
0000
0000
0101
0000
0000
1100
0000
0000
0100
0000
0000
1100
0000
0000
,
0100
0101
0000
0000
0000
0000
0000
0000
,
0100
1000
0100
1000
0100
0000
0000
0011
0000
0000
0101
0000
0000
1010
0000
0000
,
1100
0000
1100
0000
1010
0000
0000
1100
0000
0000
0011
0000
0000
0101
0000
0000
,
1001
0000
0000
0000
1100
0000
0000
0011
0000
0000
0101
0000
0000
1010
0000
0000
,
1100
0001
1000
0001
0100
0001
0010
0001
,
0100
0000
1000
0000
0001
0000
1000
0000
0001
0000
1000
0000
0100
0000
0100
1000
,
0000
1000
0100
0000
1000
0000
0100
1000
0000
1000
0100
0000
1000
0000
0100
0000
,
0010
0000
0001
0000
0000
0000
1001
0000
0000
0000
0001
0000
0100
0000
0010
0100
,
0000
0100
0010
0000
1000
0000
1000
0100
0000
0100
0010
0000
0001
0000
0100
0000
,
0010
0000
1000
0000
0000
0000
0010
0001
0010
0000
0100
0000
1000
0000
0100
1000
,
0000
0100
1000
0000
0010
0000
0010
0001
0000
0001
0010
0000
0001
0000
0100
0000
,
0010
0000
1000
0000
0000
0000
0001
1000
0001
1000
0001
1000
0001
0000
0001
1000
,
0000
1000
0010
0000
1000
0100
0010
0001
0010
0100
1000
0100
0010
0001
0010
0001
,
0100
0000
0000
0000
1000
0000
1000
0000
1000
0000
0000
2000
0000
0000
0000
0000
,
0000
0000
0000
0000
0001
0000
0001
0000
0001
0000
0000
3002
0000
0000
0000
0000
,
0000
0000
0000
0000
0100
0000
0100
0000
0100
0000
0000
0203
0000
0000
0000
0000
,
0000
0000
0000
0000
0010
0000
0010
0000
0010
0000
0000
0010
0300
0000
1000
0000
,
0000
0100
2000
0000
0100
0000
0010
0000
,
0001
0001
0000
0001
0000
0002
0000
0003
,
0000
0001
0010
0100
,
0010
0000
0010
0000
3010
1000
0001
0100
0010
1000
0001
0100
0010
1000
0001
0100
,
0010
1000
0001
1000
0100
0000
1100
0000
0000
0011
0000
0000
2020
0000
0000
0000
,
0000
0000
0000
0000
3030
0000
0010
0100
0010
0100
0000
0000
0110
0000
0000
0000
,
0000
0000
0000
0000
0000
0000
1000
0000
0000
0100
0000
0000
0020
0000
0000
0000
,
0000
0000
0000
0000
0032
0000
2003
0000
3020
0000
0230
0002
0000
0303
0020
0000
,
0230
0000
0320
0000
1030
0000
1100
0000
0000
0011
0000
0000
0202
0000
0000
0000
,
0000
0000
0303
0000
0000
0001
1000
0001
1000
0000
0000
0000
1000
0000
1000
0000
,
0000
1000
1000
0000
0000
0000
0010
0000
0000
0001
0000
0000
2000
0000
0000
0000
,
0000
0000
0000
0000
3100
0000
1000
0000
0100
0000
0010
0000
0001
0010
0001
0010
,
0100
1000
0001
1000
0001
0000
0010
0000
0100
0000
1000
0000
0100
0000
1000
0100
,
0000
1000
0100
0000
1000
0000
0100
0000
0010
0000
0001
0000
0010
0000
0001
0100
,
0000
0001
0100
0000
0010
0000
0100
0000
0010
0000
0100
0000
0010
0000
0001
1000
,
0000
0001
1000
0000
1000
0100
0010
0001
0010
0100
1000
0100
0010
0001
0010
0100
,
1000
0100
0010
0001
1000
0000
0100
0000
0010
0000
0001
0000
0100
0000
0001
0100
,
0000
0001
0100
0000
0001
0000
0100
0000
0010
0000
1000
0000
0010
0000
0010
1000
,
0000
1000
0010
0000
1000
0000
0001
0000
0100
0000
0010
0000
0001
0000
0001
0010
,
0000
0100
1000
0000
0010
0100
1000
0001
0010
0100
1000
0001
0010
0100
1000
0001
,
0010
0100
1000
0001
1000
0100
0000
1000
0100
0000
1000
0100
0000
1000
0100
0000
,
0010
0000
0001
0000
0001
0010
0000
0001
0010
0000
0001
0010
0000
0001
0010
0000
,
0100
0000
0001
0000
0001
0100
0000
0001
0100
0000
0001
0100
0000
0001
0100
0000
,
0001
0000
0100
0000
0010
1000
0000
0010
1000
0000
0020
2000
0000
0000
0000
0000
,
3030
0000
0000
0000
0001
0001
0000
1000
1000
0000
0001
0001
0000
1000
1000
0000
,
1000
0000
0100
0000
0010
0010
0000
0100
0100
0000
0010
0010
0000
0100
0100
0000
,
0001
0000
1000
0000
0001
0001
0000
0100
0100
0000
0010
0010
0000
1000
1000
0000
,
0010
0000
0100
0000
0002
0100
0003
0002
1000
0003
0020
1000
0030
0002
0100
0003
,
1100
0110
0022
0000
0000
0000
0000
0000
,
0033
0000
0000
0000
;

//---------------dance-single - ----------------
#NOTES:
     dance-single:
     :
     Beginner:
     2:
     0.099,0.167,0.091,0.000,0.000: // measure 1
0000
0000
0000
0000
,  // measure 2
0000
0000
0000
0000
,  // measure 3
0000
1000
0000
0000
,  // measure 4
0000
0001
0000
0000
,  // measure 5
0000
0001
0000
0000
,  // measure 6
0000
0001
0000
0000
,  // measure 7
0000
1000
0000
0000
,  // measure 8
0000
1000
0000
0000
,  // measure 9
0000
0010
0000
0000
,  // measure 10
0000
0100
0000
0000
,  // measure 11
0000
1001
0000
0000
,  // measure 12
0000
1000
0000
0000
,  // measure 13
0000
0000
0001
0000
,  // measure 14
0000
0100
0000
0000
,  // measure 15
0000
0010
0000
0000
,  // measure 16
0000
0100
0000
0000
,  // measure 17
0000
0000
1000
0000
,  // measure 18
0000
0001
0000
0000
,  // measure 19
0000
0110
0000
0000
,  // measure 20
0000
0100
0000
0000
,  // measure 21
0000
0100
0000
0000
,  // measure 22
0000
0001
0000
0000
,  // measure 23
0000
0000
0000
0000
,  // measure 24
1000
1000
0000
0000
,  // measure 25
0000
0010
0000
0000
,  // measure 26
0000
0100
0000
0000
,  // measure 27
0000
0000
0000
0000
,  // measure 28
0000
0001
0000
0001
,  // measure 29
0000
0001
0000
0001
,  // measure 30
0000
1000
0000
1000
,  // measure 31
0000
1000
0000
1000
,  // measure 32
0000
0100
0000
0100
,  // measure 33
0000
0100
0000
0100
,  // measure 34
0000
0010
0000
0010
,  // measure 35
0000
0010
0000
0000
,  // measure 36
0000
1000
0000
0000
,  // measure 37
0000
0000
0000
0000
,  // measure 38
0000
0000
0000
0000
,  // measure 39
0000
0000
0000
0000
,  // measure 40
0000
0001
0000
0000
,  // measure 41
0000
0000
0000
0000
,  // measure 42
0000
0010
0000
0000
,  // measure 43
0000
0000
0000
0000
,  // measure 44
0000
1000
0000
0000
,  // measure 45
0000
0000
0000
0000
,  // measure 46
0000
0000
0001
0000
,  // measure 47
0000
0100
0000
0000
,  // measure 48
0000
0110
0000
0000
,  // measure 49
0000
0000
0000
0100
,  // measure 50
0000
1000
0000
0000
,  // measure 51
0000
0001
0000
0000
,  // measure 52
0000
0000
0000
0000
,  // measure 53
1001
0000
0000
0000
,  // measure 54
1001
0000
0000
0000
,  // measure 55
1001
0100
0000
0000
,  // measure 56
0000
0000
0000
0000
,  // measure 57
0110
0000
0000
0000
,  // measure 58
0110
0000
0000
0000
,  // measure 59
0110
0001
0000
0000
,  // measure 60
0000
1000
0000
0000
,  // measure 61
0001
0001
0000
0000
,  // measure 62
0100
0100
0000
0000
,  // measure 63
0010
0010
0000
0000
,  // measure 64
1001
1000
0000
0000
,  // measure 65
0001
0001
0000
0000
,  // measure 66
0010
0010
0000
0000
,  // measure 67
0100
0100
0000
0000
,  // measure 68
0000
1001
0000
0000
;
