#TITLE:Secret of Love;
#SUBTITLE:;
#ARTIST:D.J.SWAN;
#TITLETRANSLIT:;
#SUBTITLETRANSLIT:;
#ARTISTTRANSLIT:;
#CREDIT:Stepfile created by Digi379 aka DHB;
#BANNER:bn.bmp;
#BACKGROUND:bg.bmp;
#LYRICSPATH:;
#CDTITLE:Digi.png;
#MUSIC:Secret of Love.mp3;
#OFFSET:-0.460;
#SAMPLESTART:62.640;
#SAMPLELENGTH:12.000;
#SELECTABLE:YES;
#BPMS:0.000=162.000;
#STOPS:;
#BGCHANGES:;

//---------------dance-single - ----------------
#NOTES:
     dance-single:
     :
     Hard:
     7:
     0.399,0.546,0.194,0.358,0.070: // measure 1
0000
0000
0000
0000
,  // measure 2
0000
0000
0000
0000
,  // measure 3
0000
0000
0000
0000
,  // measure 4
0000
0000
0000
0000
,  // measure 5
0000
0000
0000
0000
,  // measure 6
0000
0000
0000
0000
,  // measure 7
0020
0000
0000
0000
,  // measure 8
0230
0000
0000
0000
,  // measure 9
2300
0000
0000
0000
,  // measure 10
3002
0000
0000
0000
,  // measure 11
0013
0000
0000
0200
0000
0000
0310
0200
,  // measure 12
0000
0000
0000
0000
0000
0000
0301
0020
,  // measure 13
0000
0000
0000
0000
0000
0000
0130
2000
,  // measure 14
0000
0000
0000
0000
0000
3100
0000
0000
,  // measure 15
0120
0000
0000
0230
0000
0000
0310
2000
,  // measure 16
0000
0000
0000
0000
0000
0000
3100
2000
,  // measure 17
0000
0000
0000
0000
0000
3000
0020
0002
,  // measure 18
0000
0000
0000
0033
,  // measure 19
1000
0000
0000
0000
0100
0000
0000
1000
0000
0000
0100
0000
0010
0000
0000
0000
,  // measure 20
0001
0000
0000
0000
1000
0000
0000
1100
0000
0000
0010
0000
0100
0000
0000
0000
,  // measure 21
0010
0000
0000
0000
1001
0000
0000
0010
0000
0000
0100
0000
0101
0000
0000
0000
,  // measure 22
0010
0000
0000
0000
0110
0000
0000
0010
0000
0000
1000
0000
1001
0000
0000
0000
,  // measure 23
1010
0000
0000
0000
0001
0000
0000
0100
0000
0000
0010
0000
1001
0000
0000
0000
,  // measure 24
1010
0000
0000
0000
0010
0000
0000
0110
0000
0000
0010
0000
1001
0000
0000
0000
,  // measure 25
0001
0100
0010
1000
0010
0100
0001
0010
,  // measure 26
0100
1000
0100
0010
0001
0000
0102
0000
,  // measure 27
1003
0100
0010
0001
1000
0100
0010
0001
,  // measure 28
1000
0100
0010
0001
1000
0100
0010
0001
,  // measure 29
1000
0100
0010
0001
1000
0100
0010
0001
,  // measure 30
1000
0100
0010
0001
0000
0010
0000
0000
,  // measure 31
0011
0100
0001
1000
0010
0100
0001
1000
,  // measure 32
0010
0100
0001
1000
0010
0100
0001
1000
,  // measure 33
0010
0100
0001
1000
0010
0100
0001
1000
,  // measure 34
0010
0100
0001
1000
0010
0100
0010
0000
,  // measure 35
0001
0000
1000
0000
0100
1000
0100
0000
,  // measure 36
0010
0100
0000
0001
1000
0000
1100
0000
,  // measure 37
0010
1000
0100
0010
0001
0010
0100
1000
,  // measure 38
0010
0100
0010
1000
0010
0201
0000
0000
,  // measure 39
0301
0010
0100
1000
0100
0010
0001
0010
,  // measure 40
0100
1000
0100
0010
0001
0010
0100
1000
,  // measure 41
0100
0010
0001
0010
0100
1000
0100
0010
,  // measure 42
0001
0010
0100
1000
0100
0010
0001
0010
,  // measure 43
0200
0000
0000
0000
,  // measure 44
0000
0000
0000
0000
0000
0000
0000
0000
0010
0000
0000
0000
0000
0300
0010
0100
,  // measure 45
0020
0000
0000
0000
,  // measure 46
0000
0000
0000
0000
0000
0000
0000
0000
1030
0000
0000
0000
0000
0000
1000
0100
,  // measure 47
2000
0000
0000
0010
0000
0000
3010
0000
,  // measure 48
0020
0000
0000
0100
0000
0000
0130
0000
,  // measure 49
2002
0000
0000
0000
0000
3000
0000
0000
,  // measure 50
0200
0000
0000
0303
,  // measure 51
0002
0000
0000
0000
,  // measure 52
0000
0000
0000
0000
0000
0000
0000
0000
0010
0000
0000
0000
0000
0000
0013
0100
,  // measure 53
0020
0000
0000
0000
,  // measure 54
0000
0000
0000
0000
0000
0000
0000
0000
0100
0000
0000
0000
0000
0030
0100
1000
,  // measure 55
0200
0000
0000
0010
0000
0000
0001
0000
,  // measure 56
0010
0000
0000
1000
0000
0000
0310
0000
,  // measure 57
0200
0000
0000
0000
,  // measure 58
2300
0000
0000
0000
,  // measure 59
3002
0000
0000
0000
,  // measure 60
0020
0000
0000
0003
,  // measure 61
0130
0010
0100
1000
0100
0010
0001
0100
,  // measure 62
0010
0000
1000
0000
0001
0000
0010
0000
1000
0000
0000
0000
1100
0000
0000
0010
,  // measure 63
0200
0000
0000
0000
1000
0000
0310
0200
,  // measure 64
0000
0000
0000
0000
0000
0000
0000
0300
2000
0000
0000
0000
0000
0000
3010
0100
,  // measure 65
0020
0000
0000
0000
0000
0000
0230
0000
0000
0300
1000
0100
,  // measure 66
0002
0000
0000
0000
0000
0000
0000
0000
0010
0000
0000
0000
0000
0003
0010
0100
,  // measure 67
0020
0000
0000
0000
0000
0000
1000
0000
0000
0000
0000
0000
0100
0030
0000
0000
,  // measure 68
0011
0000
0000
1100
0000
0000
0010
0000
,  // measure 69
0001
0100
0010
1000
0100
0010
0001
0100
,  // measure 70
0010
1000
0001
0100
0010
0000
2000
0000
,  // measure 71
3020
0000
0000
0000
0100
0000
0100
0200
,  // measure 72
0000
0000
0000
0030
0000
0000
0000
0000
0320
0000
0000
0000
0000
0030
1000
0100
,  // measure 73
2000
0000
0000
0000
0000
0000
0000
0000
0010
0000
0000
0000
0000
3000
0010
0100
,  // measure 74
0020
0000
0000
0000
0000
0000
0000
0000
0001
0000
0000
0000
0000
0030
0100
1000
,  // measure 75
0100
0000
0000
0110
0000
0000
1010
0000
,  // measure 76
0011
0000
0000
1100
0000
0000
0011
0000
,  // measure 77
0220
0000
0030
0000
,  // measure 78
2000
0000
0000
0000
,  // measure 79
3300
0000
0000
0000
;

//---------------dance-single - ----------------
#NOTES:
     dance-single:
     :
     Medium:
     4:
     0.268,0.364,0.101,0.412,0.000:
0000
0000
0000
0000
,
0000
0000
0000
0000
,
0000
0000
0000
0000
,
0000
0000
0000
0000
,
0000
0000
0000
0000
,
0000
0000
0000
0000
,
0002
0000
0000
0000
,
0023
0000
0000
0000
,
0230
0000
0000
0000
,
2300
0000
0000
0000
,
3010
0000
0000
0002
0000
0000
0020
0000
,
0000
0000
0033
0200
,
0000
0000
0000
2000
,
0000
0000
0000
3300
0000
0010
0000
0000
,
0020
0000
0000
0100
0000
0000
0000
0000
,
0200
0000
0030
2000
,
0000
0000
0000
0300
0000
0000
0002
0000
,
0000
0000
0000
3003
,
0110
0000
0000
0010
0000
0000
1000
0200
,
0000
0000
0000
0000
0000
0000
0310
0002
,
0000
0000
0000
0000
0000
0003
0100
0020
,
0000
0000
0000
0000
0000
1000
0030
0000
,
1001
0000
0000
0020
0000
0000
0130
2000
,
0000
0000
0000
0000
0000
0000
3100
0020
,
0000
0000
0000
0000
0000
0000
0031
0200
,
0000
0000
0300
1001
,
0010
1000
0100
0010
,
0001
1000
0010
0100
,
1000
0001
0010
0100
,
1000
0000
0100
0000
0000
0110
0000
0000
,
0110
0010
0100
1000
,
0001
0010
1000
0001
,
0100
1000
0010
0100
,
1000
0010
0001
0100
,
1000
0000
0010
0000
0100
1000
0100
0000
,
0010
0100
0000
0010
0100
0000
1001
0000
,
0010
0000
0001
0000
0001
0100
0000
0010
,
1000
0010
0000
0100
1000
0000
0100
0000
,
1000
0100
0010
0001
,
0100
0001
1000
0010
,
0100
1000
0010
0100
,
0001
1000
0010
0100
0010
0000
0110
0000
,
2000
0000
0000
0000
,
0000
0000
0000
0000
3200
0000
0000
0010
,
0020
0000
0000
0000
,
0000
0300
0000
0000
0032
0000
0000
0100
,
0203
0000
0000
0310
0000
0000
1000
0000
,
0002
0000
0000
0103
0000
0000
0010
0000
,
2000
0000
0000
0000
,
0000
0000
0000
3000
,
0202
0000
0000
0000
,
0300
0000
0000
0000
0023
0000
0000
1000
,
2000
0000
0000
0000
,
0030
0000
0000
0000
0100
0000
0000
0010
,
0020
0000
3000
0001
0000
0000
0001
0000
,
0032
0000
0000
0013
0000
0000
0100
0000
,
2000
0000
0000
0000
,
3020
0000
0000
0000
,
0230
0000
0000
0000
,
0302
0000
0000
0000
0000
0000
0000
0003
,
0022
0000
0000
0000
,
0000
0000
0033
1100
,
1002
0000
0000
0000
0103
0000
1000
0200
,
0000
0000
0000
0000
0310
0000
0000
0010
,
2000
0000
0000
0000
3100
0000
0000
0010
,
0020
0000
0000
0000
0001
0000
0030
0100
,
0200
0000
0000
1300
0000
0000
0010
0000
,
0001
0000
0000
0100
0000
0000
1000
0000
,
0002
0000
0000
0000
,
2000
0000
3003
0110
,
0020
0000
0000
0000
1000
0030
0100
0020
,
0000
0000
0000
0000
0001
0000
0000
0100
,
0230
0000
0000
0000
1000
0000
0000
0001
,
0302
0000
0000
0000
0103
0000
0000
1000
,
0100
0000
0000
0020
0000
0000
0031
0000
,
0200
0000
0000
1300
0000
0000
0010
0000
,
0020
0000
0000
0000
0000
0000
0000
0030
,
0200
0000
0000
0300
,
1001
0000
0000
0000
;

//---------------dance-single - ----------------
#NOTES:
     dance-single:
     :
     Easy:
     3:
     0.198,0.303,0.054,0.311,0.000:
0000
0000
0000
0000
,
0000
0000
0000
0000
,
0000
0000
0000
0000
,
0000
0000
0000
0000
,
0000
0000
0000
0000
,
0000
0000
0000
0000
,
0000
0000
0000
0000
,
0000
0000
0000
0000
,
0000
0000
0000
0000
,
0000
0000
0000
0000
,
0002
0000
0000
0000
,
0000
0000
0000
0023
,
0000
0000
0000
0230
,
0000
0000
0000
0000
0000
1000
0000
0000
,
2300
0000
0000
0000
,
0000
0000
0000
3200
,
0000
0000
0000
0020
,
0000
0000
0000
0330
,
0002
0000
0000
0003
,
0020
0000
0000
0130
,
2000
0000
0000
3100
,
0020
0000
0000
0031
,
0200
0000
0000
0310
,
2000
0000
0000
3001
,
0200
0000
0000
0000
,
1300
0010
0001
0011
,
0001
0010
0100
1000
,
0001
1000
0010
0100
,
1000
0010
0001
0100
,
1000
0000
0010
0000
0100
1000
0000
0000
,
1000
0100
0010
0001
,
0100
1000
0010
0001
,
0100
1000
0100
1000
,
0010
0001
0010
0100
,
1000
0010
0001
0100
,
1000
0010
1000
0010
,
0100
1000
0001
0100
,
1000
0100
0010
0001
,
0011
0010
0100
1000
,
0010
0001
1000
0100
,
0010
1000
0010
0100
,
0010
0100
0010
1001
,
2000
0000
0000
0000
,
0000
0000
3200
0000
,
0320
0000
0000
0000
,
0000
0000
0000
0030
0002
0000
0000
0000
,
0023
0000
0000
0000
,
0230
0000
0000
0000
,
2300
0000
0000
0000
,
0000
0000
0000
0000
0000
0000
0000
3000
,
0020
0000
0000
0000
,
0000
0000
0230
0000
,
2300
0000
0000
0000
,
0000
0000
0000
3000
0200
0000
0000
0000
,
0010
0000
0000
0310
0000
0000
0000
0000
,
0002
0000
0000
1003
0000
0000
0100
0000
,
2200
0000
0000
0000
,
0000
0000
0000
0000
,
0000
0000
0000
0000
,
0000
0000
0000
0000
,
0000
0000
0000
0000
,
0000
0000
3300
0011
,
0002
0000
0200
0000
,
0003
0000
0320
0000
,
1000
0000
1000
0000
,
2030
0000
0100
0000
,
3200
0000
0000
0010
,
0020
0000
0300
0001
,
0002
0000
0000
0000
,
0000
0000
0033
1100
,
0020
0000
0100
0000
,
0000
0000
0230
0000
,
2300
0000
0001
0000
,
0010
0000
0100
0000
,
3200
0000
0000
1000
,
2000
0000
0000
0300
0000
0000
0010
0000
,
0020
0000
0000
0000
,
0000
0000
0000
3030
,
1001
0000
0000
0000
;

//---------------dance-single - ----------------
#NOTES:
     dance-single:
     :
     Beginner:
     1:
     0.034,0.091,0.008,0.000,0.000:
0000
0000
0000
0000
,
0000
0000
0000
0000
,
0000
0000
0000
0000
,
0000
0000
0000
0000
,
0000
0000
0000
0000
,
0000
0000
0000
0000
,
0000
0000
0000
0000
,
0000
0000
0000
0000
,
0000
0000
0000
0000
,
0000
0000
0000
0000
,
0001
0000
0000
0000
,
0000
0000
0000
0000
,
0000
0000
0000
0000
,
0000
0000
0000
0000
,
1000
0000
0000
0000
,
0000
0000
0000
0000
,
0000
0000
0000
0000
,
0000
0000
0000
0000
,
0100
0000
0000
0000
,
0000
0000
0000
0000
,
0000
0000
0000
0000
,
0000
0000
0000
0000
,
0010
0000
0000
0000
,
0000
0000
0000
0000
,
0000
0000
0000
0000
,
0000
0000
0000
0001
,
1000
0000
0000
0000
,
0000
0000
0000
0000
,
0000
0000
0000
0000
,
0000
0000
0000
0000
,
0001
0000
0000
0000
,
0000
0000
0000
0000
,
0000
0000
0000
0000
,
0000
0000
0000
0000
,
0010
0000
0000
0000
,
0000
0000
0000
0000
,
0100
0000
0000
0000
,
0000
0000
0000
0000
,
1000
0000
0000
0000
,
0000
0000
0000
0000
,
0001
0000
0000
0000
,
0000
0000
0000
0000
,
0010
0000
0000
0000
,
0000
0000
0000
0000
,
0100
0000
0000
0000
,
0000
0000
0000
0000
,
1000
0000
0000
0000
,
1000
0000
0000
0000
,
0001
0000
0000
0000
,
0000
0000
0000
0000
,
0010
0000
0000
0000
,
0000
0000
0000
0000
,
0010
0000
0000
0000
,
0000
0000
0000
0000
,
1000
0000
0000
0000
,
0000
0000
0000
0000
,
1000
0000
0000
0000
,
0000
0000
0000
0000
,
0001
0000
0000
0000
,
0000
0000
0000
0000
,
0010
0000
0000
0000
,
0000
0000
0000
0000
,
0100
0000
0000
0000
,
0000
0000
0000
0000
,
0001
0000
0000
0000
,
0000
0000
0000
0000
,
1000
0000
0000
0000
,
0000
0000
0000
0000
,
0000
0000
0000
0000
,
0000
0000
0000
0000
,
0010
0000
0000
0000
,
0000
0000
0000
0000
,
0100
0000
0000
0000
,
0000
0000
0000
0000
,
1000
0000
0000
0000
,
0000
0000
0000
0000
,
0001
0000
0000
0000
,
0000
0000
0000
0000
,
1001
0000
0000
0000
;
