#TITLE:Second Heaven;
#SUBTITLE:;
#ARTIST:Ryu☆;
#TITLETRANSLIT:;
#SUBTITLETRANSLIT:;
#ARTISTTRANSLIT:;
#CREDIT:;
#BANNER:bn.PNG;
#BACKGROUND:bg.PNG;
#LYRICSPATH:;
#CDTITLE:14 Gold.png;
#MUSIC:Second Heaven.mp3;
#OFFSET:1.380;
#SAMPLESTART:100.480;
#SAMPLELENGTH:12.000;
#SELECTABLE:YES;
#BPMS:0.000=149.000,49.000=74.500,81.000=149.000,178.000=74.500,195.000=149.000;
#STOPS:81.000=1.208
,194.000=1.208
,194.500=1.208
;
#BGCHANGES:;

//---------------dance-single - ----------------
#NOTES:
     dance-single:
     :
     Hard:
     7:
     0.508,0.600,0.643,0.322,0.169:
0000
0000
0000
0000
,
0000
0000
0000
0000
,
0000
0000
1000
0100
0001
1000
0010
0100
,
0010
1000
0010
0000
0011
0000
0001
0100
,
0020
0000
0130
1000
0001
1000
0010
0100
,
0010
1000
0010
0000
0011
0000
0001
0100
,
0010
0000
1100
1100
0000
0110
0000
1001
,
0000
0010
1000
1001
0000
0110
0000
1100
,
0000
0010
0001
0011
0000
0001
0100
0101
,
0000
0010
2000
0000
3200
0000
0310
1000
,
0001
0100
0202
0000
0000
0000
0000
0000
,
0000
0000
0000
0000
,
0303
0000
0000
0000
1100
0000
0010
0000
0100
0000
0000
0001
0000
0100
0000
1000
,
0000
0100
0010
0000
0100
0000
1000
0000
0100
0000
0000
0002
0000
0200
0000
0000
,
0303
0000
0000
0000
0110
0000
0010
0000
1001
0000
0000
1010
0000
0101
0000
1100
,
0000
0010
0001
0000
0110
0000
1010
0000
0101
0000
0000
1100
0000
0022
0000
0000
,
0033
0000
0000
0000
0000
1000
0100
0010
0000
0001
1000
0010
0000
0100
1000
0100
,
0010
0001
0010
0100
0000
0010
1000
0001
0000
0100
1000
0100
0110
0000
0220
0000
,
0000
0330
1100
0000
0000
0000
0011
0000
,
0000
0000
0110
0000
1010
0000
0101
1100
,
0011
0110
0000
0000
1000
0000
0100
0000
,
0010
1000
0001
0000
0011
0000
0110
0000
,
0010
1000
0001
0100
0002
0000
0103
0000
,
0010
0010
0011
0000
0100
0010
1000
0001
,
0200
0000
0301
1100
,
0010
1000
0010
0000
0011
0000
1100
0000
,
0010
0100
1000
0100
0010
0000
0011
0000
,
0100
0001
1000
0000
0001
0100
0010
2000
,
0002
0000
0000
3003
0120
0000
2030
0000
,
3200
0000
0300
0010
0000
0100
0000
1000
,
0000
0001
0200
0000
0010
0000
0301
0000
,
1001
0000
0000
0110
0000
0220
0000
0000
,
0330
0000
2000
3200
,
0320
0000
0000
0001
0000
0100
0000
1000
,
0000
0130
2000
0000
0001
0000
0001
0000
,
3002
0000
0003
0110
0000
2020
0000
0000
,
3030
0000
0000
0000
0000
1010
0000
0101
,
0000
1000
0100
1000
0000
0000
0110
0110
,
0000
0010
0100
0000
1000
0100
0000
0010
,
0000
0001
0100
1000
0000
0010
0100
0010
,
0000
1000
0100
0000
0110
0110
0000
1100
,
0000
0011
0000
0001
0100
0101
0000
0012
,
0000
0103
0000
1000
1100
1100
0000
0000
,
0110
0110
0000
0000
1001
2002
0000
0000
,
0000
0000
0000
0000
0000
0000
3003
0000
1100
0000
0011
0000
0010
1000
0001
0000
,
0100
1000
0100
0010
0001
0010
0100
0001
1000
0000
1100
0000
0110
0000
0001
0000
,
1000
0100
0001
2000
0002
0000
0000
3003
0100
1000
0001
0100
0010
0000
0100
0000
,
0010
1000
0100
0000
0001
0000
0010
0000
1000
0010
0100
0000
0010
0001
0010
0000
,
1000
0100
0010
0001
0100
0010
1000
0001
0100
0000
1001
0000
1000
0000
0100
0000
,
0010
0100
0001
1000
0020
0000
0130
1000
,
0010
1000
0010
0100
0001
0100
0010
0100
,
0010
1000
0010
0100
0002
0000
0103
1000
,
0100
0010
0002
0000
0000
0003
1100
1100
,
0000
0010
0000
0100
0010
0000
0110
0110
,
0000
0001
1000
0001
0100
1000
0011
0011
,
0000
0101
0101
0000
0110
0000
1000
0100
,
0010
2000
0002
0000
0000
0000
3003
0000
;

//---------------dance-single - ----------------
#NOTES:
     dance-single:
     :
     Medium:
     6:
     0.377,0.552,0.313,0.186,0.017:
0000
0000
0000
0000
,
0000
0000
0000
0000
,
0000
0000
0000
0100
0000
0010
0000
1000
,
0100
0010
0000
0000
0101
0001
0000
0010
,
0100
0000
0000
1000
0000
0100
0000
0010
,
1000
0001
0000
0000
0100
1100
0000
0010
,
0100
0000
0010
0100
0000
0110
0000
1001
,
0000
1100
0000
0011
0000
0110
0000
1010
,
0000
0001
0100
1000
0000
1000
0100
0010
,
0000
0001
1001
0000
1001
0000
0010
0100
,
0010
1000
2002
0000
0000
0000
0000
0000
,
0000
0000
0000
0000
,
3003
0000
1000
0100
0010
0000
0001
0100
,
0010
1000
0001
0100
0010
0000
1000
0200
,
0020
0330
0001
1000
0110
1000
0100
0010
,
0011
0100
0101
0010
0110
1000
1100
0010
,
1001
0000
0000
0010
0000
0100
0000
1000
,
0001
0100
0000
0010
0000
0100
2000
0002
,
0000
3003
0110
0000
0000
0000
0110
0000
,
0000
0000
0110
0000
0110
0000
0110
0110
,
0110
0110
0110
0000
1000
0000
0100
0000
,
0010
0001
0010
0000
0100
0000
0001
0000
,
0010
1000
0010
0000
1000
0000
0001
0000
,
0100
0010
0100
0000
1100
0000
0011
0000
,
0220
0330
1000
0001
,
0100
0010
0100
0000
1000
0000
0001
0000
,
0010
1000
0010
0000
0100
0000
0001
0000
,
1000
0100
0010
0000
0011
0000
1100
0000
,
0220
0330
1000
0100
,
0010
0000
0000
0001
0000
0100
0000
1000
,
0000
0010
0100
0000
0010
0000
1000
0000
,
0001
0000
0000
0200
0000
2000
0000
0000
,
3300
0000
0010
0100
,
1000
0000
0000
0001
0000
1000
0000
0010
,
0000
0100
1000
0000
0010
0000
0001
0000
,
0100
0000
0000
2000
0000
0020
0000
0000
,
0000
0000
3030
0000
0000
0100
0000
1000
,
0000
0010
0001
0010
0000
0000
0100
1000
,
0000
0010
0001
0000
0000
0100
0000
0010
,
0000
1000
0001
1000
0000
0000
0100
0100
,
0000
0010
1000
0000
0000
0001
0000
0100
,
0000
1000
0000
0010
0000
0100
0000
0001
,
0000
1000
0000
0100
1000
0000
0000
0010
,
0001
0000
0000
0100
0010
0000
0100
0000
,
1000
0000
0100
0000
0001
0100
1000
0000
,
0100
1000
1001
0000
0110
0000
0110
0000
,
1000
0200
0020
0330
0001
0000
0001
0000
,
1000
0000
1000
0000
0001
1000
0100
0010
,
0001
1000
0001
1000
0001
1000
0001
1000
0000
0000
0010
0000
1000
0000
0000
0000
,
0100
0000
0010
0001
0010
0000
0100
0000
,
0010
0000
1000
0001
1000
0001
1000
0000
,
0100
0000
0010
0001
0010
0000
1000
0100
,
0010
0002
0020
0000
0000
0033
0010
0100
,
0000
0110
0000
1100
0000
0010
0001
0010
,
0000
0100
1000
0100
0010
0001
0010
0200
,
0000
1300
0200
0000
0310
0000
0001
1000
,
0010
0200
0002
0000
0000
0000
0303
0000
;

//---------------dance-single - ----------------
#NOTES:
     dance-single:
     :
     Easy:
     3:
     0.250,0.312,0.203,0.093,0.000:
0000
0000
0000
0000
,
0000
0000
0000
0000
,
0000
1000
0001
0100
,
0010
0000
0010
0000
,
0110
1000
0001
0100
,
0010
1000
2002
3003
,
0010
1100
0000
0000
,
0000
0011
0000
0000
,
0000
0101
0000
1010
,
0000
0120
0000
0000
,
0030
0002
0000
0000
,
0000
0000
0000
0000
,
0003
1000
0001
0100
,
0010
1000
0001
0100
,
0001
0000
1001
0000
0001
0100
0000
0010
,
0100
0000
0110
0000
0010
1000
0000
1000
,
0001
0001
1000
0010
,
0100
0010
1000
0001
,
0000
0001
0000
1000
,
0000
0000
0001
0000
1000
0000
0001
0001
,
1000
1000
0000
0000
0010
0000
0100
0000
,
0010
1000
0010
0100
,
0001
0001
1000
0001
,
0100
0010
1000
1000
,
2000
3000
0001
0100
,
0010
1000
0010
0100
,
0010
0010
0010
1000
,
0001
0100
0010
1000
,
0002
0003
1000
1000
,
1000
0000
0001
0100
,
0010
1000
0010
0100
,
0010
0000
1000
0001
,
0100
0000
0110
0010
,
0010
0000
1000
0001
,
0100
0001
0010
0001
,
0010
0000
1000
0100
,
0000
0000
0000
0001
,
0100
0010
1000
0010
,
0100
0110
0010
1000
,
0001
0100
0001
1000
,
0010
1000
1001
0000
,
0000
0000
0110
0000
,
0000
0000
1010
0000
,
0011
0000
1100
0001
,
0100
0010
1000
0001
,
0100
0000
0010
1000
0001
0000
1000
0000
,
0001
0100
0020
0030
0100
0000
0000
0000
,
0010
0000
1000
0001
,
0100
0010
0000
0001
,
1000
0001
0100
0001
,
0010
0001
0010
0100
,
0100
0010
0010
0001
,
2000
0200
3300
1010
,
0000
0110
1001
1100
,
0000
0011
0110
1100
,
0000
0110
0000
1000
,
0002
0200
0000
0303
;

//---------------dance-single - ----------------
#NOTES:
     dance-single:
     :
     Challenge:
     9:
     0.608,0.816,0.432,0.305,0.470:
0000
0000
0000
0000
,
0000
0000
0000
0000
,
0000
0000
0000
0000
1000
0000
1100
0000
0000
0000
0011
0000
0000
0000
0001
0100
,
0000
0000
0001
1000
0000
0000
0000
0000
1100
0000
0011
0000
0000
0000
1000
0001
,
0000
0000
0000
0000
1000
0000
1100
0000
0000
0000
0110
0000
0000
0000
0001
0100
,
0000
0000
0010
1000
0000
0000
0000
0000
1000
0000
0011
0000
0000
0000
0001
0100
,
0002
0000
1003
1200
0000
0010
0000
0010
,
0000
0000
0010
0000
0310
0000
2100
0000
0000
0000
3001
0000
0000
0000
0100
0001
,
1000
0100
1100
0101
0000
0010
0110
1100
,
0000
0000
1000
0000
1001
0000
0101
0000
0001
1000
0100
0000
0010
0000
1000
0001
,
1000
0001
0200
0000
0000
0000
0000
0000
,
0000
0000
0000
0000
,
0000
0000
0000
0000
0310
1000
0010
0100
0000
0001
1000
0001
0000
0001
0010
0100
,
1000
0001
0100
0001
0000
1000
0001
0100
0000
0010
1000
0001
0100
0001
0010
0100
,
1000
0000
1100
0100
0011
0101
0010
0100
,
0110
1000
1100
0010
0011
0101
0010
0110
,
1001
0000
0010
0000
0000
0001
0100
0002
0000
0100
0100
0203
0000
0310
0010
1000
,
0010
0010
1000
1000
0000
0010
1000
0001
0000
0100
0010
1000
0010
0100
0001
0010
,
0100
2100
0000
3020
,
0000
0000
0230
0000
0302
0000
2003
3002
,
0203
0000
0320
0000
1030
0000
0000
0000
1000
0000
0001
0100
0000
0100
0010
0000
,
1000
0000
0001
0000
0100
0000
0000
0100
0010
0000
0010
1000
0000
0100
0001
1000
,
0001
0000
1000
0000
0100
0000
0010
0000
0100
0000
0010
0001
0000
0001
1000
0000
,
0100
0000
0010
0000
0001
0000
1000
0001
0100
0000
0010
0000
1000
0000
0002
0000
,
0200
0000
0000
0000
0303
0000
0000
0000
0001
0000
1000
0010
0000
0010
0100
0000
,
0001
0000
1000
0000
0010
0000
0100
0010
0100
0000
0100
0001
0000
0010
1000
0001
,
1000
0000
0001
0000
0010
0000
0100
0000
0010
0000
0100
1000
0000
1000
0001
0000
,
0010
0000
0100
0000
1000
0000
0001
1000
0010
0000
0100
0000
0001
0000
2000
0000
,
0020
0000
3030
0000
1000
0001
0100
0001
,
0000
0001
1000
0010
0000
0001
0010
0100
,
1000
1000
0001
0001
0000
0010
1000
0001
,
0000
0010
1000
0001
0100
0010
0001
1000
,
0020
0000
1000
1030
1010
0000
0110
0000
,
0012
0000
0000
0010
0000
0100
0000
0010
,
0000
1000
1003
0000
1002
0000
0203
0000
,
0320
0000
0000
1000
0000
0002
0000
0000
,
0033
0000
0000
0000
1000
1100
0000
0011
,
0000
0000
0001
0100
0000
0000
0010
1000
0000
0000
0000
0000
1001
0000
0101
0000
,
0000
0000
0001
0100
0000
0000
0000
0000
1000
0000
1001
0000
0000
0000
0101
0000
,
0000
0000
0001
0100
0000
0000
1000
0100
0000
0000
0000
0000
1000
0000
0010
0000
,
0000
0000
1000
0001
0000
0000
0000
0000
1000
0000
1100
0000
0000
0000
0010
0000
,
0000
0001
0000
0010
0110
0100
0000
0010
,
0000
1000
0000
0001
0101
0100
0000
0010
,
0110
1000
0000
0010
1000
0001
0010
0100
,
1000
0000
0000
0000
0002
0000
2000
0000
0000
0000
0000
0000
3003
0000
0000
0000
1000
0000
0000
0000
0001
0000
0000
0000
0010
0000
1000
0000
0001
0000
1000
0100
,
1000
0000
0100
0000
0001
0000
1000
0001
0100
0000
0010
0000
1000
0000
0001
0000
0200
0000
0000
0000
0310
0000
0000
0000
0101
0000
1000
0000
1001
0000
0001
1000
,
0100
0000
1000
0000
0100
0000
0002
0000
0200
0000
0000
0000
0303
0000
0000
0000
1000
0000
0001
0000
0100
0000
0010
0000
0100
0000
1000
0000
0001
0000
0100
0010
,
1000
0000
0001
0000
0010
0000
1000
0000
0001
0000
0100
0000
0010
0000
1000
0001
0100
0000
0100
0000
0010
0000
0010
0000
1000
0000
1000
0000
0001
0000
0001
0000
,
1000
0000
0000
0000
0001
0000
0000
0000
0010
0000
0000
0000
0100
0000
0000
0000
1000
0000
0001
0000
0010
0000
0100
0000
1000
0000
0001
0000
0100
0000
0001
0000
0000
0000
0000
0000
0000
0000
0000
0000
0020
0030
0000
0000
0000
0000
0000
0000
1100
0000
0000
0000
0000
0000
0000
0000
0100
0000
0000
0000
0000
0000
0000
0000
,
0110
0000
0010
0000
0012
0000
0100
0000
0013
0000
1000
0100
1000
0000
0001
0000
,
0101
0000
0010
0100
0010
0000
1000
0000
0001
0000
0010
0000
0001
0000
1000
0100
,
1000
0000
0001
0100
0001
0000
0010
0000
1010
0000
0001
1000
0200
0000
1300
0000
,
0020
0130
0002
0000
0000
0000
1003
1001
,
0000
0000
0001
0100
0001
0000
0100
0000
0110
0000
1000
0001
0100
0000
0010
1000
,
0000
0001
0010
0100
1000
0000
1100
0000
0010
0000
0101
0000
1000
0000
0001
0100
,
0000
0010
1000
0001
0100
0000
0010
0000
1010
0000
1000
0001
0100
0000
0010
0000
,
1000
0002
0020
0000
0000
0000
0033
0000
;

//---------------dance-single - ----------------
#NOTES:
     dance-single:
     :
     Beginner:
     1:
     0.079,0.119,0.025,0.000,0.000: // measure 1
0000
0000
0000
0000
,  // measure 2
0000
0000
0000
0000
,  // measure 3
0000
1000
0000
0000
,  // measure 4
0000
0000
0001
0000
,  // measure 5
0100
0010
0000
0000
,  // measure 6
0000
0000
1000
0000
,  // measure 7
1000
0001
0000
0000
,  // measure 8
0000
0001
0000
0000
,  // measure 9
0000
0100
0000
0010
,  // measure 10
0000
1000
0000
0000
,  // measure 11
0000
0100
0000
0000
,  // measure 12
0000
0000
0000
0000
,  // measure 13
0000
1000
0000
0000
,  // measure 14
0000
0000
0000
0000
,  // measure 15
0000
0010
0000
0000
,  // measure 16
0000
0100
0000
0000
,  // measure 17
0000
1000
0000
0000
,  // measure 18
0001
0001
0000
0000
,  // measure 19
0000
0010
0000
0000
,  // measure 20
0000
0010
0000
0010
,  // measure 21
0010
0000
0100
0000
,  // measure 22
0000
0000
0010
0000
,  // measure 23
0000
0000
1000
0000
,  // measure 24
0000
0000
0001
0000
,  // measure 25
0001
0000
0001
0000
,  // measure 26
0000
0000
1000
0000
,  // measure 27
0000
0000
0010
0000
,  // measure 28
0000
0000
0100
0000
,  // measure 29
0100
0000
0100
0000
,  // measure 30
0000
0000
0000
0000
,  // measure 31
0000
0000
0010
0000
,  // measure 32
0000
0000
0000
0000
,  // measure 33
0000
0000
1000
0000
,  // measure 34
0000
0000
0000
0000
,  // measure 35
0000
0000
0001
0000
,  // measure 36
0000
0000
0000
0000
,  // measure 37
0000
0000
0100
0000
,  // measure 38
0000
0000
0000
0000
,  // measure 39
0000
0000
0010
0000
,  // measure 40
0000
0000
0000
0000
,  // measure 41
0000
0000
1000
0000
,  // measure 42
0000
0000
0001
0000
,  // measure 43
0000
0000
0100
0000
,  // measure 44
0010
0000
1000
0000
,  // measure 45
0000
0000
0001
0000
,  // measure 46
0000
0000
1000
0000
,  // measure 47
0000
0000
0010
0000
,  // measure 48
0010
0000
0100
0000
,  // measure 49
0100
0100
0000
0001
,  // measure 50
0000
0000
0000
1000
,  // measure 51
0000
0000
0000
0010
,  // measure 52
0000
0000
0000
0100
,  // measure 53
0000
0100
0000
0110
,  // measure 54
0000
0000
0000
1001
,  // measure 55
0000
0010
0000
1001
,  // measure 56
0000
0000
0000
0100
,  // measure 57
0100
0100
0000
0000
;
