#TITLE:Schroedinger's Cat;
#SUBTITLE:;
#ARTIST:Cait Sith;
#TITLETRANSLIT:;
#SUBTITLETRANSLIT:;
#ARTISTTRANSLIT:;
#CREDIT:;
#BANNER:bn.png;
#BACKGROUND:bg.png;
#LYRICSPATH:;
#CDTITLE:;
#MUSIC:Schroedinger's Cat.mp3;
#OFFSET:-1.060;
#SAMPLESTART:26.480;
#SAMPLELENGTH:12.000;
#SELECTABLE:YES;
#BPMS:0.000=187.001,204.000=748.004,208.000=93.501,210.000=187.001;
#STOPS:52.500=0.160
,53.500=0.160
,55.500=0.160
,58.500=0.160
,60.500=0.160
,63.500=0.160
,65.500=0.160
,67.500=0.160
,72.000=0.160
,72.500=0.160
,116.500=0.321
,117.000=0.160
,117.500=0.160
,118.000=0.160
,118.500=0.160
,229.500=0.321
,230.500=0.321
,231.500=0.321
;
#BGCHANGES:;

//---------------dance-single - ----------------
#NOTES:
     dance-single:
     :
     Hard:
     10:
     0.764,0.823,0.425,0.160,0.359:
0000
0000
0000
0000
,
0000
0000
0000
0000
,
1100
1000
0100
1000
1000
0001
0001
0100
,
0001
0001
0100
0010
0010
1000
1000
0001
,
0001
0100
0010
0010
0100
0100
0010
1000
,
1000
0001
0100
0100
0010
0010
1000
0001
,
0100
0000
0000
0000
0010
0000
1000
0000
0001
0000
0100
0000
0001
0000
0010
0001
,
0010
0000
0001
0000
0000
0000
1000
0100
1000
0000
0001
0000
0100
0000
0010
0000
,
1000
0200
0000
0000
0000
0000
0300
0000
,
1000
0001
0010
0001
0100
0000
0010
1000
,
0100
0000
1000
0000
0010
0000
0100
0001
1000
0000
0001
0000
0000
0000
0100
0010
,
0100
0001
1000
0100
0010
0200
0000
0000
,
0000
0000
0300
0000
1000
0001
0010
0100
,
1000
0010
0100
0001
1000
0100
0010
0001
,
0001
1000
0001
0100
0010
0010
1000
0100
,
0010
0001
0001
0100
0010
1000
0100
0010
,
1000
0100
0001
0010
0001
1000
0010
0100
,
0010
1000
0100
0010
0001
1000
0001
0100
,
0010
1100
0010
0001
0100
0001
0010
1000
,
0100
0001
0010
0000
0100
0000
0010
0000
,
1001
0000
0001
0100
0001
0100
0010
1000
,
0001
0000
0100
0000
0001
0010
0001
0010
0001
0010
0001
0010
0001
0010
0001
0010
,
0001
0010
0001
0010
0001
0000
0000
0001
0100
0000
0000
0010
0100
0000
0000
1000
,
0001
0000
0000
0001
0100
0000
1000
0000
0010
0000
1000
0000
0010
0000
0100
0000
,
0001
0100
0010
0100
1000
0001
1000
0001
,
1000
0000
0010
0000
0001
0100
0001
0000
0100
0001
0100
0000
0010
1000
0010
0000
,
0001
1000
0001
0000
0100
0000
0010
0000
1000
0000
0100
0000
0000
0000
0001
0000
,
0010
0010
0001
0100
0010
1000
0001
1000
,
0001
0010
0001
0010
0100
1000
0001
0100
,
0010
0110
2000
3002
0203
0320
0130
0010
,
0100
0010
1000
0001
0010
0100
1000
1000
,
0001
0010
0100
1000
0100
0010
0100
0001
,
0010
1000
0100
1000
0100
0010
0001
0010
,
1000
0001
0100
0010
1000
0001
1000
0001
,
1000
0100
0001
0010
0001
0100
0010
1000
,
0100
1000
0100
1000
0100
0000
1000
0001
0100
0000
0000
0000
0010
0000
0000
0000
,
0100
0000
0010
1000
1010
0000
0100
0000
,
0010
0000
0010
1000
1001
0000
0001
0000
,
0100
0000
0010
1000
1010
0000
1000
0000
,
0001
0000
0010
0010
1010
0000
0100
0000
,
0110
0010
1010
0011
,
1100
0000
0001
0100
0010
0000
1100
0000
,
0101
1100
0101
1100
,
0101
1100
0120
1000
,
1000
1030
0001
0100
,
0020
0100
0100
0130
,
0010
1000
0200
1000
,
1000
1300
0100
0010
,
0001
0100
0001
0100
0001
0100
0010
1000
,
0010
1000
0010
1000
0100
0010
0100
0010
,
0100
0000
0000
0001
0000
0000
1000
0000
0010
0000
1000
0000
0001
0000
0100
0000
0001
0000
0010
0000
0000
0000
0000
0000
,
2002
0000
3003
0000
,
0000
0000
0001
0000
1000
1000
0000
0000
0010
0000
0000
0000
0010
0000
0000
0000
,
0010
0000
0010
1000
0100
0010
0100
1000
,
0100
0010
0001
0010
0100
0010
0100
0001
,
0100
0010
1000
0001
0100
0010
1000
0010
,
0100
1000
0100
0010
0100
0001
0100
0010
,
1000
0100
0010
1001
0100
0011
1000
0110
,
0101
0000
0000
0001
0000
0100
1000
0100
0010
0100
0000
1000
,
0001
0000
0100
0010
0000
0010
1000
0001
0100
0001
0000
0010
,
0001
0000
0010
0100
0000
0010
1000
0001
0100
0010
0000
1000
,
0100
0000
0001
0100
0000
0010
1000
0001
0100
0001
0000
0001
,
0010
0000
1000
0100
0000
0001
1000
0001
0100
0001
0000
0001
,
0010
0000
0010
0100
0000
1000
1001
0000
0100
0010
0000
0000
,
0110
0000
0110
0000
1100
0000
0000
1001
0000
1000
0001
0000
,
0101
0000
0110
0000
1100
0000
1000
0001
0100
0000
0010
0000
,
0010
1000
0001
0100
0010
0000
1001
0000
0001
1000
0001
0100
,
0010
0000
0010
0000
0010
1000
0000
0000
0000
0000
0000
0000
,
2000
0000
0000
3010
1000
0010
0200
0000
0000
0310
1000
0010
,
0200
0000
0000
0310
1000
0010
2000
0000
0000
3001
0000
0000
,
1100
0011
0110
1010
,
0101
0010
1010
1000
,
1100
0010
0011
0100
,
0101
0010
0011
1100
,
0101
0010
1000
0001
,
1001
0100
0010
1000
,
0110
0000
0010
0000
0100
0010
1000
0001
,
0200
0000
0000
0000
0310
1000
0010
1000
,
0020
0000
0000
0000
1030
1000
0001
0001
,
0100
0100
0010
0010
1000
0010
0100
0001
,
0100
0000
0000
0000
0010
0100
1000
0001
0020
0000
0000
0000
0030
0000
0000
0000
;

//---------------dance-single - ----------------
#NOTES:
     dance-single:
     :
     Medium:
     8:
     0.566,0.644,0.390,0.292,0.111:
0000
0000
0000
0000
,
0000
0000
0000
0000
0000
0000
0000
1000
,
0100
1000
0100
0000
0010
0000
0010
0000
,
0001
0100
0000
0010
0000
0100
0000
0010
,
0100
0000
0110
0000
1001
0000
0010
1000
,
0000
0001
0000
0100
0010
0000
0100
0000
,
0010
1000
0001
0100
,
0010
1000
0000
0010
1000
0001
0100
0010
,
0001
0020
0000
0000
0000
0000
0030
0000
,
0001
0000
0100
0000
0010
0000
0010
1000
,
0001
0100
0001
0100
0010
0100
0000
0010
,
0100
0001
1000
0010
0200
0002
0000
0000
,
0000
0303
0010
0100
,
0010
0000
0000
1000
0001
0000
0100
0000
,
0000
0010
0000
0100
0000
0010
1000
0000
,
0000
0100
0010
0000
0001
0000
0010
0000
,
0001
0000
0000
0010
0100
0000
0010
1000
,
0000
0010
0000
0100
0000
0001
0000
0000
,
1000
1001
0010
0100
0010
0100
0010
0100
,
0010
0100
0010
0000
0010
0000
0010
0000
,
0010
0000
0001
1000
0001
1000
0001
1000
,
0001
1000
0002
0000
0000
0000
0000
0000
,
0003
1000
0100
0010
,
0001
0011
1100
0011
,
1100
0000
0010
0100
0010
0000
0001
1000
,
0001
1100
0011
0110
,
1001
0000
0001
0100
0001
0100
0000
0010
,
0100
0000
0010
0000
0010
0100
0010
0000
,
0100
0010
0100
0010
,
0010
0100
0010
1000
0001
0100
0010
0000
,
1000
0100
0010
0001
,
0010
0100
0010
0001
,
0100
0010
1000
0010
,
0100
1000
0010
0100
,
0010
1000
0010
0100
,
1000
0001
0110
0010
,
0100
0000
1000
0100
1100
0000
1000
0000
,
0100
0000
0010
0001
0011
0000
0001
0000
,
0100
0000
0010
0100
0110
0000
0010
0000
,
0110
0010
1010
0010
,
0011
0100
1100
0010
,
0011
0010
0120
1000
,
0001
1000
0001
1000
,
0001
1030
0200
0000
,
0000
0310
1000
0001
,
0200
0000
0000
0301
,
1000
0100
2000
0000
,
0000
3100
1000
0100
,
0010
0001
0010
0000
0100
0000
0010
0100
,
0010
0000
0100
0000
0010
1000
0010
0000
,
0001
1000
0010
0100
,
2002
0000
0000
0000
,
3003
0000
1000
1000
,
1000
0000
1000
0001
1000
0001
1000
0001
,
1000
0001
1000
0001
1000
0001
1000
0001
,
1000
0001
1001
0000
0110
0000
1001
0000
,
0110
1001
0110
1010
,
0110
0000
0001
0001
1000
1000
0001
0001
,
0100
0000
0020
2030
,
3200
0320
0032
0023
,
0230
2300
3200
2300
,
3020
0230
0320
2030
,
3002
0203
0302
0023
,
0032
0000
0000
0203
0000
0000
0310
0000
0100
0010
0000
0000
,
0010
0000
0010
0000
0100
0000
0000
1000
0000
1000
0001
0000
,
0001
0000
0010
0000
0100
0000
1000
0001
0100
0000
0010
0000
,
0010
1000
0001
0100
0010
0000
1000
0000
0001
1000
0001
0100
,
0010
0000
0010
0000
0010
1000
0000
0000
0000
0000
0000
0000
,
1000
0000
0000
0010
1000
0010
0100
0000
0000
0010
1000
0010
,
0100
0000
0000
0010
1000
0010
1000
0000
0000
0001
0000
0000
,
1100
0011
0110
1010
,
0101
0010
1010
1000
,
1100
0010
0011
0100
,
0101
0010
0011
1100
,
0101
0010
1000
0001
,
1001
0100
0010
1000
,
0110
0000
0010
0000
1000
0001
1000
0001
,
2000
0000
0000
0000
3001
0100
0001
0100
,
0002
0000
0000
0000
1003
0100
0010
0001
,
1000
0100
0010
0001
1000
0100
0010
0001
,
0010
0000
0010
0010
0020
0000
0030
0000
;

//---------------dance-single - ----------------
#NOTES:
     dance-single:
     :
     Easy:
     5:
     0.381,0.499,0.222,0.044,0.000:
0000
0000
0000
0000
,
0000
0000
0000
0000
,
0001
1000
0000
0000
0001
0000
0001
0000
,
0001
0100
0000
0010
0000
0100
0000
0010
,
0100
0000
0010
0000
1000
0000
0001
1000
,
0000
0001
0000
0100
0010
0000
0100
0000
,
0010
1000
0010
0100
,
0010
1000
0001
0100
,
0001
0100
0000
0000
0000
0000
0000
0000
,
0010
0100
0010
1000
,
0010
0100
0010
1000
,
0001
0000
1000
0000
0001
0100
0000
0000
,
0000
0000
1000
0001
,
1000
0010
0000
0010
0000
0000
0000
1000
,
0000
0000
0000
0000
0000
0001
0000
0000
,
0000
1000
0000
0000
0000
0000
0000
0010
,
0000
0000
0000
0100
0000
0000
0000
0010
,
0000
0000
0000
0000
,
1000
1001
0001
0000
1000
0000
0001
0000
,
0100
0101
0010
1010
,
0010
0100
0010
1000
,
0010
0000
0001
1000
0001
1000
0001
1000
,
0001
1000
0001
0000
0001
0000
1000
0000
,
1000
0101
1100
0101
,
1100
0010
0010
0100
,
0100
1010
0011
1010
,
0011
0000
0001
0000
1000
0001
0000
0001
,
0100
0010
0100
0010
,
1000
0001
0100
0010
,
1000
0001
0000
0000
0000
0000
1000
0000
,
0001
0100
0001
0100
,
0010
0100
0010
1000
,
0010
0100
0010
1000
,
0001
1000
0001
0100
,
0010
1000
0010
0100
,
0010
1000
1010
1000
,
0100
0010
0011
0001
,
0010
0100
1100
0100
,
0010
0001
0011
0010
,
0100
1000
1100
0010
,
0110
0010
1010
0010
,
0011
0100
1000
1000
,
1000
1000
1000
1000
,
1000
1000
2000
0000
,
0000
3000
0000
0000
,
0002
0000
0000
0003
,
0000
0000
0200
0000
,
0000
0300
0000
0000
,
0010
0100
0010
0100
,
0010
1000
0001
0010
,
0100
1000
1000
1000
,
1001
0000
0000
0000
,
0000
0000
0010
0010
,
0010
0100
0010
0100
,
0010
1000
0001
0100
,
0010
0100
0100
0010
,
0010
1000
1000
0001
,
0001
1001
0110
1001
,
0110
0000
0010
0000
,
0010
0000
0100
0010
,
1000
0001
1000
0000
,
1000
0000
0001
0001
,
1000
0001
0100
0000
,
0010
0000
1000
1000
,
0010
0100
0010
1000
,
0001
0100
0010
1000
,
0100
0010
0001
0010
,
0100
1000
0100
0000
,
1000
0000
0001
0000
,
0100
0000
0010
0010
,
0100
0100
0010
1000
,
0001
0100
0010
1000
,
0100
0010
0001
0010
,
0001
0100
0010
1000
,
0100
0100
1000
0010
,
0100
0001
1000
0001
,
0010
0100
0020
0000
,
0000
0000
0032
0000
,
0000
0000
1003
1000
,
0001
0100
0010
1000
,
0001
0000
1000
0001
1001
0000
0000
0000
;

//---------------dance-single - ----------------
#NOTES:
     dance-single:
     :
     Beginner:
     2:
     0.124,0.214,0.035,0.000,0.000: // measure 1
0000
0000
0000
0000
,  // measure 2
0000
0000
0000
0000
,  // measure 3
0010
0000
0000
0000
0000
0000
0000
0010
,  // measure 4
0000
0000
0000
1000
,  // measure 5
0000
0000
0000
0000
0000
0001
0000
0000
,  // measure 6
0000
0000
1000
0000
,  // measure 7
0000
0000
0000
0000
,  // measure 8
0001
0000
0000
0000
,  // measure 9
0000
0100
0000
0000
0000
0000
0000
0000
,  // measure 10
0010
0000
0000
0000
,  // measure 11
0000
0000
0010
0000
,  // measure 12
0000
0000
0000
0000
0000
1000
0000
0000
,  // measure 13
0000
0000
0000
0000
,  // measure 14
0000
0001
0000
0001
0000
0000
0000
1000
,  // measure 15
0000
0000
0000
0000
0000
0010
0000
0000
,  // measure 16
0000
0100
0000
0000
0000
0000
0000
0010
,  // measure 17
0000
0000
0000
1000
0000
0000
0000
0001
,  // measure 18
0000
0000
0000
0000
,  // measure 19
1000
1001
0000
0000
,  // measure 20
0000
0010
0000
0010
,  // measure 21
0000
0010
0000
0000
,  // measure 22
0000
0100
0000
0000
,  // measure 23
0000
1000
0000
0000
,  // measure 24
0000
0001
0001
0001
,  // measure 25
0001
0001
0000
0000
,  // measure 26
0000
1000
0000
0000
,  // measure 27
0000
0010
0000
0000
,  // measure 28
0000
0000
0000
0000
,  // measure 29
0000
0100
0000
0000
,  // measure 30
0000
1000
0000
0000
0000
0000
0001
0000
,  // measure 31
0000
0000
0000
0000
,  // measure 32
0000
0000
0000
0000
,  // measure 33
0000
0000
0000
0000
,  // measure 34
0000
0000
0000
0000
,  // measure 35
0000
0000
0000
0000
,  // measure 36
0000
0000
0010
0000
,  // measure 37
0000
0000
1000
0000
,  // measure 38
0000
0000
0001
0000
,  // measure 39
0000
0000
1000
0000
,  // measure 40
0000
0000
0001
0000
,  // measure 41
0001
0000
0001
0000
,  // measure 42
1000
0000
0001
0000
,  // measure 43
0000
0000
0000
0000
,  // measure 44
0000
0000
0010
0000
,  // measure 45
0000
0000
0000
0000
,  // measure 46
1000
0000
0000
0000
,  // measure 47
0000
0000
0001
0000
,  // measure 48
0000
0000
0000
0000
,  // measure 49
0010
0000
0000
0010
,  // measure 50
0000
0000
0001
0000
,  // measure 51
0000
1000
0001
1000
,  // measure 52
1001
0000
0000
0000
,  // measure 53
0000
0000
0010
0000
,  // measure 54
0000
0010
0000
0000
,  // measure 55
0000
1000
0000
0000
,  // measure 56
0000
0001
0000
0001
,  // measure 57
0000
0001
0000
0001
,  // measure 58
0000
1000
1000
1000
,  // measure 59
1000
0000
0010
0000
,  // measure 60
0000
0000
0010
0000
,  // measure 61
0000
0000
1000
0000
,  // measure 62
0000
0000
0001
0000
,  // measure 63
0000
0000
1000
0000
,  // measure 64
0000
0000
0110
0000
,  // measure 65
0000
0010
0000
0000
,  // measure 66
0000
0010
0000
0000
0000
0000
0000
0000
,  // measure 67
1000
0000
0000
0000
0001
0000
0000
1000
,  // measure 68
0000
0000
0000
0001
0000
0000
0000
0000
,  // measure 69
1000
0000
0000
0000
,  // measure 70
0001
0000
0000
0000
,  // measure 71
0100
0000
0010
0000
,  // measure 72
0100
0000
0000
0000
,  // measure 73
0010
0000
0000
0000
,  // measure 74
1000
0000
0000
0000
,  // measure 75
0001
0000
0001
0000
,  // measure 76
1000
0000
1000
0000
,  // measure 77
0001
0000
0100
0000
,  // measure 78
0000
0000
0100
0000
,  // measure 79
0000
0000
0010
0000
,  // measure 80
0000
0000
0000
0000
,  // measure 81
0000
0010
1001
0000
;
