#TITLE:Sara;
#SUBTITLE:(Super Euro Version);
#ARTIST:BoA;
#TITLETRANSLIT:;
#SUBTITLETRANSLIT:;
#ARTISTTRANSLIT:;
#CREDIT:;
#BANNER:bn.PNG;
#BACKGROUND:bg.PNG;
#LYRICSPATH:;
#CDTITLE:;
#MUSIC:Sara -Super Euro version-.mp3;
#OFFSET:-11.330;
#SAMPLESTART:29.790;
#SAMPLELENGTH:12.000;
#SELECTABLE:YES;
#BPMS:0.000=149.000;
#STOPS:;
#BGCHANGES:;

//---------------dance-single - ----------------
#NOTES:
     dance-single:
     :
     Hard:
     7:
     0.433,0.435,0.148,0.276,0.000:
0001
1000
1001
0000
0001
0000
0101
0000
,
0010
0100
0010
0000
0001
1000
0010
0000
,
0001
0100
0010
1000
,
0010
0100
0001
1000
0100
1000
0001
0100
,
0001
0000
0100
0000
0010
0000
0001
1000
,
0010
0000
1000
0000
0001
0000
0001
1000
,
0010
0100
0010
1000
,
0001
0100
0020
0000
0130
0000
0010
1000
,
0010
0000
0100
0000
0011
0000
0001
1000
,
0010
0000
0100
0000
1100
0000
0010
1000
,
0001
0000
0010
1000
0001
0000
0100
0001
,
1000
0000
0010
0000
1000
0100
0010
0001
,
0000
0001
0001
0000
0001
0010
0100
1000
,
0000
1000
1000
0000
0010
0100
0001
1000
,
0000
1000
1000
0000
0001
1000
0010
0100
,
0000
0100
0100
0000
0010
1000
0001
1000
,
0000
0001
0001
0000
0001
0100
0010
1000
,
0000
0010
0010
0000
0010
1000
0010
1000
,
0000
0000
0010
0000
0100
0000
0001
1000
,
0020
0000
0200
0330
,
0001
1000
0001
1000
0010
0000
1000
0000
,
0001
0100
0010
1000
0001
0000
1000
0000
,
1000
0100
1000
0000
0001
0100
0001
0000
,
0010
2000
0002
0000
0000
0000
3003
0000
,
0001
1000
0010
0000
0100
0000
1010
0000
,
0001
1000
0001
0000
0010
0000
0110
0000
,
0010
0001
0010
0000
0100
0001
1000
0000
,
0010
1000
0001
0000
0010
0100
0001
1000
,
0000
0001
1001
0000
1000
0100
0010
0001
,
0000
0001
0011
0000
0001
0010
0100
1000
,
0000
1000
1100
0000
0100
0010
1000
0001
,
0000
1000
1001
0000
0001
1000
0010
1000
,
0000
0001
1001
0000
0001
1000
0100
0001
,
0000
0001
1001
0000
0010
1000
0001
1000
,
0000
0000
1000
0000
0100
0000
0010
0100
,
0002
0000
0200
0303
,
2000
0100
3100
0000
,
0002
0100
0200
0303
,
0020
0100
0100
0230
,
0010
0320
0130
0000
,
2000
3002
1003
0000
,
0002
1000
2000
3003
,
0020
1030
0020
0100
,
0230
0010
0310
0000
,
0001
1000
1001
0000
0001
0000
0100
0000
,
0001
1000
0010
0000
0001
1000
0010
0000
,
2000
3002
0203
0320
,
2030
3020
0230
0320
,
0130
0010
0110
0000
0001
0000
1000
0000
,
0001
0000
0101
0000
1000
0001
0100
0000
,
0010
1000
0001
0010
0100
1000
0100
0001
,
1000
0010
0100
0001
0010
0100
1000
0001
,
1000
0000
0000
0000
;

//---------------dance-single - ----------------
#NOTES:
     dance-single:
     :
     Medium:
     5:
     0.381,0.410,0.227,0.167,0.000:
0001
1001
1000
1001
,
0010
0100
0010
0000
0100
0000
0010
0000
,
1000
0100
0010
0001
,
0001
1000
0010
0100
0001
1000
0010
1000
,
0001
0000
0001
0000
0001
0000
1000
0001
,
1000
0000
1000
0000
1000
0000
0010
0100
,
0010
0010
0010
0100
,
0010
2000
0002
0000
0000
0000
3003
0000
,
1001
0001
1000
0100
,
0010
0001
0010
0100
,
0010
1000
0100
0001
,
1000
0000
0000
0000
0010
0100
0010
0100
,
0000
0010
0010
0000
0001
1000
0001
1000
,
0000
1000
1000
0000
1000
0100
1000
0100
,
0000
1000
1000
0000
0001
0100
0001
0100
,
0000
0001
0001
0000
0010
0100
0010
0100
,
0000
0010
0010
0000
1000
0001
1000
0001
,
0000
1000
1000
0000
0001
1000
0001
1000
,
0000
0001
0100
0010
,
2000
0000
0200
3300
,
0010
0000
0100
0000
0010
0000
1000
0001
,
1000
0000
0001
0000
0010
0000
0100
1000
,
0100
0010
1000
0010
,
0100
0020
0200
0000
0000
0000
0330
0000
,
0110
0010
0010
0100
,
0010
1000
0001
1000
,
0001
0100
0010
1000
,
0010
0000
1000
0100
,
1000
1100
0010
0100
,
0001
0101
0010
0100
,
1000
1100
0010
0100
,
1000
1001
0010
0100
,
1000
0100
1100
0000
0010
0000
0100
0000
,
0001
0100
0101
0000
0010
0000
0100
0000
,
0010
0000
0100
0000
0010
0000
1000
0002
,
0200
0003
0002
0303
,
0011
0010
0110
0000
,
1100
0100
0110
0000
,
0011
0010
0010
0010
,
0100
1000
1100
0000
,
1010
0100
0110
0000
,
0011
0010
0110
0000
,
1100
0001
1000
0001
,
0100
0000
1000
0000
1002
0000
1000
1000
,
1003
0000
0001
0000
0100
0010
0100
0000
,
0010
0000
1000
0000
0001
1000
0010
0000
,
2000
3002
0203
0320
,
2030
3020
0230
0310
,
0010
0100
0110
0000
0001
0000
1000
0000
,
0001
1000
1000
0000
1000
0100
1000
0000
,
0010
0100
1000
0001
,
0010
1000
0010
0100
0001
0100
1000
0100
,
1000
0000
0000
0000
;

//---------------dance-single - ----------------
#NOTES:
     dance-single:
     :
     Easy:
     4:
     0.283,0.307,0.089,0.207,0.000:
0001
1001
1000
0001
,
0100
0101
1000
1100
,
0010
0100
1000
0002
,
2000
0000
0000
3003
,
0001
1000
0001
1000
,
0001
0100
0001
0100
,
0010
1000
0010
1000
,
0020
0000
0030
0000
,
0100
0010
0100
0000
,
0001
1000
0001
0000
,
1000
0100
0010
0001
,
0100
0000
0010
0100
,
0010
1000
0001
1000
,
0010
0100
0010
0100
,
1000
0001
0010
0100
,
1000
0100
0010
0100
,
0001
1000
0010
0100
,
1000
0100
1000
0010
,
0100
0001
0010
0100
,
2000
0000
0020
3030
,
0001
0100
0001
1000
,
0100
1000
0100
0010
,
0100
0001
1000
0010
,
0200
0002
0000
0303
,
0001
0100
0001
0010
,
1000
0010
0100
0001
,
1000
0001
0010
0100
,
1000
0000
0010
1000
,
0100
0110
0010
1000
,
0001
0101
0001
0010
,
0100
1100
0010
1000
,
0100
0110
0010
0100
,
1000
1001
0001
0010
,
0100
1010
0010
0100
,
0001
1000
0001
0010
,
0200
0000
0020
0330
,
0002
0000
1003
0000
,
2000
0000
3001
0000
,
0020
0000
0100
0100
,
0230
0000
0310
0000
,
2000
0000
3100
0000
,
0002
0000
0103
0000
,
0020
0000
0100
0100
,
0230
0000
0310
0000
,
1000
0000
0001
0000
,
1000
0001
1000
0001
,
0200
0000
0320
0000
,
0230
0000
0320
0000
,
1030
1000
1000
0000
,
0001
0001
0001
0000
,
0100
0010
1000
0100
,
0010
0001
0010
1000
,
0001
0000
0000
0000
;

//---------------dance-single - ----------------
#NOTES:
     dance-single:
     :
     Beginner:
     1:
     0.090,0.127,0.039,0.000,0.000: // measure 1
1000
0000
0000
0000
,  // measure 2
1000
0000
0000
0000
,  // measure 3
0001
0000
0000
0000
,  // measure 4
0100
0000
0000
0000
,  // measure 5
0010
0000
0000
0000
,  // measure 6
0010
0000
0000
0000
,  // measure 7
1000
0000
0000
0000
,  // measure 8
1000
0000
0000
0000
,  // measure 9
0001
0000
0000
0000
,  // measure 10
0100
0000
0000
0000
,  // measure 11
0010
0000
0000
0000
,  // measure 12
0000
0000
0000
0000
,  // measure 13
0000
1000
0000
0000
,  // measure 14
0000
0001
0000
0000
,  // measure 15
0000
0100
0000
0000
,  // measure 16
0000
0010
0000
0000
,  // measure 17
0000
1000
0000
0000
,  // measure 18
0000
0001
0000
0000
,  // measure 19
0000
0100
0000
0010
,  // measure 20
0010
0000
0000
0000
,  // measure 21
1000
0000
0000
0000
,  // measure 22
0001
0000
0000
0000
,  // measure 23
0100
0000
0000
0000
,  // measure 24
0010
0000
0000
0000
,  // measure 25
1000
0000
0000
0000
,  // measure 26
0001
0000
0000
0000
,  // measure 27
0010
0000
0100
0000
,  // measure 28
0010
0000
0000
0000
,  // measure 29
0000
1001
0000
0000
,  // measure 30
0000
0001
0000
0000
,  // measure 31
0000
1001
0000
0000
,  // measure 32
0000
1000
0000
0000
,  // measure 33
0000
0110
0000
0000
,  // measure 34
0000
0010
0000
0000
,  // measure 35
0000
0110
0000
0000
,  // measure 36
0100
0000
0100
0000
,  // measure 37
1000
0000
1000
0000
,  // measure 38
0001
0000
0001
0000
,  // measure 39
0100
0000
0000
0000
,  // measure 40
0010
0000
0000
0000
,  // measure 41
1000
0000
0000
0000
,  // measure 42
0001
0000
0000
0000
,  // measure 43
0100
0000
0010
0000
,  // measure 44
0010
0000
0000
0000
,  // measure 45
1000
0000
0000
0000
,  // measure 46
0001
0000
0000
0000
,  // measure 47
0100
0000
0000
0000
,  // measure 48
0010
0000
0000
0000
,  // measure 49
1000
1000
0000
0000
,  // measure 50
0000
0001
0000
0000
,  // measure 51
0100
0000
0010
0000
,  // measure 52
1000
0000
0001
0000
;
