#TITLE:STEEL NEEDLE;
#SUBTITLE:;
#ARTIST:Scorpion;
#TITLETRANSLIT:;
#SUBTITLETRANSLIT:;
#ARTISTTRANSLIT:;
#CREDIT:;
#BANNER:bn.PNG;
#BACKGROUND:bg.PNG;
#LYRICSPATH:;
#CDTITLE:15 trooper.png;
#MUSIC:STEEL NEEDLE.ogg;
#OFFSET:0.828;
#SAMPLESTART:18.480;
#SAMPLELENGTH:12.000;
#SELECTABLE:YES;
#BPMS:0.000=51.250,2.000=51.260,9.000=102.520,24.000=409.998,80.000=204.999,82.000=409.998,253.000=204.999,255.000=409.998,263.000=204.999,265.000=409.998,293.000=204.999,294.500=409.998,320.000=51.240,328.000=205.000,360.000=409.998,488.000=204.999,492.000=409.998;
#STOPS:33.000=0.293
,56.000=0.146
,71.000=0.146
,82.000=0.439
,138.000=0.585
,205.000=0.146
,236.000=0.146
,319.500=1.091
;
#BGCHANGES:;

//---------------dance-single - ----------------
#NOTES:
     dance-single:
     :
     Hard:
     12:
     0.880,1.000,0.290,0.132,0.066:
0000
0000
0000
0000
,
0000
0000
0000
0000
,
0000
0000
0000
0000
0101
0000
0010
1000
0100
0000
1000
0000
0100
0000
0001
0010
,
0000
0100
0100
0000
1000
0001
1001
0000
0000
0000
1000
0000
0001
0000
0010
0100
,
0000
0000
1000
0000
0001
0100
0001
0100
0001
0000
0000
0000
0010
0000
0100
0000
0000
0000
0000
0000
1000
0000
0000
0000
0001
0000
0000
0000
0010
0000
0100
0000
,
0000
1000
0001
0000
0010
0100
0110
0000
1000
1001
0000
0001
0011
0000
0001
0100
,
2002
0000
0000
3003
,
0001
0000
0010
0000
1000
0100
1000
0000
,
0001
1000
1000
0001
,
0010
0000
0100
1000
0100
1000
0100
0000
,
0200
0000
0300
0000
1000
0001
1000
0001
,
1000
1000
0001
0010
,
1100
1100
0100
1000
,
0001
0100
0001
0000
0010
0000
0011
0000
,
1100
1000
0001
0000
,
0100
0000
1001
0000
,
0100
0100
0000
0000
,
1000
0010
1001
1001
,
1000
0100
1000
0000
0001
0000
0101
0000
,
0000
0001
1000
0100
,
2000
0000
0000
0000
0000
0000
0000
3000
1001
0000
0000
0000
1000
0000
0000
0000
,
0001
0100
0001
0000
0010
0000
0100
0000
,
1000
0001
1000
0000
0010
0000
0000
0000
,
0001
1000
0001
0000
1000
0000
0100
0000
,
0001
0010
0001
0000
0001
0000
0000
0000
,
0100
1000
0100
1000
0100
0000
0001
0000
,
0010
0100
1000
0001
,
0001
0100
0001
0100
0001
0100
0001
0000
,
0010
0000
0100
0000
1000
0000
1000
0001
,
1000
0000
0001
0010
0001
0000
0100
0000
,
0001
0000
0100
0010
0100
0000
0001
0010
,
0001
0000
0100
1000
0100
0000
0001
0000
,
0010
0000
0100
0000
1000
0000
1000
0001
,
1000
0001
1000
0000
1000
0000
0100
0000
,
0010
0001
1000
0220
,
0000
0000
0000
0000
0330
0000
0001
0100
,
0001
0100
0001
0100
0001
0000
1000
0000
,
1000
0100
1000
0000
0001
0000
0000
0000
,
1000
0001
1000
0001
1000
0000
1000
0000
,
0001
0010
0001
0000
0100
0000
0000
0000
,
1000
0100
1000
0100
1000
0100
1000
0000
,
0001
0010
0100
0000
,
1000
0100
1000
0100
1000
0100
0010
0001
,
0010
0001
0010
0001
0010
0000
1000
0001
,
1000
0001
1000
0001
1000
0100
1000
0100
,
1000
0001
1000
0001
1000
0001
1000
0001
,
0100
0001
0100
0001
0100
0001
0100
0001
,
0010
0001
0010
0001
0010
0001
0010
0001
,
0010
0001
1000
0001
1000
0001
1000
0001
,
1000
0001
1000
0001
1000
0000
1000
0100
,
0010
0001
0010
0100
1000
0100
0010
0001
,
0010
0100
1000
0000
1000
0000
0001
0100
,
0001
0100
0001
0000
0010
0000
1000
0100
,
1000
0100
1000
0000
0001
1000
0001
1000
,
0001
1000
0001
0000
0010
0000
0100
0000
,
0101
0000
1100
0000
0001
0010
0000
0100
,
1000
0000
1000
0100
1000
0100
1000
0100
,
1000
0100
1000
0000
0001
0000
0010
0001
,
0010
0001
0010
0001
0010
0001
0010
0001
,
0010
0001
0010
0100
,
1000
0001
0100
0010
,
1000
0000
0001
1000
0001
1000
0001
0000
,
0010
0100
1000
0001
,
0100
0000
0011
0001
0001
0001
1000
0000
,
0001
0100
0002
0000
0003
0000
1000
0000
,
0001
0000
1000
0100
1000
0000
0022
0000
,
0033
1000
0100
0010
,
0001
0010
0002
0000
0000
0000
1003
0000
,
0001
0000
1000
0100
1000
0100
1000
0100
,
1000
0100
1000
0000
0001
0000
0100
0000
,
0001
0000
1000
0000
0100
1000
0100
0000
,
1000
0010
0100
1001
,
1001
0001
1000
0001
,
0001
0000
0011
1100
0011
1100
0000
0001
,
0000
0100
0000
1000
0000
0100
0000
0010
,
0000
0001
0000
0010
0000
0100
0000
1000
,
0000
0001
0000
1000
0000
0100
0000
0010
,
0000
0001
0000
0001
0100
0001
0100
0001
,
0000
0100
0000
0001
0000
0100
0000
0001
,
0000
0010
0000
0001
0000
0100
0000
0000
,
2002
0000
0000
0000
,
3003
0000
0000
0000
,
1000
0001
1000
0001
0010
0100
0010
0100
,
0010
0001
1000
0100
0001
0010
0100
0001
,
0010
0001
0010
0001
1000
0100
1000
0100
,
1000
0100
0010
0001
0010
0001
0010
0001
,
0010
0100
1000
0100
1000
0100
1000
0100
,
0010
0001
0010
0100
1000
0100
0010
0001
,
0010
0100
1000
0100
1000
0100
0010
0001
,
0010
0001
0010
0001
0100
0001
0100
0001
,
0100
1000
0100
0010
,
0001
0010
0100
0001
,
0100
0001
1000
0010
,
1000
0001
0100
0010
,
1000
0100
0010
0001
,
0010
0100
0001
0100
,
0010
1000
0001
0100
,
0010
1000
0100
0010
,
0001
0010
0100
0001
,
0100
0010
1000
0001
,
0100
0010
1000
0001
,
0100
0010
1000
0001
,
0100
1000
0100
0010
,
0001
0010
0100
1000
,
0100
0010
0001
1000
,
0010
0100
0202
0303
,
1000
0000
0000
0000
0001
0000
0000
0010
,
1000
0001
1000
1100
,
1000
0000
0000
0000
1000
0000
0000
0001
,
0100
0000
0010
0000
1000
0001
1000
0000
,
0001
0000
0000
0000
1001
0000
0000
1000
,
0100
0010
0001
0100
,
0101
0000
0000
0000
1010
0000
0000
0001
,
1000
0000
0001
0000
0100
0010
1000
0001
,
1000
0000
0100
0000
0010
0000
0001
1000
,
0001
0100
0001
0010
,
0001
0010
0001
0000
1000
0000
0100
1000
,
0100
1000
0001
0100
,
0010
0000
0100
0010
0100
0000
1000
0001
,
1000
0000
1000
0100
1000
0000
0001
0000
,
0100
0010
0010
1000
,
1001
0000
1100
0000
,
0011
0001
1000
0001
0100
0001
0010
0100
,
0001
1000
0001
0100
,
0001
0010
0100
0010
,
0001
1000
0001
0100
,
0010
1000
0010
0100
,
1000
0100
0010
0100
,
1000
0001
0100
0001
,
0010
0001
0100
0010
,
1000
0000
0001
1000
0001
0100
0001
0010
,
0001
1000
0001
0100
,
0001
0010
0100
1000
,
0100
1000
0001
0010
,
0001
0100
0010
1000
,
0001
0010
0100
1000
,
0010
0100
1000
0001
,
1000
0100
1000
0100
1000
0100
1000
0100
,
1000
0100
1000
0100
1000
0100
1000
0200
,
2000
0000
0000
0000
,
0000
0000
0000
0000
,
3300
0000
0000
0000
;

//---------------dance-single - ----------------
#NOTES:
     dance-single:
     :
     Medium:
     9:
     0.603,1.000,0.190,0.083,0.050:
0000
0000
0000
0000
,
0000
0000
0000
0000
,
0000
0000
0000
0000
1000
0000
0001
1000
0001
0000
0100
0000
0001
0000
0001
0100
,
0000
0100
0010
0000
0010
0100
0010
0000
0000
0000
0010
0000
0010
0000
0010
1000
,
0000
0001
1000
0000
1000
0000
0001
1000
0000
0000
0001
0000
0100
0000
0010
0100
,
0000
0010
1000
0000
0001
1000
0001
0000
1000
0100
0000
0010
0001
0000
1000
0000
,
2002
0000
0000
3003
,
1000
0001
0000
0100
,
0000
0010
1000
0000
,
0100
0000
0010
1000
,
0001
0000
0100
1000
,
0000
0100
0000
1000
,
0001
1000
0001
0000
,
0100
0001
0100
0010
,
0100
0010
1000
0000
,
0100
0000
1000
0000
,
0100
1000
0000
0000
,
1000
0100
0010
0001
,
0001
0100
0000
0001
,
0000
0100
1000
0100
,
1000
0000
1001
0001
,
0100
0000
0001
0100
,
0000
0100
0000
0010
,
0100
0000
0010
0100
,
0000
0010
0000
0010
,
1000
0000
0010
1000
,
0000
0010
0000
1000
,
0001
1000
0001
1000
,
0001
0100
0001
0100
,
0000
0001
0000
0001
,
0100
0010
0100
0010
,
0000
0010
0000
0010
,
0100
0010
1000
0001
,
0000
1000
0000
0010
,
1000
0001
0000
2002
,
0000
0000
3003
0001
,
1000
0001
1000
0001
,
1000
0001
0000
0001
,
0100
0001
0100
0010
,
0100
0010
0000
0010
,
0100
0001
1000
0010
,
0100
0001
1000
0000
,
0001
1000
0001
1000
,
0001
0100
0000
1000
,
0100
1000
0100
0001
,
0100
0001
0100
0010
,
0100
0010
0100
0001
,
1000
0001
1000
0010
,
1000
0010
1000
0001
,
0100
0001
0100
0001
,
0100
0010
1000
0001
,
0100
0010
1000
0000
,
0100
0000
0001
0100
,
0001
0100
0010
0000
,
0100
0000
0010
1000
,
0001
1000
0010
0000
,
1000
0000
0100
1000
,
0100
1000
0100
0000
,
1000
0000
1000
0100
,
0010
0001
0000
0100
,
0000
0001
0100
0010
,
0000
0010
0000
0100
,
0000
0010
0100
0001
,
0000
0000
1000
0001
1000
0001
1001
0000
,
0000
1001
0000
0001
,
0100
0010
0100
2002
,
3003
0100
0000
0010
,
0000
0010
1000
0010
,
0000
0100
0000
0010
,
0000
0010
1000
0001
,
1000
0010
0000
1000
,
0000
1000
0100
1000
,
0000
0001
0000
0100
,
0000
0000
0010
0100
0010
0100
0000
0001
,
0000
0000
0000
0100
0000
0000
0000
0010
,
0000
0100
0000
0010
0000
0000
0000
0100
,
0000
0000
0000
1001
0000
0000
0000
0100
,
0000
1000
0000
0100
0000
1000
0000
0100
,
0000
0000
0000
0010
0000
0000
0000
0001
,
0000
0100
0000
0010
0000
1000
0000
0000
,
2002
0000
0000
0000
,
3003
0000
0000
0000
,
0001
1000
0100
0000
1000
0100
0000
0001
,
0000
0100
0000
0100
0000
0010
0000
1000
,
0000
0010
0100
0000
0010
0100
0000
1000
,
0100
0000
0010
0001
0000
0001
0100
0010
,
1000
0010
0100
0000
0010
1000
0000
0001
,
0000
1000
0000
0001
0000
1000
0000
0001
,
0100
0001
0100
0000
0010
0100
0000
0010
,
1000
0000
0001
0100
0000
1000
0100
0010
,
0001
1000
0001
0000
,
0100
0001
0100
0000
,
0010
0100
0010
0100
,
0010
1000
0001
1000
,
0010
1000
0010
0000
,
0010
0100
0010
0000
,
0010
1000
0001
1000
,
0010
1000
0001
1000
,
0001
0100
0001
0000
,
0010
0100
0000
0110
,
0000
0110
0000
0110
,
0000
0110
0000
0010
,
0100
0010
0100
0000
,
0010
1000
0000
0001
,
0100
0000
1000
0100
,
0000
0010
0001
0000
,
1001
0000
0101
0000
,
0001
0100
0010
0100
,
0110
0000
0110
0000
,
0010
0100
0010
1000
,
1010
0000
0110
0000
,
0010
1000
0010
0100
,
0010
0000
0110
0000
,
1000
0100
0010
0001
,
0001
0000
0011
0000
,
0001
0100
0010
0100
,
0010
0000
0110
0000
,
0010
0100
0010
1000
,
0001
0000
1001
0000
,
1000
0100
0010
0001
,
0010
0000
0011
0000
,
0001
0100
0010
1000
,
0001
1000
0001
0100
0010
0100
1000
0001
,
0010
0100
0001
0100
,
0001
0100
0001
0100
,
0010
0100
0010
0100
,
0010
1000
0010
0100
,
0010
0100
0001
0010
,
0100
1000
0001
0100
,
0001
0100
0001
0100
,
0001
0100
0001
0010
,
0100
0001
0100
0010
,
1000
0100
0010
0001
,
0010
0100
0010
0100
,
0010
0100
0010
0100
,
0001
1000
0010
0100
,
0010
0100
0010
0100
,
1000
0100
0010
0001
,
0100
0001
0100
0001
0100
0001
0100
0002
,
0200
0000
0000
0000
,
0000
0000
0000
0000
,
0303
0000
0000
0000
;

//---------------dance-single - ----------------
#NOTES:
     dance-single:
     :
     Easy:
     7:
     0.462,0.829,0.058,0.066,0.021:
0000
0000
0000
0000
,
0000
0000
0000
0000
,
0000
0000
0000
0000
1000
0000
0001
1000
0001
0000
0000
0000
0100
0000
0010
0100
,
0010
0000
0000
0000
0100
0010
0100
0000
0000
0000
0000
0000
0010
0000
0100
0000
,
0010
0000
0000
0000
1000
0001
1000
0000
0000
0000
0000
0000
1000
0100
1000
0000
,
0000
0001
0100
0010
,
2002
0000
0000
3003
,
0001
0000
1000
0000
,
0001
0000
0010
0000
,
0100
0000
0010
0100
,
0010
0000
0100
0000
,
0010
0000
0100
0000
,
0010
1000
0001
0000
,
1000
0000
0001
0100
,
0010
0100
0010
0000
,
0100
0000
0010
0000
,
0010
1000
0000
0000
,
0001
0100
0001
0100
,
0010
0100
0000
0010
,
0000
0100
0010
1000
,
0001
0000
1001
0001
,
0100
0000
0001
0100
,
0000
0010
0000
0010
,
0100
0000
0010
0100
,
0000
0010
0000
0010
,
1000
0000
0001
1000
,
0000
0010
0000
0010
,
0100
0010
0100
0010
,
0100
0010
0000
0010
,
1000
0010
0000
0001
,
0000
0100
0000
0010
,
0100
0010
0000
0100
,
0000
0010
0000
0001
,
1000
0001
0000
0100
,
0000
0010
0000
2002
,
0000
0000
3003
0001
,
1000
0001
0000
1000
,
0000
0001
0000
0001
,
0100
0001
0000
0100
,
0000
0010
0000
0010
,
0100
0010
0000
0001
,
0100
0001
0000
1000
,
0001
1000
0000
0100
,
0000
0010
0000
1000
,
0001
1000
0001
1000
,
0001
1000
0001
0100
,
0001
0100
0001
0100
,
0001
0100
0000
0010
,
0100
0010
0100
0010
,
0100
0010
0000
0010
,
0100
0001
1000
0010
,
0100
1000
0001
0000
,
1000
0000
0001
1000
,
0001
0000
0100
0000
,
0010
0000
0010
0100
,
0010
0100
0010
0000
,
1000
0000
0010
1000
,
0010
1000
0010
0000
,
0100
0000
0010
1000
,
0001
1000
0000
0001
,
0000
0001
1000
0001
,
0000
0100
0000
0010
,
0000
0010
0100
0010
,
0000
0110
0000
0010
,
0100
0010
0000
0100
,
0010
1000
0001
0200
,
0000
0301
0000
0100
,
0000
0001
0100
0001
,
0000
1000
0000
0010
,
0000
0010
1000
0010
,
0000
0100
0000
0010
,
0000
0010
0100
0010
,
0000
1000
0000
0010
,
0000
0000
1001
0000
0000
0000
0000
0001
,
0000
0000
0000
1000
0000
0000
0000
0100
,
0000
0000
0000
0010
0000
0000
0000
0001
,
0000
0000
0000
0010
0000
0000
0000
0001
,
0000
0000
0000
0001
0000
0100
0000
0001
,
0000
0000
0000
0100
0000
0000
0000
0010
,
0000
0000
0000
0010
0000
1000
0000
0000
,
2002
0000
0000
0000
,
3003
0000
0000
0000
,
1000
0001
1000
0001
,
0100
0100
0100
0100
,
0001
1000
0001
1000
,
0010
0010
0010
0010
,
0100
0010
0100
0010
,
1000
1000
1000
1000
,
0010
0100
0010
0100
,
0001
0001
0001
0001
,
1000
0000
0001
0000
,
1000
0000
0001
0000
,
0100
0000
0100
0000
,
0100
0000
0100
0000
,
0001
0000
1000
0000
,
0001
0000
1000
0000
,
0010
0000
0010
0000
,
0010
0000
0010
0000
,
0100
0000
0010
0000
,
0100
0000
0010
0000
,
1000
0000
1000
0000
,
1000
0000
1000
0000
,
0100
0000
0010
0000
,
0100
0000
0010
0000
,
0100
0000
0100
0000
,
0100
0000
0101
0000
,
0001
0000
1000
0000
,
0001
1000
0001
0000
,
0100
0000
0010
0000
,
0100
0010
0100
0000
,
0010
0000
1000
0000
,
0001
1000
0001
0000
,
0100
0000
1000
0000
,
0100
1000
0100
0000
,
1000
0000
0100
0000
,
0010
0001
0010
0000
,
0100
0000
0001
0000
,
0001
0100
0001
0000
,
0100
0000
0010
0000
,
0010
0100
0010
0000
,
0010
0000
0010
0000
,
0010
1000
0001
0000
,
0001
0000
1000
0000
,
0001
1000
0001
0000
,
0100
0000
0010
0000
,
0010
0100
0010
1000
,
0010
1000
0001
1000
,
0001
0000
1000
0000
,
0001
0100
0001
0000
,
0100
0000
0010
0100
,
0000
0100
0000
0010
,
0100
0000
0010
0000
,
0010
0100
0010
0000
,
0001
1000
0001
0000
,
0010
0000
0010
0000
,
0010
1000
0010
0000
,
0010
0100
0010
0000
,
0010
0100
0001
1000
,
0010
0100
0001
1000
,
0002
0000
0000
0000
,
0000
0000
0000
0000
,
0000
0000
0000
0000
,
0000
0000
0000
0000
,
0003
0000
0000
0000
;

//---------------dance-single - ----------------
#NOTES:
     dance-single:
     :
     Beginner:
     3:
     0.162,0.288,0.075,0.000,0.000: // measure 1
0000
0000
0000
0000
,  // measure 2
0000
0000
0000
0000
,  // measure 3
0000
0010
0000
0000
,  // measure 4
0000
0010
0000
0000
,  // measure 5
0000
0001
0000
0000
,  // measure 6
0000
1000
0000
0000
,  // measure 7
1001
1000
0000
0000
,  // measure 8
0010
0000
0000
0000
,  // measure 9
0000
0000
0010
0000
,  // measure 10
0000
0000
0010
0000
,  // measure 11
0010
0000
0100
0000
,  // measure 12
0000
0000
0000
0000
,  // measure 13
0000
0000
0100
0000
,  // measure 14
0000
0000
0100
0000
,  // measure 15
0100
0010
0000
0000
,  // measure 16
0000
0000
0000
0000
,  // measure 17
0000
0010
0000
0000
,  // measure 18
0000
0010
0000
0000
,  // measure 19
1000
0000
0000
0000
,  // measure 20
0000
0000
0001
0000
,  // measure 21
0001
0000
1001
1000
,  // measure 22
0000
0000
0000
0000
,  // measure 23
0000
0000
0000
1000
,  // measure 24
0000
0000
0000
0000
,  // measure 25
0000
0000
0000
0001
,  // measure 26
0000
0000
0000
0000
,  // measure 27
0000
0000
0000
0100
,  // measure 28
0000
0000
0000
0010
,  // measure 29
0000
0000
0000
0110
,  // measure 30
0000
0000
0000
0000
,  // measure 31
0000
0000
0000
0010
,  // measure 32
0000
0000
0000
0000
,  // measure 33
0000
0000
0000
1000
,  // measure 34
0000
0000
0000
0000
,  // measure 35
0000
0000
0000
0001
,  // measure 36
0000
0000
0000
0001
,  // measure 37
0000
0000
0000
0000
,  // measure 38
0000
0000
0000
0001
,  // measure 39
0000
0000
0000
0000
,  // measure 40
0000
0000
0000
1000
,  // measure 41
0000
0000
0000
0000
,  // measure 42
0000
0000
0000
1000
,  // measure 43
0000
0000
0000
1000
,  // measure 44
0000
0000
0000
0010
,  // measure 45
0000
0000
0000
0010
,  // measure 46
0000
0000
0000
0100
,  // measure 47
0000
0000
0000
0100
,  // measure 48
0000
0000
0000
0010
,  // measure 49
0000
0000
0000
0100
,  // measure 50
0000
0000
0000
0010
,  // measure 51
0000
0010
0000
0010
,  // measure 52
0000
0000
0010
0000
,  // measure 53
0000
0000
0010
0000
,  // measure 54
0000
0000
1000
0000
,  // measure 55
0000
0000
0001
0000
,  // measure 56
0000
0000
0001
0000
,  // measure 57
0000
0000
0000
0000
,  // measure 58
0000
0000
0001
0000
,  // measure 59
0000
0000
0001
0000
,  // measure 60
0000
1000
0000
0000
,  // measure 61
0000
0000
0000
0000
,  // measure 62
0000
1000
0000
0000
,  // measure 63
0000
0000
0000
0000
,  // measure 64
0000
0001
0000
1001
,  // measure 65
0000
0000
0000
0001
,  // measure 66
0000
0000
0000
1001
,  // measure 67
0000
1000
0000
0000
,  // measure 68
0000
0000
0000
0000
,  // measure 69
0000
0010
0000
0000
,  // measure 70
0000
0000
0000
0000
,  // measure 71
0000
0100
0000
0000
,  // measure 72
0000
0000
0000
0000
,  // measure 73
0000
0010
0000
0000
,  // measure 74
0000
0000
0000
0000
0000
0000
0000
0001
,  // measure 75
0000
0000
0000
0000
,  // measure 76
0000
0000
0000
0000
0000
0000
0000
1000
,  // measure 77
0000
0000
0000
0000
,  // measure 78
0000
0000
0000
0000
0000
0000
0000
0010
,  // measure 79
0000
0000
0000
0000
,  // measure 80
0000
0000
0000
0000
,  // measure 81
1001
0000
0000
0000
,  // measure 82
0000
0000
0000
0000
,  // measure 83
0010
0000
0000
0000
,  // measure 84
0000
0000
0000
0000
,  // measure 85
0010
0000
0000
0000
,  // measure 86
1000
0000
0001
0000
,  // measure 87
1000
0000
0000
0000
,  // measure 88
1000
0000
0000
0000
,  // measure 89
0001
0000
0000
0000
,  // measure 90
0100
0000
0000
0000
,  // measure 91
0010
0000
0000
0000
,  // measure 92
0010
0000
0000
0000
,  // measure 93
0010
0000
0000
0000
,  // measure 94
0010
0000
0000
0000
,  // measure 95
0100
0000
0000
0000
,  // measure 96
0100
0000
0000
0000
,  // measure 97
0100
0000
0000
0000
,  // measure 98
0100
0000
0000
0000
,  // measure 99
1000
0000
0000
0000
,  // measure 100
1000
0000
0000
0000
,  // measure 101
1000
0000
0000
0000
,  // measure 102
1000
0000
0000
0000
,  // measure 103
0001
0000
0000
0000
,  // measure 104
0001
0000
0000
0000
,  // measure 105
0001
0000
0000
0000
,  // measure 106
0001
0000
1001
0000
,  // measure 107
1000
0000
0000
0000
,  // measure 108
1000
0000
0000
0000
,  // measure 109
0001
0000
0000
0000
,  // measure 110
0001
0000
0000
0000
,  // measure 111
0100
0000
0000
0000
,  // measure 112
0100
0000
0000
0000
,  // measure 113
0010
0000
0000
0000
,  // measure 114
0010
0000
0000
0000
,  // measure 115
0100
0000
0000
0000
,  // measure 116
0010
0000
0000
0000
,  // measure 117
0100
0000
0000
0000
,  // measure 118
0010
0000
0000
0000
,  // measure 119
1000
0000
0000
0000
,  // measure 120
0001
0000
0000
0000
,  // measure 121
1000
0000
0000
0000
,  // measure 122
0001
0000
0000
0000
,  // measure 123
0000
0000
0000
0000
,  // measure 124
0110
0000
0000
0000
,  // measure 125
0010
0000
0000
0000
,  // measure 126
0100
0000
0100
0000
,  // measure 127
0100
0000
0000
0000
,  // measure 128
0010
0000
0000
0000
,  // measure 129
1000
0000
0000
0000
,  // measure 130
0001
0000
0001
0000
,  // measure 131
0001
0000
0000
0000
,  // measure 132
1000
0000
0000
0000
,  // measure 133
0001
0000
0000
0000
,  // measure 134
0100
0000
0100
0000
,  // measure 135
0100
0000
0000
0000
,  // measure 136
0010
0000
0000
0000
,  // measure 137
1000
0000
0000
0000
,  // measure 138
0001
0000
1000
0000
,  // measure 139
0001
0000
0100
0000
,  // measure 140
0110
0000
0000
0000
;
