#TITLE:STARS;
#SUBTITLE:;
#ARTIST:TERRA;
#TITLETRANSLIT:;
#SUBTITLETRANSLIT:;
#ARTISTTRANSLIT:;
#CREDIT:;
#BANNER:bn.PNG;
#BACKGROUND:bg.PNG;
#LYRICSPATH:;
#CDTITLE:Beatmania IIDX.png;
#MUSIC:stars.mp3;
#OFFSET:-4.454;
#SAMPLESTART:41.200;
#SAMPLELENGTH:12.000;
#SELECTABLE:YES;
#BPMS:0.000=140.000;
#STOPS:151.500=1.700
;
#BGCHANGES:;

//---------------dance-single - ----------------
#NOTES:
     dance-single:
     :
     Hard:
     7:
     0.419,0.427,0.076,0.105,0.119:
0000
0000
0000
0000
,
0000
0000
0000
0000
,
0000
0000
0000
0000
,
0000
0000
0000
0000
,
0000
0000
0000
0000
,
0000
0000
0000
0000
0000
0000
0000
0010
,
0001
0010
0100
1000
0100
1000
0000
0100
,
0000
0000
0010
0000
0100
0000
0010
0001
0000
0000
0000
0000
0000
0000
1000
0000
,
0100
0010
0001
0010
0001
0010
0000
0001
,
0000
0000
0100
0000
0010
0000
0010
0100
0000
0000
0000
0000
0000
0000
0000
0000
,
1000
0000
0100
0000
0010
0000
1000
0000
0001
0000
0000
0001
0000
0000
0010
0000
,
0100
0000
1000
0000
0010
0000
0010
1000
0000
0000
0000
0000
0000
0000
1000
0000
,
0100
0010
0001
0000
0010
0100
0000
1000
,
0000
0000
0100
0000
1000
0000
0010
0001
0000
0000
0000
0000
0000
0000
0000
0000
,
1001
0000
0000
0000
1010
0000
0000
0000
0010
0000
0010
0100
0000
0000
1000
0000
,
0100
0000
0010
0000
0001
0000
0001
0010
0000
0000
0000
0000
0000
0000
0010
0000
,
0100
0000
0000
0100
0000
0000
0100
0000
1000
0000
0000
1000
0000
0000
2000
0000
,
0020
0000
0000
0000
3030
0000
0010
0001
,
0020
0000
0000
0130
0000
1000
0100
0010
,
0002
0000
0023
0000
,
0130
0000
0000
1000
0000
0100
0010
1000
,
0001
0001
0000
0000
1000
1000
0000
0000
,
0120
0000
0000
0130
0100
0000
0000
1000
,
0100
0000
0000
0100
0000
0000
0010
0000
0001
0000
0000
0001
0000
0000
0010
0000
,
0110
0000
0000
1000
1000
0000
0100
0010
,
0000
0001
0100
0000
0000
1000
0100
0010
,
0001
0010
0100
1000
0000
0001
1000
0010
,
1000
0001
1000
0001
0000
1000
0100
0010
,
0001
0100
0001
0100
0000
0010
1000
0010
,
0100
1000
0001
0020
0000
0000
0030
0000
,
1000
0000
0100
0000
1000
0000
0100
0000
1000
0000
0000
1000
0000
0000
1000
0000
,
0100
0000
0000
0100
0000
0000
0100
0000
0010
0000
0100
0000
0010
0000
0100
0000
,
0010
0000
0001
0000
0010
0000
0001
0000
0010
0000
0000
0010
0000
0000
0010
0000
,
0001
0000
0000
0001
0000
0000
0001
0000
1000
0000
1000
0000
0010
0000
0100
0000
,
0010
0000
1000
0000
0100
0000
0010
0000
0001
0000
0000
0100
0000
0000
0010
0000
,
0010
0000
0000
1000
0000
0000
1000
0000
0100
0000
0010
0000
0001
0000
0010
0000
,
0100
0000
1000
0000
0001
0000
0100
0000
0010
0000
0000
0010
0000
0000
0001
0000
,
1000
0000
0000
0100
0000
0000
0010
0000
0001
0000
0010
0000
1000
0000
0001
0000
,
2000
0000
0000
0100
3100
0000
0000
0010
,
0001
0000
0000
0001
0000
0000
0001
0000
0010
0000
0000
0010
0000
0000
0010
0000
,
0100
0000
0000
1000
0100
0000
0010
0001
,
0000
0010
0100
0000
0000
1000
0100
0001
,
0010
0001
0010
0001
0000
1000
0100
1000
,
0100
1000
0100
1000
0000
0010
0100
0010
,
0001
0010
0001
0010
0000
0001
0010
0001
,
0010
0100
1000
0200
0000
0000
0300
0000
,
2100
0000
0000
0001
3001
0000
0000
0010
,
0110
0000
0000
0010
0000
0000
1000
0000
0011
0000
0000
0001
0000
0000
0100
0000
,
1001
0000
0000
0010
0100
0000
1000
0100
,
0000
0100
0000
0010
0000
0000
1000
0100
,
0010
0001
0010
0100
0000
0001
1000
0010
,
0100
0001
0100
0010
0000
0001
0100
0010
,
0001
0010
0100
1000
0100
1000
0000
0010
,
1000
0001
0100
0020
0000
0000
0000
0000
,
0130
0000
0001
0000
0100
0000
0010
0000
0010
0000
0000
0010
0000
0000
0010
0000
,
0100
0000
0000
0100
0000
0000
0100
0000
1000
0000
1000
0000
0001
0000
0001
0000
;

//---------------dance-single - ----------------
#NOTES:
     dance-single:
     :
     Medium:
     5:
     0.330,0.427,0.210,0.076,0.029:
0000
0000
0000
0000
,
0000
0000
0000
0000
,
0000
0000
0000
0000
,
0000
0000
0000
0000
,
0000
0000
0000
0000
,
0000
0000
0000
0000
,
1000
0001
0100
0001
,
0010
0000
0001
0000
0100
0010
0100
0000
,
0010
0010
1000
0001
,
1000
0000
0001
0000
0100
0000
0010
1000
,
0100
0100
1000
1000
,
0001
0000
1000
0000
0001
1000
0001
0000
,
0100
0001
0010
0001
,
0100
0000
0010
1000
0010
0000
1000
0000
,
1010
0011
1100
0101
,
1001
0000
0110
0000
1001
0000
0000
1000
,
0001
0000
0000
0001
0100
0000
0000
0100
,
0020
0000
0000
0000
0030
0000
0010
1000
,
0010
0000
1000
0000
0001
0000
1000
0001
,
1000
0100
0010
0001
,
0011
0001
0100
0010
,
1010
0000
0101
0000
,
1002
0000
0000
1000
1003
0000
0000
1000
,
0001
0100
0010
1000
,
1010
0000
0000
1000
0010
0000
0010
0100
,
0000
0100
0010
0000
0000
0000
1000
0000
,
0001
0100
0001
0010
0000
0000
0000
0000
,
1000
0100
1000
0010
0000
0000
0000
0000
,
1000
0001
1000
0100
0000
0000
1000
0000
,
0001
0100
0010
2000
0000
0000
0000
0000
,
3010
1000
0020
0030
,
2000
3000
0001
1000
,
1001
0001
0200
0000
,
0001
0000
0001
0000
,
0301
1000
1001
0010
,
1001
0000
0100
0000
0001
1000
0001
1000
,
0001
1001
0100
1100
,
0010
0000
0011
0000
0001
0010
0100
1000
,
1001
0000
0000
0001
0001
0000
0000
1000
,
0001
0000
0000
0001
0000
0000
1000
0000
0001
0000
0000
0100
0000
0000
0010
0000
,
1000
0000
0000
0010
1000
0000
0010
0100
,
0000
0010
1000
0000
0000
1000
0001
0000
,
1000
0000
0001
0100
0000
0000
1001
0000
,
0001
0000
0001
1000
0000
0000
1010
0000
,
1000
1000
0010
0100
,
0010
1000
0001
0200
0000
0000
0300
0000
,
1010
0000
0000
0010
0010
0000
0000
0010
,
1000
0000
0000
0001
0000
0000
0100
0000
0010
0000
0000
1000
0000
0000
0100
0000
,
1000
0000
0000
1000
0100
0000
1000
0100
,
0000
1000
0000
0001
0000
0000
1000
0000
,
0001
0000
0100
0001
0000
0000
0001
0000
,
0100
0000
0010
1000
0000
0000
0010
0000
,
1000
1000
0001
0000
,
0001
1000
0001
0200
0000
0000
0300
0000
,
0001
0000
0100
0000
0010
0000
1000
0000
0010
0000
0000
0010
0000
0000
0010
0000
,
1000
0000
0000
1000
0000
0000
1000
0000
0001
0000
0100
0000
0010
0000
1000
0000
;

//---------------dance-single - ----------------
#NOTES:
     dance-single:
     :
     Easy:
     3:
     0.212,0.347,0.096,0.134,0.000:
0000
0000
0000
0000
,
0000
0000
0000
0000
,
0000
0000
0000
0000
,
0000
0000
0000
0000
,
0000
0000
0000
0000
,
0000
0000
0000
0000
,
0010
1000
0010
0000
,
0001
0000
1000
0000
,
0001
1000
0100
0000
,
1000
0000
0001
0000
,
1000
1000
1000
0000
,
0001
0001
0001
0000
,
0010
0000
0100
0000
,
0010
1000
0100
0000
,
1001
0000
0110
0000
,
0010
1000
0010
0000
,
1000
0000
0001
0000
,
0100
0000
0000
0010
,
0010
0000
1000
0001
,
1000
0000
0001
0000
,
0100
0000
0010
1000
,
1001
0000
0110
0000
,
0010
0000
0010
0000
,
1000
0001
1000
0001
,
1000
0000
0001
0000
,
0100
0000
0010
1000
,
0100
0000
0000
1000
,
0001
0000
0000
0100
,
0010
0000
0000
0010
,
1000
0000
0000
0000
,
1000
0001
0200
0000
,
0001
0000
0001
0001
,
0301
1000
0002
0003
,
2000
3000
0020
0030
,
0100
0010
2000
3000
,
0200
0300
0020
0030
,
0001
1000
0002
0003
,
0200
0300
0020
0030
,
0001
0000
1000
0000
,
0002
0000
1000
0000
,
0020
0000
0000
0000
,
0003
0000
0000
0001
,
0031
0100
0001
0100
,
0010
1000
0100
1000
,
0010
1000
0100
0010
,
0002
0100
0200
0303
,
0101
0000
1100
0000
,
1001
1001
1001
0010
,
1001
0000
0100
0010
,
1000
0100
1000
0001
,
1000
0000
0000
0001
,
0100
0000
0000
0010
,
1000
0001
1000
0000
,
1000
0100
0010
0001
,
0100
0000
0010
0000
,
0010
0000
0000
0000
1000
0001
1000
0001
;

//---------------dance-single - ----------------
#NOTES:
     dance-single:
     :
     Beginner:
     1:
     0.067,0.133,0.029,0.000,0.000: // measure 1
0000
0000
0000
0000
,  // measure 2
0000
0000
0000
0000
,  // measure 3
0000
0000
0000
0000
,  // measure 4
0000
0000
0000
0000
,  // measure 5
0000
0000
0000
0000
,  // measure 6
0000
0000
0000
0000
,  // measure 7
0001
0000
0000
0000
,  // measure 8
0000
0000
0000
0000
,  // measure 9
1000
0000
0000
0000
,  // measure 10
0000
0000
0000
0000
,  // measure 11
0100
0000
0000
0000
,  // measure 12
0000
0000
0000
0000
,  // measure 13
0010
0000
0000
0000
,  // measure 14
0000
0000
0000
0000
,  // measure 15
0001
0000
0001
0000
,  // measure 16
0001
0000
0000
0000
,  // measure 17
1000
0000
1000
0000
,  // measure 18
1000
0000
0000
0000
,  // measure 19
0010
0000
0000
0000
,  // measure 20
0100
0000
0000
0000
,  // measure 21
0010
0000
0000
0000
,  // measure 22
1001
0000
0000
0000
,  // measure 23
1000
0000
0000
0000
,  // measure 24
0001
0000
0000
0000
,  // measure 25
0001
0000
0000
0000
,  // measure 26
0010
0000
0000
0000
,  // measure 27
0100
0000
0000
0000
,  // measure 28
0100
0000
0000
0000
,  // measure 29
0100
0000
0000
0000
,  // measure 30
0100
0000
0000
0000
,  // measure 31
1001
0000
0000
0000
,  // measure 32
0000
0000
0000
0000
,  // measure 33
1000
0000
0000
0000
,  // measure 34
0000
0000
0000
0000
,  // measure 35
0001
0000
0000
0000
,  // measure 36
0000
0000
0000
0000
,  // measure 37
0100
0000
0000
0000
,  // measure 38
0000
0000
0000
0000
,  // measure 39
0010
0000
0000
0000
,  // measure 40
0010
0000
0010
0000
,  // measure 41
0010
0000
0000
0000
,  // measure 42
1000
0000
0000
0000
,  // measure 43
0001
0000
0000
0000
,  // measure 44
1000
0000
0000
0000
,  // measure 45
0010
0000
0000
0000
,  // measure 46
0100
0000
0000
0000
,  // measure 47
0110
0000
0000
0000
,  // measure 48
0001
0000
0001
0000
,  // measure 49
0001
0000
0000
0000
,  // measure 50
0000
0000
0000
0000
,  // measure 51
1000
0000
0000
0000
,  // measure 52
0010
0000
0000
0000
,  // measure 53
0100
0000
0000
0000
,  // measure 54
0001
0000
0000
0000
,  // measure 55
1000
0000
0000
0000
,  // measure 56
0000
0000
0001
0001
;
