#TITLE:SOUND OF GIALLARHORN;
#SUBTITLE:;
#ARTIST:L.E.D. -G;
#TITLETRANSLIT:The Sharp Striker;
#SUBTITLETRANSLIT:;
#ARTISTTRANSLIT:;
#CREDIT:;
#BANNER:bn.PNG;
#BACKGROUND:bg.PNG;
#LYRICSPATH:;
#CDTITLE:;
#MUSIC:SOUND OF GIALLARHORN.mp3;
#OFFSET:0.080;
#SAMPLESTART:54.700;
#SAMPLELENGTH:12.000;
#SELECTABLE:YES;
#BPMS:0.000=184.000,296.000=46.000,300.000=184.001;
#STOPS:316.000=0.978
;
#BGCHANGES:;

//---------------dance-single - ----------------
#NOTES:
     dance-single:
     :
     Hard:
     9:
     0.685,0.898,0.127,0.336,0.246:
0000
0000
0000
0000
,
0000
0000
0000
0000
,
0000
0000
0000
0000
,
0000
0000
0000
0000
,
0000
0000
0000
0000
,
0000
0000
0000
0000
,
0000
0000
0000
0000
,
0000
0000
0000
0000
,
0000
0000
0000
0000
,
0000
0000
0000
0000
,
0002
0103
2000
3100
,
0010
0020
0230
0310
,
0200
0310
2000
3001
,
0020
0130
0200
0310
,
2000
3001
0200
0310
,
1000
0001
0200
0310
,
0020
0130
2000
3100
,
0002
0103
0020
0031
,
1000
0100
0001
0000
0001
0100
0000
0001
,
0100
0000
0001
0100
0000
0001
0100
0010
,
1000
0001
0100
0000
0010
0100
0000
0010
,
0100
0000
0010
0100
0000
0010
0100
0010
,
1010
0000
0000
0000
0000
0000
0000
0001
,
0011
0000
0000
0000
0000
0000
0000
1000
,
1100
0000
0000
0010
0110
0000
0000
1000
,
0001
1000
0001
1000
0001
1000
0001
1000
0001
0000
1000
0100
1000
0000
0001
0100
,
0001
1000
0001
0000
0100
0010
0000
1000
,
0100
0000
0001
0100
0000
0010
1000
0001
,
0100
0010
1000
0010
0001
1000
0001
1000
,
0001
0010
0100
0001
1000
0010
0100
1000
,
0001
1000
0000
0001
1000
0000
0010
0100
,
0000
1000
0001
0000
0010
0100
1000
0001
,
0100
0010
1000
0001
0010
1000
0001
0100
,
0001
0100
0010
1000
0001
1000
0010
0100
,
1000
0001
1000
0000
1000
1000
0000
0001
,
0001
0000
0010
0010
0000
0001
1000
0001
,
0100
0010
1000
0001
0010
0100
1000
0001
,
1000
0001
0100
0001
0010
1000
0100
1000
,
0100
0100
0000
0001
0001
0000
0010
0010
,
0000
1000
1000
0000
0001
1000
0001
0100
,
0010
1000
0001
0100
1000
0100
0010
0001
,
0010
0001
0100
1000
0001
0010
0100
1000
,
0001
0000
0000
1000
0000
0000
0001
0000
0000
0000
0100
0000
0010
0000
1000
0000
,
0001
0000
0000
1000
0000
0000
0100
0000
0000
0000
0001
0000
0010
0000
1000
0000
,
0001
0000
0000
1000
0000
0000
0010
0000
0000
0000
0100
0000
0010
0000
1000
0000
,
0001
0000
0000
1000
0000
0000
0100
0000
0000
0010
0000
0001
1000
0000
0100
0001
,
0100
0000
0000
0000
0010
0000
0000
1000
0000
0000
0001
0000
1000
0000
0001
0000
,
0100
0000
0000
0000
0010
0000
0000
1000
0000
0000
1000
0000
0100
0000
0001
0000
,
0100
0000
1000
1000
0000
1000
0001
0010
,
0100
0000
0000
0010
0000
0000
0001
0000
0000
1000
0000
0010
0001
0000
0010
0000
,
0010
0000
0000
0100
0000
0000
0010
0000
0000
0000
0001
0000
1000
0000
0100
0000
,
0010
0000
0000
0100
0000
0000
0001
0000
0000
0000
0010
0000
1000
0000
0100
0000
,
0010
0000
0000
0100
0000
0000
1000
0000
0000
0000
0001
0000
1000
0000
0100
0000
,
0010
0000
0000
0100
0000
0000
0001
0000
0000
1000
0000
0010
0100
0000
0001
0010
,
0001
0000
0000
0000
1000
0000
0000
0100
0000
0000
0010
0000
0100
0000
0010
0000
,
0001
0000
0000
0000
1000
0000
0000
0100
0000
0000
0100
0000
0001
0000
0010
0000
,
0011
0000
0000
0011
0000
0000
0011
0000
0000
0000
0001
0000
0100
0000
0010
0000
,
1000
0000
0001
1000
0000
0001
1000
0000
0010
0000
0100
0000
1000
0000
0001
0000
,
1000
0100
0000
1000
0100
0000
0001
0000
0100
0000
0010
0000
1010
0000
0000
0000
,
0001
1000
0000
0001
1000
0000
0010
0000
0100
0000
1000
0000
1001
0000
0000
0000
,
1000
0010
0000
0001
0100
0000
1000
0000
0001
0000
0010
0000
0110
0000
0000
0000
,
1000
0001
0000
1000
0001
0000
1000
0000
0001
0000
0100
0000
1010
0000
0000
0000
,
1000
0100
0000
1000
0100
0000
0001
0100
0001
0000
0010
0000
0100
0000
0000
0000
,
1000
0001
0000
1000
0001
0000
0001
1000
0001
0000
0100
0000
0110
0000
0000
0000
,
1000
0100
0000
0001
0010
0000
0001
1000
0001
0000
0100
0000
0101
0000
0000
0000
,
1000
0100
0000
0010
0001
0000
1000
0001
1000
0000
0010
0000
0100
0000
1000
0000
,
0001
0010
0100
1000
0001
0100
0001
0100
,
0010
1000
0010
0100
0001
1000
0010
0001
,
0010
0100
1000
0100
0010
0001
0100
0001
,
1000
0010
1000
0100
1000
0100
0001
0100
,
1000
0100
0010
0001
0010
1000
0001
1000
,
0010
0100
1000
0100
0010
0001
0010
0100
,
1000
0010
1000
0001
0100
0010
1000
0001
,
1000
0000
0100
1000
0100
0000
0001
0100
0001
0000
0010
0000
1000
0000
0001
0000
,
0201
0000
0000
0000
0320
0000
0000
2030
,
3001
0000
0000
0000
0000
0000
0000
0010
,
0110
0000
0000
0000
0000
0000
0000
0001
,
0101
0000
0000
1000
1100
0000
0000
0010
,
0100
0010
0100
0010
1000
0001
0010
0100
1000
0000
0001
1000
0001
0000
0010
1000
,
0002
0000
1003
1000
0001
0000
0100
0010
,
0000
1000
0100
0000
0001
0100
0000
0010
,
1000
0001
0100
0010
1000
0010
0001
1000
,
0001
1000
0001
0010
0100
0001
1000
0010
,
0100
1000
0001
1000
0000
0001
1000
0000
,
0010
0100
0000
1000
0001
0000
0010
0100
,
1000
0001
0100
0010
1000
0001
0010
1000
,
0001
0100
0001
0100
0010
1000
0001
1000
,
0010
0100
1000
0100
2000
0000
3002
0100
,
0003
0100
0020
0000
2030
0001
3000
0001
,
0020
0130
2000
3100
0020
0031
2000
3001
,
0200
0310
2000
3010
0002
0103
2000
3001
,
2000
3100
0002
0013
0200
1300
0200
0301
,
2000
3010
2000
3001
0200
0310
2000
3100
,
0020
0031
0020
0130
0002
1003
0020
0130
,
0002
0000
1003
0000
0001
0010
0100
1000
0001
1000
0001
0010
0100
1000
0001
1000
,
0001
0100
0001
0010
0200
0000
0000
0000
0000
0000
0000
0000
0000
0000
0000
0000
,
0000
0300
0000
0000
;

//---------------dance-single - ----------------
#NOTES:
     dance-single:
     :
     Medium:
     8:
     0.496,0.611,0.127,0.314,0.007:
0000
0000
0000
0000
,
0000
0000
0000
0000
,
0000
0000
0000
0000
,
0000
0000
0000
0000
,
0000
0000
0000
0000
,
0000
0000
0000
0000
,
0000
0000
0000
0000
,
0000
0000
0000
0000
,
0000
0000
0000
0000
,
0000
0000
0000
0000
,
0010
1000
0010
0100
,
0020
0000
0000
2030
0000
0000
3002
0000
,
0200
0000
0000
0003
,
0020
0300
1000
0000
,
2000
0000
0000
0030
,
0020
3000
0000
0000
0230
0000
0000
0000
,
0002
0000
0000
0300
,
2003
0000
0020
3030
,
0220
0000
0000
0000
,
0000
0000
0000
0000
,
0000
0000
0000
0000
,
0000
0000
0330
0000
,
0101
0000
0000
0000
0000
0000
0000
1000
,
0100
0000
0000
0000
0000
0000
0000
0001
,
0100
0000
0000
0010
0100
0000
0000
0001
,
0100
0001
1000
0010
1000
0010
1000
0010
,
1000
0001
1000
0000
0001
1000
0000
0001
,
1000
0000
0001
1000
0000
0001
0100
0001
,
0100
0001
0000
0010
0100
0000
0010
1000
,
0000
0010
0100
0000
0010
0000
0001
1000
,
0001
0000
1000
0000
0001
0100
0001
0000
,
0010
0000
1000
0000
0010
1000
0001
0000
,
1000
0001
0000
0100
0001
0000
0010
1000
,
0010
0100
0000
0010
1000
0000
0001
1000
,
0001
0100
0001
0000
0001
0100
0000
0010
,
1000
0000
0001
0100
0000
0010
1000
0000
,
0010
0100
0010
0000
1000
0000
0001
0000
,
0001
0100
0010
0000
0001
1000
0010
0000
,
0001
1000
0000
0001
1000
0000
0001
0100
,
0001
0100
0010
0000
0010
1000
0001
0000
,
1000
0100
0000
0010
0001
0000
0001
0100
,
0010
1000
0000
0001
1000
0000
1000
0100
,
1000
0000
1000
0000
1000
0000
1000
0100
,
0001
0000
0001
0000
0001
0000
0001
0100
,
1000
0000
1000
0000
1000
0000
1000
0100
,
0001
0000
0001
0000
0001
1000
0001
1000
,
0001
0000
0001
0000
0001
0000
0001
0010
,
1000
0000
1000
0000
1000
0000
1000
0010
,
0001
0000
0001
0000
0001
0000
0001
0010
,
1000
1000
1000
1000
,
0001
0000
1000
0000
0001
0000
0001
0001
,
0100
0000
0100
0000
0100
0000
0100
0100
,
0010
0000
0010
0000
0010
0000
0010
0010
,
1000
0000
1000
0000
0001
1000
0001
0000
,
0101
0000
1010
0000
0110
0000
0010
0100
,
0010
0000
0100
0000
1000
0000
0010
1000
,
0001
0000
0000
0001
0000
0000
0001
0000
0000
0000
0001
0000
1000
0000
0001
0000
,
0100
0000
0000
0010
0000
0000
1000
0000
0000
0000
0010
0000
0100
0000
0001
0000
,
1000
1100
0120
0130
,
0101
1020
0100
1030
,
1020
0100
1000
1030
,
1002
0100
1000
0103
,
0120
0100
0100
0130
,
0210
0010
0001
0301
,
0102
1003
0120
1030
,
0120
1030
0120
0130
,
0001
1000
0001
0000
1000
0100
1000
0000
,
0010
0001
0010
0000
0100
0001
0100
0000
,
0010
1000
0010
0000
0001
1000
0001
0000
,
0100
0001
0100
0000
0010
1000
0010
0000
,
1000
0100
2000
0000
3100
1000
0200
0000
,
1300
0100
2000
0000
3100
1000
0200
0000
,
0310
0100
0020
0000
0130
0001
0200
0000
,
0301
1000
0001
1000
0001
0010
0100
0010
,
2000
0000
0000
0000
3002
0000
0000
0203
,
0020
0000
0000
0000
0300
0000
0000
0100
,
0100
0000
0000
0000
0000
0000
0000
0100
,
0100
0000
0000
0100
0100
0000
0000
0100
,
0130
0010
1000
0001
0010
0001
0010
0100
,
1000
0000
0001
0100
0001
0000
0010
1000
,
0000
0010
1000
0000
0010
1000
0000
0010
,
1000
0001
1000
0001
0010
0100
1000
0100
,
0010
0001
0010
0100
0001
0100
0010
1000
,
0001
1000
0010
1000
0000
0010
0100
0000
,
0001
1000
0001
1000
0001
0000
1000
0100
,
1000
0000
0010
0001
0000
0001
0010
0000
,
0010
0001
0010
0001
0000
0010
0001
0000
,
0001
0010
0100
1000
0200
0000
0000
2300
,
0000
0000
3020
0000
0000
0230
0000
0301
,
1000
0010
1000
0020
0000
0000
0230
0000
,
0000
0320
0000
0000
2030
0000
3001
0000
,
0100
0001
0100
0010
1000
0000
0010
0100
,
0010
0000
0001
1000
0001
0000
0001
0010
,
0100
0000
0001
1000
0010
0100
1000
0100
,
1000
0100
0001
0100
0010
0001
0010
0100
,
1000
0001
0200
0000
0000
0000
0000
0000
,
0000
0300
0000
0000
;

//---------------dance-single - ----------------
#NOTES:
     dance-single:
     :
     Easy:
     6:
     0.427,0.539,0.119,0.411,0.000:
0000
0000
0000
0000
,
0000
0000
0000
0000
,
0000
0000
0000
0000
,
0000
0000
0000
0000
,
0000
0000
0000
0000
,
0000
0000
0000
0000
,
0000
0000
0000
0000
,
0000
0000
0000
0000
,
0000
0000
0000
0000
,
0000
0000
0000
0000
,
0002
0000
0000
0000
,
1000
0000
0000
1000
0000
0000
1000
0000
,
2000
0000
0000
0003
,
0001
0000
0001
0001
,
0002
0000
0000
3000
,
0100
0000
0100
0000
,
0200
0000
0000
0003
,
0320
0000
2030
0000
,
3010
0000
1000
0000
0000
1000
0000
0000
,
1000
0000
0000
1000
0000
0000
0001
0000
,
0100
0000
0010
0000
0000
1000
0000
0000
,
0010
0000
0000
0100
0000
0000
0010
1000
,
0010
0000
0000
0000
0000
0000
0000
0001
,
0100
0000
0000
0000
0000
0000
0000
0010
,
0100
0000
0000
0001
1000
0000
0000
0001
,
1000
0000
0001
0000
0100
0000
0010
1000
,
0001
1000
0001
0100
,
0001
0000
1000
0000
0010
0000
0010
1000
,
0001
0001
1000
1000
,
0001
0000
0100
0000
0010
0000
0010
1000
,
0010
1000
0100
0010
,
0001
0010
0100
1000
,
0001
1000
0010
0100
,
0010
0000
1000
0000
0001
0000
0001
0100
,
0010
1000
0001
0000
1000
0000
1000
0000
,
0001
0000
0001
0000
0100
0000
0010
1000
,
0010
1000
0100
0010
,
0001
0001
0100
0100
,
0010
0100
0010
0000
1000
0000
0001
0000
,
0100
0010
1000
0010
,
1000
0100
1000
0100
,
0010
0001
0010
0100
,
0102
0100
0100
0103
,
2100
0100
0100
3100
,
0102
0100
0100
0103
,
2100
0100
0100
3100
,
0210
0010
0010
0310
,
2010
0010
0010
3010
,
0210
0010
0010
0310
,
2010
0010
0010
3010
,
1002
1000
1000
1003
,
0102
0100
0100
0103
,
1002
1000
1000
1003
,
0201
0001
0001
0301
,
0120
0100
0100
0130
,
1020
1000
1000
1030
,
0202
0000
0000
0303
0000
0001
0010
0100
,
2000
0000
0000
0000
,
3100
0000
2000
0000
3010
0100
0010
0000
,
2000
0000
3001
0000
0010
1000
0001
0000
,
0200
0000
0310
0000
0001
1000
0010
0000
,
2000
0000
3100
0000
0001
1000
0010
0000
,
0200
0000
0310
0000
0001
1000
0010
0000
,
0002
0000
0103
0000
0010
1000
0001
0000
,
0200
1300
0020
0130
,
0002
0023
0230
2300
,
3001
0100
0001
0000
2000
0000
3100
0000
,
0010
0100
0020
0000
1030
0000
0001
0000
,
0100
0010
2000
0000
0001
0000
0001
3000
,
0001
0100
0020
0000
1000
0000
1030
0000
,
0010
1000
0020
0000
0100
0000
0130
0000
,
0001
1000
0002
0000
0100
0000
0103
0000
,
0001
1000
0001
0000
0010
0100
0001
0000
,
0001
0010
0100
1000
0100
0010
0001
1000
,
0002
0000
0000
0000
2000
0000
0000
3003
,
1001
0000
0000
0000
0000
0000
0000
0010
,
0010
0000
0000
0000
0000
0000
0000
1000
,
0001
0000
0000
0001
0100
0000
0000
0001
,
1000
0001
1000
0001
0100
0001
0100
0001
,
0000
0000
1000
0000
0001
0000
0000
0100
,
0000
0000
0010
0000
0000
1000
0000
0000
,
0001
0100
0001
0000
0000
0010
0000
0000
,
1000
0000
0001
0000
0000
1000
0000
0000
,
0010
0000
1000
0000
0000
0010
0000
0000
,
0100
0010
1000
0001
,
1000
0000
0001
0000
0000
0010
0000
0000
,
0100
0000
1000
0000
0000
0010
0000
0000
,
1000
0000
0001
0000
0200
0000
0000
0320
,
0000
0000
2030
0000
0000
3002
0000
0000
,
1003
0000
0002
0000
0000
0203
0000
0000
,
0320
0000
2030
0000
0000
3020
0000
0000
,
0230
0000
0310
0000
0000
0010
0000
0000
,
0010
0100
0010
0100
,
0010
0000
1000
0100
0000
0001
0100
0000
,
0001
0010
0100
1000
0000
0001
1000
0000
,
0001
0200
0020
0000
0000
0000
0000
0000
,
0000
0330
0000
0000
;

//---------------dance-double - ----------------
#NOTES:
     dance-double:
     :
     Challenge:
     9:
     0.571,0.905,0.366,0.239,0.067:
00000000
00000000
00000000
00000000
,
00000000
00000000
00000000
00000000
,
00000000
00000000
00000000
00000000
,
00000000
00000000
00000000
00000000
,
00000000
00000000
00000000
00000000
,
00000000
00000000
00000000
00000000
,
00000000
00000000
00000000
00000000
,
00000000
00000000
00000000
00000000
,
00000000
00000000
00000000
00000000
,
00000000
00000000
00000000
00000000
,
20000000
00000000
00000000
32000000
,
00200000
03000000
00000000
00310000
00000000
00000000
01000000
00000000
,
00200000
00000000
00000000
00000000
,
02300000
00000000
03001000
00001000
,
00021000
00000000
00000000
00030000
,
00000200
00000000
00002300
00000000
,
00003020
00000000
00000000
00000030
,
00000200
00000000
00000302
00000000
,
00000013
00000001
00000100
00000000
00000001
00000100
00000000
00000001
,
00000100
00000000
00000001
00000100
00000000
00000001
00000010
00000100
,
00001000
00000100
00001000
00000000
00001000
00000100
00000000
00001000
,
00000100
00000000
00001000
00000100
00000000
00000100
00001000
00000100
,
00000110
00000000
00000000
00000000
00000000
00000000
00000000
00001000
,
00001100
00000000
00000000
00000000
00000000
00000000
00000000
00000100
,
00010100
00000000
00000000
00001000
00011000
00000000
00000000
00100000
,
00010000
01000000
00100000
10000000
00010000
01000000
00010000
00100000
,
01000000
10000000
00010000
00000000
10000000
00010000
00000000
10000000
,
00010000
00000000
10000000
00010000
00000000
00010000
00100000
01000000
,
10000000
01000000
00000000
00010000
00100000
00000000
00010000
01000000
,
00100000
10000000
00000000
10000000
01000000
00000000
00100000
00001000
,
00010000
00000100
00000000
00001000
00000100
00000000
00000100
00000010
,
00000001
00001000
00000001
00000000
00000001
00000100
00000000
00000010
,
00000100
00000010
00000000
00000100
00001000
00000000
00000001
00000010
,
00000100
00001000
00000000
00010000
00001000
00000000
00010000
00100000
,
01000000
00010000
01000000
00000000
00100000
01000000
00000000
10000000
,
00010000
00000000
10000000
01000000
00000000
10000000
01000000
00100000
,
00010000
01000000
00000000
00001000
00100000
00000000
00010000
00000100
,
00001000
00000100
00000000
00000100
00010000
00000000
00001000
00100000
,
00010000
01000000
00000000
00100000
01000000
00000000
10000000
00010000
,
00100000
01000000
10000000
00000000
00010000
01000000
00100000
00000000
,
10000000
00010000
00000000
01000000
00010000
00000000
00100000
00001000
,
00010000
00000100
00000000
00001000
00000100
00000000
00000010
00000100
,
00000020
00000100
00000100
00000130
,
00000002
00000010
00000010
00000013
,
00000020
00000100
00000100
00000130
,
00000011
00000011
00000110
00000110
,
00000200
00001000
00001000
00001300
,
00002000
00000100
00000100
00000100
,
00003200
00010000
00010000
00010300
,
00020000
00001000
00001000
00031000
,
00011000
00110000
00011000
00110000
,
00011000
00001100
00011000
00001100
,
00011000
00011000
00001100
00001100
,
00110000
00110000
01100000
01100000
,
11000000
00000000
10000000
01000000
00000000
00010000
01000000
00100000
,
10000000
00000000
00010000
10000000
00000000
10000000
01000000
00100000
,
00010000
00000000
00000000
00100000
00000000
00000000
00101000
00000000
00000000
00000000
00010000
00000000
00000100
00000000
00001000
00000000
,
00001100
00000000
00000000
00000011
00000000
00000000
00000101
00000000
00000000
00000000
00000001
00000000
00000010
00000000
00000100
00000000
,
00002100
00000100
00000010
00003001
,
00001002
00001000
00000100
00000013
,
00000012
00000010
00000100
00000013
,
00000120
00000100
00001000
00000130
,
00001200
00001000
00010000
00010300
,
00012000
00010000
00100000
00103000
,
00120000
01000000
00100000
01030000
,
10020000
01000000
00130000
00110000
,
10000000
01000000
00100000
00000000
00100000
00001000
00010000
00000000
,
00010000
00000100
00001000
00000000
00001000
00000100
00000010
00000000
,
00000001
00001000
00000100
00000000
00000010
00001000
00000100
00000000
,
00000100
00010000
00001000
00000000
00010000
00100000
00010000
00000000
,
10010000
01000000
00100000
00000000
00010000
10000000
01000000
00000000
,
11000000
10000000
01000000
00000000
00110000
00001000
00010000
00000000
,
00001100
00000010
00000001
00000000
00000101
00000010
00001000
00000000
,
00000001
00000010
00000100
00001000
00000001
00001000
00000001
00000010
00000100
00010000
00001000
00100000
00010000
00100000
00010000
01000000
,
00200000
00000000
00000000
00000000
20300000
00000000
30000000
10000000
,
11000000
00000000
00000000
00000000
00000000
00000000
00000000
00100000
,
01100000
00000000
00000000
00000000
00000000
00000000
00000000
00001000
,
00011000
00000000
00000000
00100000
00011000
00000000
00000000
00010000
,
00001000
00010000
00001000
00010000
00001000
00010000
00001000
00010000
00001000
00010000
00001000
00010000
00001000
00010000
00001000
00010000
,
00001000
00000000
00001000
00000100
00002000
00000000
00000100
00003100
,
00000000
00000002
00000010
00000000
00000010
00000013
00000000
00000001
,
00000010
00000100
00001000
00000100
00000000
00000100
00010000
00000000
,
00001000
00100000
00010000
01000000
00000000
00100000
01000000
00000000
,
10000000
00010000
01000000
00100000
00000000
10000000
00010000
00000000
,
10000000
01000000
00100000
00010000
10000000
00000000
00010000
01000000
,
00100000
00000000
10000000
01000000
00000000
01000000
00100000
00000000
,
00100000
00001000
00010000
00001000
00000000
00010000
00000100
00000000
,
00001000
00000100
00000010
00000001
00001000
00000010
00000100
00001000
,
00000001
00000010
00000100
00010000
00001000
00100000
00010000
00100000
,
01000000
10000000
00010000
01000000
00001000
00100000
00010000
00001000
,
00100000
00010000
00100000
01000000
10000000
00010000
01000000
00001000
,
00100000
00001000
00000100
00000010
00000100
00001000
00000001
00001000
,
00000001
00000010
00000100
00001000
00000100
00010000
00100000
01000000
,
00100000
10000000
00010000
10000000
01000000
00100000
10000000
01000000
,
00100000
00001000
00000100
00000010
00000100
00000001
00000100
00000010
,
00001000
00000100
00002200
00000000
00000000
00000000
00000000
00000000
,
00000000
00000000
00000000
00000000
,
00003300
00000000
00000000
00000000
;

//---------------dance-single - ----------------
#NOTES:
     dance-single:
     :
     Beginner:
     2:
     0.126,0.284,0.045,0.000,0.000: // measure 1
0000
0000
0000
0000
,  // measure 2
0000
0000
0000
0000
,  // measure 3
0000
0000
0000
0000
,  // measure 4
0000
0000
0000
0000
,  // measure 5
0000
0000
0000
0000
,  // measure 6
0000
0000
0000
0000
,  // measure 7
0000
0000
0000
0000
,  // measure 8
0000
0000
0000
0000
,  // measure 9
0000
0000
0000
0000
,  // measure 10
0000
0000
0000
0000
,  // measure 11
1000
0000
0000
0000
,  // measure 12
0001
0000
0000
0000
,  // measure 13
0001
0000
0000
0000
,  // measure 14
0100
0000
0100
0000
,  // measure 15
0100
0000
0000
0000
,  // measure 16
0010
0000
0010
0000
,  // measure 17
0010
0000
0000
0000
,  // measure 18
1000
0000
1000
0000
,  // measure 19
1001
0000
0000
0000
,  // measure 20
0000
0000
0000
0000
,  // measure 21
0000
0000
0000
0000
,  // measure 22
0000
0000
0000
0000
,  // measure 23
0010
0000
0000
0000
,  // measure 24
0010
0000
0000
0000
,  // measure 25
0010
0000
0010
0000
,  // measure 26
0010
0000
0000
0000
,  // measure 27
1000
0000
0000
0000
,  // measure 28
0001
0000
0000
0000
,  // measure 29
0001
0000
0000
0000
,  // measure 30
0100
0000
0000
0000
,  // measure 31
0010
0000
0000
0000
,  // measure 32
1000
0000
0000
0000
,  // measure 33
1000
0000
0000
0000
,  // measure 34
0001
0000
0000
0000
,  // measure 35
0100
0100
0000
0000
,  // measure 36
0010
0000
0000
0000
,  // measure 37
1000
0000
0000
0000
,  // measure 38
0001
0000
0000
0000
,  // measure 39
1000
0000
0000
0000
,  // measure 40
0010
0000
0000
0000
,  // measure 41
0100
0000
0000
0000
,  // measure 42
0010
0000
0000
0000
,  // measure 43
1000
0000
0000
0000
,  // measure 44
1000
0000
0000
0000
,  // measure 45
1000
0000
0000
0000
,  // measure 46
0001
0000
0001
0000
,  // measure 47
0001
0000
0000
0000
,  // measure 48
0100
0000
0000
0000
,  // measure 49
0100
0000
0000
0000
,  // measure 50
0010
0000
0000
0000
,  // measure 51
0010
0000
0000
0010
,  // measure 52
0010
0000
0000
1000
,  // measure 53
1000
0000
0000
0001
,  // measure 54
0001
0000
0000
0000
,  // measure 55
0100
0000
0000
0000
,  // measure 56
0100
0000
0000
0000
,  // measure 57
0110
0000
0000
0000
,  // measure 58
1001
0000
0000
0000
,  // measure 59
1000
0000
0000
0000
,  // measure 60
0001
0000
0000
0000
,  // measure 61
0100
0000
0000
0000
,  // measure 62
0010
0000
0000
0000
,  // measure 63
0010
0000
0000
0000
,  // measure 64
1000
0000
0000
0000
,  // measure 65
0001
0000
0000
0000
,  // measure 66
1000
0000
1000
0000
,  // measure 67
1001
0000
0001
0000
,  // measure 68
0001
0000
0001
0000
,  // measure 69
0001
0000
0001
0000
,  // measure 70
0001
0000
0001
0000
,  // measure 71
1000
0000
0000
0000
,  // measure 72
0010
0000
0000
0000
,  // measure 73
0100
0000
0010
0000
,  // measure 74
1000
0001
0100
0010
,  // measure 75
1001
0000
0000
0000
,  // measure 76
0100
0000
0000
0000
,  // measure 77
0100
0000
0000
0000
,  // measure 78
0100
0000
0100
0000
,  // measure 79
0100
0100
0100
0100
,  // measure 80
0000
1000
1000
0000
,  // measure 81
0000
1000
0000
0000
,  // measure 82
0001
0001
0000
0000
,  // measure 83
0000
0100
0000
0000
,  // measure 84
0010
0010
0000
0000
,  // measure 85
0000
1000
0000
0000
,  // measure 86
0001
0001
0000
0000
,  // measure 87
0000
1000
0000
0000
,  // measure 88
0000
0010
0010
0000
,  // measure 89
0000
0000
0000
0000
,  // measure 90
0100
0100
0000
0000
,  // measure 91
0000
1000
0000
0000
,  // measure 92
1000
1000
0000
0000
,  // measure 93
0000
0000
0000
0001
,  // measure 94
0000
0100
0000
0000
,  // measure 95
0000
0010
0000
1000
,  // measure 96
0000
1001
0000
0000
;
