#TITLE:SOLID STATE SQUAD;
#SUBTITLE:;
#ARTIST:kors k Vs. L.E.D.;
#TITLETRANSLIT:;
#SUBTITLETRANSLIT:;
#ARTISTTRANSLIT:;
#CREDIT:;
#BANNER:bn.bmp;
#BACKGROUND:bg.bmp;
#LYRICSPATH:;
#CDTITLE:Type MARS.png;
#MUSIC:Solid State Squad.mp3;
#OFFSET:-12.580;
#SAMPLESTART:102.280;
#SAMPLELENGTH:24.780;
#SELECTABLE:YES;
#BPMS:0.000=155.000,104.000=77.500,120.000=155.000,184.000=310.000,256.000=155.000,304.000=310.000;
#STOPS:;
#BGCHANGES:;

//---------------dance-single - ----------------
#NOTES:
     dance-single:
     :
     Hard:
     7:
     0.423,0.585,0.393,0.272,0.064: // measure 1
0000
0000
0000
0000
,  // measure 2
1001
0110
1100
0011
,  // measure 3
0101
1010
1002
0103
,  // measure 4
1100
0011
0110
1010
,  // measure 5
1001
1100
0012
0013
,  // measure 6
1000
0000
0100
0000
0010
0002
0000
0010
,  // measure 7
0000
0100
0000
0010
0000
0103
0000
0001
,  // measure 8
0010
0000
0100
0000
1000
0200
0000
1000
,  // measure 9
0000
1000
0000
1000
0000
1000
0000
1300
,  // measure 10
0100
0000
0010
0000
0001
0200
0000
0010
,  // measure 11
0000
1000
0000
0010
0000
0001
0000
0310
,  // measure 12
1000
0010
1000
0001
0100
0001
0000
0200
,  // measure 13
0000
1000
0000
1000
0000
1000
0300
1000
,  // measure 14
0100
0010
0001
0010
0001
0020
0000
0001
,  // measure 15
0000
0001
0000
0001
0000
0001
0000
0031
,  // measure 16
0010
0100
1000
0100
0010
0001
0010
1000
,  // measure 17
0001
0000
0000
0000
1000
0000
0100
0000
0020
0000
0000
0031
0000
0000
0000
0000
,  // measure 18
1100
0000
0010
0000
,  // measure 19
0101
0000
0100
0000
,  // measure 20
0110
0100
1100
1000
,  // measure 21
1100
0100
0110
0010
,  // measure 22
0011
1100
0110
1001
,  // measure 23
1010
0101
1100
0011
,  // measure 24
1000
0100
0010
0001
0010
0100
1000
0100
,  // measure 25
0010
1000
0001
0100
1000
0100
0010
0001
,  // measure 26
1000
0000
0000
0000
,  // measure 27
1001
0000
0001
2000
0000
0000
0000
0000
3000
0000
0000
0000
1000
0100
0010
0002
,  // measure 28
0000
0000
0000
0000
0000
0000
0010
0010
0000
0020
0000
0000
0033
0000
0000
0000
,  // measure 29
0000
0000
0001
0000
0100
1000
0000
0100
0000
0000
0000
0000
0000
0010
0000
0001
,  // measure 30
0010
0000
0000
1000
0000
0000
0000
0000
0000
0000
0000
0000
0000
0000
1000
0000
0000
0000
0100
0000
0000
0000
0010
0000
0000
0000
0001
0000
0000
0000
0010
0000
,  // measure 31
0100
0010
0100
1000
0100
0010
0011
0000
,  // measure 32
0001
0100
0001
0100
0010
1000
0010
0000
,  // measure 33
1000
0100
0010
0001
0010
0000
0002
0020
,  // measure 34
0000
0000
0000
0033
0000
0200
0000
0000
,  // measure 35
0000
1300
0000
0000
0000
0000
0000
0000
,  // measure 36
2000
0000
0000
0100
0000
0000
0020
0000
,  // measure 37
0000
0000
0000
0000
3030
0000
0000
0002
,  // measure 38
0000
0000
0000
0000
0103
0001
0100
0001
,  // measure 39
0100
0010
0000
0100
0000
1000
0000
0100
,  // measure 40
0000
0010
0000
0001
0000
0100
0000
1100
,  // measure 41
0000
0011
0000
0100
0000
1000
0000
0100
,  // measure 42
0000
0010
0000
0001
0000
0100
0000
1000
,  // measure 43
0000
0110
0000
0010
0000
0100
0000
1000
,  // measure 44
0000
0100
0000
0010
0000
0001
0000
0011
,  // measure 45
0000
1100
0000
0010
0000
0100
0000
1000
,  // measure 46
2002
0000
0000
3003
,  // measure 47
1000
0000
0100
0000
,  // measure 48
1000
0100
1000
0000
,  // measure 49
0001
0000
0101
0000
,  // measure 50
0010
0001
0010
0000
,  // measure 51
0110
0000
0100
0000
,  // measure 52
1000
0100
0010
0000
,  // measure 53
0001
0010
0100
0000
,  // measure 54
1000
0100
0010
0000
,  // measure 55
1001
0000
0010
1000
,  // measure 56
1010
0000
0001
0100
,  // measure 57
0101
0000
1000
0100
,  // measure 58
1100
0000
0010
0100
,  // measure 59
0110
0000
1001
0000
,  // measure 60
1100
0000
0011
0000
,  // measure 61
2000
0000
3200
0000
,  // measure 62
0320
0000
0032
0000
,  // measure 63
0003
0000
0000
0000
,  // measure 64
0000
0000
0000
0000
,  // measure 65
1002
0000
1000
2000
0000
0000
0000
0000
,  // measure 66
0000
0000
3003
0000
0010
0100
0010
2000
,  // measure 67
0000
0000
0000
0000
0000
0000
0100
0100
,  // measure 68
0000
0200
0000
0000
0000
0000
3300
0000
,  // measure 69
0000
0000
0011
0000
0001
0200
0000
0002
,  // measure 70
0000
0000
0000
0303
0000
0001
0000
1000
,  // measure 71
0200
0000
0000
2000
0000
0000
0000
0000
0000
0000
3300
0000
0000
0000
1010
0000
,  // measure 72
0000
0101
0000
1100
0000
0101
0000
0100
,  // measure 73
0001
0000
2000
0200
0000
0000
0000
0000
,  // measure 74
0000
0000
3300
0000
0010
0001
0001
0000
,  // measure 75
0001
0100
0001
1000
0010
0000
1000
0200
,  // measure 76
0000
0000
0000
0000
0000
1300
0000
0100
,  // measure 77
1000
0100
0010
0001
,  // measure 78
0010
0100
1000
0100
,  // measure 79
0001
1000
0001
1000
,  // measure 80
0010
1000
0001
1000
,  // measure 81
0010
1000
0010
0001
,  // measure 82
0010
0100
1000
0001
,  // measure 83
2000
0000
0000
0000
,  // measure 84
0000
0000
0000
0000
,  // measure 85
0002
0000
0000
0000
,  // measure 86
0000
0000
0000
0000
,  // measure 87
3003
0000
0000
0000
;

//---------------dance-single - ----------------
#NOTES:
     dance-single:
     :
     Medium:
     6:
     0.311,0.423,0.166,0.340,0.000: // measure 1
0000
0000
0000
0000
,  // measure 2
0001
1000
0100
0010
,  // measure 3
0001
1000
0200
2300
,  // measure 4
3010
0001
1000
0100
,  // measure 5
0010
0001
0100
1000
,  // measure 6
0100
1000
0010
0100
,  // measure 7
0001
0010
0100
1000
,  // measure 8
0100
0010
0100
0001
,  // measure 9
1000
0100
0010
0001
,  // measure 10
1001
0010
0100
1000
,  // measure 11
0010
0001
0010
0100
,  // measure 12
1000
0100
0001
0010
,  // measure 13
0001
0010
0100
1000
,  // measure 14
1010
0001
0100
1000
,  // measure 15
0100
0001
0010
0001
,  // measure 16
0100
1000
0001
0010
,  // measure 17
2000
3200
0320
0032
,  // measure 18
0203
0000
2300
0000
,  // measure 19
3020
0000
0032
0000
,  // measure 20
2003
0000
3200
0000
,  // measure 21
0320
0000
0032
0000
,  // measure 22
1003
0001
0100
0010
,  // measure 23
1000
0100
0010
0001
,  // measure 24
1000
0100
0010
0001
0010
0100
1000
0100
,  // measure 25
0010
0001
0010
0100
1000
0100
0010
0001
,  // measure 26
0020
0000
0000
0000
,  // measure 27
2030
3000
0000
0020
,  // measure 28
0000
0000
0000
0200
0000
0330
0000
0000
,  // measure 29
0000
0002
0000
0000
0000
0000
0000
0000
,  // measure 30
2000
0000
3003
0000
,  // measure 31
1000
0000
0100
0000
0010
1000
0001
0000
,  // measure 32
0100
0000
1000
0100
0000
0010
0001
0000
,  // measure 33
0001
0000
0100
1000
0010
0000
0001
0000
,  // measure 34
0001
0000
0100
1000
0010
0000
1100
0000
,  // measure 35
0010
0000
1000
0001
0100
0000
1000
0000
,  // measure 36
0010
0000
0100
1000
0001
0000
0010
0000
,  // measure 37
0001
0000
0010
0100
1000
0000
0010
0000
,  // measure 38
2002
0000
0000
3003
,  // measure 39
1100
0000
0000
0000
,  // measure 40
0000
0000
0000
0000
0000
0000
0000
0011
,  // measure 41
0000
0011
0000
0000
0000
0000
0000
0000
,  // measure 42
0000
0000
0000
0000
,  // measure 43
0000
1100
0000
0000
,  // measure 44
0000
0000
0000
0000
0000
0000
0000
0110
,  // measure 45
0000
1100
0000
0000
0000
0000
0000
0000
,  // measure 46
0202
0000
0000
0303
,  // measure 47
1000
0000
0100
0000
,  // measure 48
0010
0100
0001
0000
,  // measure 49
1000
0000
0100
0000
,  // measure 50
0010
1000
0001
0000
,  // measure 51
1100
0000
0010
1000
,  // measure 52
0001
0000
0100
0000
,  // measure 53
1100
0000
0010
1000
,  // measure 54
0001
0000
0100
0000
,  // measure 55
1100
0000
0010
0000
,  // measure 56
0011
0000
0001
0000
,  // measure 57
0101
0000
0010
0000
,  // measure 58
0110
0000
1000
0000
,  // measure 59
1100
0000
0110
0000
,  // measure 60
0011
0000
0110
0000
,  // measure 61
0002
0003
2000
3000
,  // measure 62
0200
0300
0020
0030
,  // measure 63
2002
0000
0000
0000
,  // measure 64
0000
0000
3003
0000
,  // measure 65
1000
0000
0100
2000
0000
0000
0000
0000
,  // measure 66
0000
0000
0000
0000
3100
0000
0010
0002
,  // measure 67
0000
0000
0000
0000
0000
0000
0013
0100
,  // measure 68
0000
0200
0000
0000
0000
0000
0000
0000
,  // measure 69
0300
0000
1000
0000
0100
1000
0000
0020
,  // measure 70
0000
0000
0000
0000
0000
0031
0000
0000
,  // measure 71
0200
0000
0000
0000
0000
0000
0000
1000
,  // measure 72
0000
1000
0000
1000
0000
1000
0000
1300
,  // measure 73
0100
0000
0020
0002
0000
0000
0000
0000
,  // measure 74
0000
0000
0033
0000
0001
0100
0001
0000
,  // measure 75
1000
0100
0010
0000
0001
0000
0100
2000
,  // measure 76
0000
0020
0000
0000
0000
0000
3030
0000
,  // measure 77
0000
0002
0000
0000
,  // measure 78
0000
0000
0000
0000
,  // measure 79
2003
0000
0000
3200
,  // measure 80
0000
0000
0320
0000
,  // measure 81
0000
0000
0000
0000
,  // measure 82
0000
0000
0000
0032
,  // measure 83
0000
0000
0000
0000
,  // measure 84
0000
0000
0000
0000
,  // measure 85
2000
0000
0000
0000
,  // measure 86
0000
0000
0000
0000
,  // measure 87
3003
0000
0000
0000
;

//---------------dance-single - ----------------
#NOTES:
     dance-single:
     :
     Easy:
     5:
     0.278,0.381,0.136,0.250,0.000: // measure 1
0000
0000
0000
0000
,  // measure 2
1000
1000
1000
1000
,  // measure 3
1000
1000
2000
3200
,  // measure 4
0310
0010
0010
0010
,  // measure 5
0010
0010
0020
0032
,  // measure 6
0103
0001
0001
0100
,  // measure 7
0010
0010
0100
1000
,  // measure 8
0010
0100
1000
0100
,  // measure 9
0001
0010
1000
0200
,  // measure 10
0310
1000
0100
0001
,  // measure 11
0100
1000
0100
0001
,  // measure 12
0010
1000
0010
0001
,  // measure 13
0010
1000
0100
0001
,  // measure 14
1000
0001
0100
0010
,  // measure 15
1000
0100
0010
0001
,  // measure 16
0100
0100
0100
0100
,  // measure 17
0220
0000
0000
0330
,  // measure 18
2000
3000
0002
0003
,  // measure 19
0020
0030
0200
0300
,  // measure 20
0110
0000
1001
0000
,  // measure 21
1010
0000
0110
0000
,  // measure 22
0001
1000
0100
0010
,  // measure 23
0001
1000
0100
0010
,  // measure 24
1000
1000
0001
0001
,  // measure 25
0100
0100
0010
0010
,  // measure 26
1001
0000
0000
0000
,  // measure 27
2200
0000
0000
0000
0000
0300
0200
0000
,  // measure 28
0000
0300
0020
0000
,  // measure 29
3030
0000
0000
0000
,  // measure 30
0002
0000
0000
2000
0000
0000
0000
3003
,  // measure 31
0010
0100
2000
3100
,  // measure 32
0010
1000
0002
0013
,  // measure 33
0100
1000
0020
0130
,  // measure 34
1000
0100
0002
0010
,  // measure 35
0013
0100
2000
3100
,  // measure 36
0010
0100
2000
3010
,  // measure 37
0100
1000
0002
0013
,  // measure 38
2002
0000
0000
3003
,  // measure 39
0000
1000
0000
0000
0000
0000
0000
0000
,  // measure 40
0000
0000
0000
0000
0000
0000
0000
0001
,  // measure 41
0000
0100
0000
0000
0000
0000
0000
0000
,  // measure 42
0000
0000
0000
0000
,  // measure 43
0000
0010
0000
0000
,  // measure 44
0000
0000
0000
0000
0000
0000
0000
1000
,  // measure 45
0000
0100
0000
0000
0000
0000
0000
0000
,  // measure 46
0022
0000
0000
0033
,  // measure 47
1000
0000
0000
0000
,  // measure 48
0001
0000
0000
0000
,  // measure 49
0010
0000
0000
0000
,  // measure 50
0100
0000
0000
0000
,  // measure 51
1000
0000
0000
0000
,  // measure 52
0010
0000
0000
0000
,  // measure 53
0100
0000
0000
0000
,  // measure 54
0001
0000
0000
0000
,  // measure 55
1000
0000
0000
0000
,  // measure 56
0001
0000
0000
0000
,  // measure 57
0010
0000
0000
0000
,  // measure 58
0100
0000
0000
0000
,  // measure 59
1000
0000
0100
0000
,  // measure 60
0010
0000
0001
0000
,  // measure 61
1001
0000
1001
0000
,  // measure 62
1001
0000
1001
0000
,  // measure 63
2002
0000
0000
0000
,  // measure 64
0000
0000
3003
0000
,  // measure 65
0010
0001
1000
0100
,  // measure 66
0001
0010
1000
0001
,  // measure 67
0100
0010
1000
0100
,  // measure 68
0010
0001
1000
0001
,  // measure 69
0100
0010
1000
0100
,  // measure 70
0001
1000
0010
1000
,  // measure 71
0001
0100
0010
1000
,  // measure 72
0001
0100
0010
1000
,  // measure 73
0001
2200
0000
0000
,  // measure 74
0000
3300
0010
1000
,  // measure 75
1100
1100
1100
0001
,  // measure 76
0010
1000
0001
0100
,  // measure 77
1000
0000
0001
0000
,  // measure 78
1000
0000
0100
0000
,  // measure 79
0010
0000
0001
0000
,  // measure 80
1000
0000
0100
0000
,  // measure 81
0010
0000
0001
0000
,  // measure 82
0100
0000
1000
0000
,  // measure 83
0002
0000
0000
0000
,  // measure 84
0000
0000
0000
0000
,  // measure 85
1003
0000
0000
0000
;

//---------------dance-single - ----------------
#NOTES:
     dance-single:
     :
     Beginner:
     2:
     0.075,0.191,0.038,0.000,0.000: // measure 1
0000
0000
0000
0000
,  // measure 2
0001
0000
0000
0000
,  // measure 3
0000
0000
0000
0000
,  // measure 4
1000
0000
0000
0000
,  // measure 5
0000
0000
0000
0000
,  // measure 6
0010
0000
0000
0000
,  // measure 7
0000
0000
0000
0000
,  // measure 8
0100
0000
0000
0000
,  // measure 9
0000
0000
0000
0000
,  // measure 10
1000
0000
0000
0000
,  // measure 11
0000
0000
0000
0000
,  // measure 12
0001
0000
0000
0000
,  // measure 13
0000
0000
0000
0000
,  // measure 14
0010
0000
0000
0000
,  // measure 15
0000
0000
0000
0000
,  // measure 16
0100
0000
0100
0000
,  // measure 17
0110
0000
0000
0000
,  // measure 18
1000
0000
0000
0000
,  // measure 19
0001
0000
0000
0000
,  // measure 20
1000
0000
0001
0000
,  // measure 21
1000
0000
0001
0000
,  // measure 22
0100
0000
0010
0000
,  // measure 23
0100
0000
0010
0000
,  // measure 24
0110
0000
0000
0000
,  // measure 25
1000
0000
0000
0000
,  // measure 26
0000
0000
0000
0000
,  // measure 27
0001
0000
0000
0000
,  // measure 28
0000
0000
0000
0000
,  // measure 29
0000
0000
0000
0000
,  // measure 30
0000
0000
0000
0000
,  // measure 31
1000
0000
0000
0000
,  // measure 32
0001
0000
0000
0000
,  // measure 33
0001
0000
0000
0000
,  // measure 34
0100
0000
0000
0010
,  // measure 35
0010
0000
0000
0000
,  // measure 36
0100
0000
0000
0000
,  // measure 37
1000
0000
0000
0000
,  // measure 38
1001
0000
0000
0000
,  // measure 39
0100
0000
0000
0000
,  // measure 40
0000
0000
0000
0000
,  // measure 41
0000
0000
0000
0000
,  // measure 42
0000
0000
0000
0000
,  // measure 43
0000
1000
0000
0000
,  // measure 44
0000
0000
0000
0000
,  // measure 45
0000
0000
0000
0000
,  // measure 46
0010
0000
0000
0000
,  // measure 47
0100
0000
0000
0000
,  // measure 48
0000
0000
0000
0000
,  // measure 49
1000
0000
0000
0000
,  // measure 50
0000
0000
0000
0000
,  // measure 51
0001
0000
0000
0000
,  // measure 52
0000
0000
0000
0000
,  // measure 53
0010
0000
0000
0000
,  // measure 54
0000
0000
0000
0000
,  // measure 55
0100
0000
0000
0000
,  // measure 56
0100
0000
0000
0000
,  // measure 57
0100
0000
0000
0000
,  // measure 58
0100
0000
0000
0000
,  // measure 59
0001
0000
1000
0000
,  // measure 60
0001
0000
1000
0000
,  // measure 61
0001
0000
0001
0000
,  // measure 62
1000
0000
1000
0000
,  // measure 63
1001
0000
0000
0000
,  // measure 64
0000
0000
0000
0000
,  // measure 65
0110
0000
0000
0000
,  // measure 66
0000
0000
1000
0000
,  // measure 67
0000
0000
0000
0000
,  // measure 68
0000
0000
0000
0000
,  // measure 69
0000
0001
0000
0000
,  // measure 70
0000
0000
0000
0000
,  // measure 71
0010
0000
0000
0000
,  // measure 72
0000
0000
0000
0000
,  // measure 73
0100
0000
0000
0000
,  // measure 74
0000
0000
0000
0000
,  // measure 75
1000
0000
0000
0000
,  // measure 76
0000
0000
0000
0000
,  // measure 77
0001
0000
0000
0000
,  // measure 78
0000
0000
0000
0000
,  // measure 79
1000
0000
0000
0001
,  // measure 80
0000
0000
1000
0000
,  // measure 81
0000
0000
0000
0000
,  // measure 82
0000
0000
0000
0010
,  // measure 83
0000
0000
0000
0000
,  // measure 84
0000
0000
0000
0000
,  // measure 85
1000
0000
0000
0000
;
