#TITLE:SNATCHER;
#SUBTITLE:(Dual Vaccum Mix);
#ARTIST:FinalOffset;
#TITLETRANSLIT:;
#SUBTITLETRANSLIT:;
#ARTISTTRANSLIT:;
#CREDIT:;
#BANNER:bn.PNG;
#BACKGROUND:bg.PNG;
#LYRICSPATH:;
#CDTITLE:beatmania CLUB.png;
#MUSIC:SNATCHER (Dual Vacuum Mix).mp3;
#OFFSET:-5.119;
#SAMPLESTART:23.240;
#SAMPLELENGTH:12.500;
#SELECTABLE:YES;
#BPMS:0.000=105.760;
#STOPS:;
#BGCHANGES:;

//---------------dance-single - ----------------
#NOTES:
     dance-single:
     :
     Medium:
     5:
     0.347,0.345,0.192,0.168,0.036:
0001
1000
0000
1000
0001
0000
1001
0000
,
0010
0100
0000
0100
0010
0000
0110
0000
,
0010
1000
0000
0001
0100
0000
1010
0000
,
1001
0000
0000
1100
0000
0000
1001
0000
,
0001
0100
0000
0010
1000
0000
1100
0000
,
1000
0100
0000
0010
1000
0000
0011
0000
,
0001
0100
0000
0010
1000
0000
1001
0000
,
0001
1000
0001
0100
,
0010
1000
0010
0100
0010
1000
0001
2000
,
0000
3002
0000
2003
0000
3002
0000
2003
,
3001
1000
0001
0100
0010
1000
0010
1000
,
0010
0000
0000
1010
0000
0000
0101
0000
,
1000
0001
0100
0001
0010
1000
0100
1000
,
0000
1000
0000
0001
0000
0001
0000
0001
,
0100
0010
1000
0100
0010
0001
0010
0100
,
2000
0000
0000
0001
0000
0000
3001
1000
,
0002
0000
0000
0103
,
0200
0000
0000
0301
,
2000
0000
3001
0000
0200
0000
0301
0010
,
0002
0000
0000
0000
0003
0000
1000
0001
,
2002
0000
0000
0000
3003
0000
0001
1000
,
0200
0000
0000
0000
0300
0000
1000
0001
,
0100
0100
0010
0010
,
1000
0010
0000
0001
0100
0000
1001
0000
,
1000
0001
1000
0001
1000
0001
1001
0000
,
0001
0100
0001
0100
0001
0100
0101
0000
,
0010
1000
0010
1000
0010
1000
1010
0000
,
1000
0000
0000
1000
0000
0000
0001
0000
0000
0001
0000
0000
0001
0000
0100
0000
,
0010
0100
0010
1000
0001
1000
0001
0010
,
0100
1000
0100
0010
0001
0010
0100
0001
,
1000
0010
1000
0001
0100
0010
1000
0100
,
1000
0100
0000
0001
0100
0000
0010
0100
0000
0010
1000
0000
0001
0000
0100
0000
;

//---------------dance-single - ----------------
#NOTES:
     dance-single:
     :
     Easy:
     3:
     0.228,0.268,0.252,0.000,0.000:
0001
0000
0001
1001
,
1000
0000
1000
1001
,
0001
0000
0001
1001
,
0110
0000
0000
0010
,
0110
0000
0100
0110
,
0010
0000
0010
0110
,
0100
0000
0010
0110
,
0100
0000
0000
0000
,
0001
1000
0001
0100
,
0010
0100
0100
0010
,
0010
1000
0001
0100
,
0001
0000
0000
0011
0000
0000
1100
0000
,
1001
0001
1000
0001
,
0100
0010
1000
0010
,
0100
0010
1000
0001
,
1000
0000
0000
0000
0001
0000
1000
0001
,
0100
0000
0000
0000
0000
0000
0010
1000
,
0001
0000
0000
0000
0000
0000
1000
0100
,
1000
0000
1000
0000
0001
0000
0001
0100
,
0010
0000
0000
0000
0000
0000
0010
0100
,
0110
0000
0000
0000
0000
0000
1000
0001
,
0100
0000
0000
0000
0000
0000
0010
1000
,
0100
0100
1000
1000
,
1100
0000
0000
0010
0000
0000
0001
0000
,
0100
0010
1000
1010
,
0010
0100
0001
0101
,
0001
1000
0010
0110
,
0010
1000
0100
0010
,
0011
0001
0010
0110
,
1100
1000
0100
0110
,
1001
0001
0100
0010
,
1000
0001
0000
0100
0000
0010
0000
1000
;

//---------------dance-single - ----------------
#NOTES:
     dance-single:
     :
     Hard:
     9:
     0.608,0.656,0.313,0.289,0.667:
0010
1000
0010
0100
0000
0000
0001
0100
0001
0010
0000
0000
0101
0000
0000
0000
,
0010
0100
0010
1000
0000
0000
0001
1000
0001
0100
0000
0000
1100
0000
0000
0000
,
0010
1000
0001
0010
0000
0000
0100
1000
0100
0010
0000
0000
0011
0000
0000
0000
,
0021
1000
0030
0012
0100
0003
1001
0000
,
0010
1000
0001
0001
0000
0000
0100
1000
0100
0100
0000
0000
0011
0000
0000
0000
,
0001
0100
0010
0010
0000
0000
1000
0100
0010
0010
0000
0000
0110
0000
0000
0000
,
1000
0001
0010
0010
0000
0000
0010
0100
1000
1000
0000
0000
0011
0000
0000
0000
,
0010
0000
0010
0100
0000
1000
0100
0000
0010
0001
0000
0010
0100
0000
0010
0000
,
1000
0100
0010
1000
0100
0000
1000
0000
0100
0000
1000
0000
0010
0100
0010
0100
,
0001
2000
0000
3200
0000
0310
0110
1000
,
0001
0100
0001
0100
0010
0000
1000
0000
0100
0000
0010
0000
0001
1000
0010
1000
,
0001
0010
0100
1100
0010
0001
0011
1000
,
1000
0100
0010
0001
0010
0000
0100
0000
1000
0000
0010
0000
0001
0100
0001
1000
,
0100
0200
1000
2300
0001
3001
0012
0010
,
1003
0001
0010
0100
1000
0000
0100
0000
1000
0000
0100
0000
0010
0000
0001
0000
,
1010
0000
0000
0101
0000
1000
0100
0010
,
0001
0000
0000
0000
0001
0200
0000
0020
0000
0000
0330
0000
1000
0000
0100
0000
,
0020
0000
0000
0000
0031
0020
0000
0200
0000
0000
0330
0000
0100
0000
1000
0000
,
2100
0000
3020
0000
0230
0000
0310
1000
,
2002
0000
0000
0000
3003
0000
0100
1000
,
1200
0000
0000
0000
1300
2000
0000
0002
0000
0000
3003
0000
0010
0000
0100
0000
,
1020
0000
0000
0000
0130
0200
0000
0002
0000
0000
0303
0000
0100
0000
0001
0000
,
1001
0110
1010
0101
,
0010
0100
0010
1000
0000
0000
0010
1000
0010
0100
0000
0000
0101
0000
0000
0000
,
0010
1000
0100
0010
1000
0001
0100
0001
1000
0010
0100
0001
1000
0100
0010
1000
,
0001
1000
0100
0010
0100
0001
0010
0100
0010
1000
0001
1000
0010
1000
0100
0010
,
0001
0010
0100
1000
0010
1000
0001
0010
0100
0001
1000
0001
0010
0100
0001
1000
,
0010
0000
0010
0010
0000
1000
1000
0000
0001
0001
0000
0000
1010
0000
0101
0000
,
0010
1000
0001
1000
0100
0010
0100
1000
0010
0001
0100
0001
1000
0001
0010
0100
,
1000
0100
1000
0100
0010
0001
1000
0100
0001
0010
0001
1000
0100
0010
0001
0010
,
0001
0100
0010
1000
0100
1000
0001
0010
0001
0100
1000
0001
0010
0001
1000
0001
,
1000
0100
0000
0010
0100
0000
0001
1000
0000
0010
0100
0000
0010
1000
0001
0200
,
0000
0000
0000
0000
,
0000
0300
0000
0000
0000
0000
0000
0000
0000
0000
0000
0000
0000
0000
0000
0000
;

//---------------dance-single - GY2009----------------
#NOTES:
     dance-single:
     GY2009:
     Challenge:
     9:
     0.622,0.695,0.301,0.216,0.751:
1000
0000
0010
0100
0010
0000
0001
1000
0001
0000
0000
0000
1010
0000
0000
0000
,
0001
0100
0001
0000
0000
0000
1000
0010
1000
0000
0000
0000
0101
0000
0000
0000
,
0010
0100
0010
0000
0000
0000
1000
0010
1000
0000
0000
0000
0101
0000
0000
0000
,
0010
1000
0010
0000
0000
0000
0100
0010
0100
0000
0000
0000
1001
0000
1001
0000
,
0010
0100
0010
0100
0000
0000
1000
0001
1000
0001
0000
0000
1010
0000
0000
0000
,
1000
0010
0100
0001
0000
0000
0001
1000
0010
0100
0000
0000
1001
0000
0000
0000
,
0010
0100
0001
1000
0000
0000
1000
0010
0100
0001
0000
0000
1001
0000
0000
0000
,
0010
1000
0000
0001
0100
0000
0001
1000
0000
0010
0100
0000
0010
1000
0010
0100
,
0001
1000
0001
0100
0010
0000
1000
0000
0100
0000
0010
0000
1000
0010
0100
0001
,
1000
0002
0000
0100
0000
1000
0000
0013
,
1000
0010
0100
0001
1000
0000
0001
0000
0001
0000
2000
0000
0000
0000
0010
0000
,
0000
0001
0000
0010
0000
3100
0000
1001
,
0010
0100
0001
1000
0001
1000
0000
0010
1000
0000
0010
1000
0010
0000
0100
0000
,
0001
1000
0001
1000
0001
0100
0010
1000
0000
0100
0010
0000
0001
0000
1000
0000
,
0001
0100
0001
0000
0001
0000
0100
0000
0010
0000
1000
0000
0000
0000
0000
0000
,
0010
0100
0000
0001
0000
1000
0010
0100
,
0020
0000
0000
0000
0100
0100
0000
0100
0000
0000
0030
0000
0100
0000
0001
0000
,
0120
0000
0000
0000
1000
1000
0000
1000
0000
0000
0000
0030
1000
0100
1000
0100
,
2000
0000
0000
0000
3010
0000
0010
0000
0200
0000
0000
0000
0002
0300
0000
0000
,
2000
0003
0000
0000
0000
0000
0000
0000
0000
3000
0000
0000
0010
0000
0100
0000
,
1001
0000
1000
0001
0010
0000
0100
0000
1000
0000
0000
0000
1000
0000
0100
0000
,
0010
0000
0001
0000
0001
0100
0000
0001
0000
0000
0000
0000
1000
0000
0010
0000
,
2100
3100
0012
0013
2001
3001
1002
1003
,
2002
0000
0000
0000
3003
0000
0220
0000
0000
0000
0330
0000
2002
0000
0000
3003
,
0100
0001
1000
0010
1000
0010
0100
0001
1000
0001
0100
0010
1000
0010
0100
0001
,
0001
0010
0001
0100
0010
1000
0010
1000
0001
0010
0001
1000
0010
0001
0100
0001
,
1000
0010
0100
0010
1000
0010
0100
0001
0010
0001
0100
0001
1000
0001
0100
0100
,
1001
0010
0000
1001
0100
0000
1001
0100
0000
1001
0010
0000
1001
0100
1001
0000
,
1010
1000
0000
0100
0010
1000
0001
0100
0001
1000
0001
0100
0010
1000
0001
0010
,
0001
0100
1000
0010
0100
0010
0010
0100
0001
1000
0010
0010
0100
0010
1000
0001
,
0100
0001
0010
0001
0100
0010
1000
0010
0100
0010
0100
1000
0001
1000
0010
0010
,
1000
0001
0100
0010
1000
0010
0100
0001
0010
0001
0100
0001
1000
0100
0000
0000
,
0100
0000
0000
1000
0000
0000
0000
0010
0000
0000
0000
0000
0100
0000
0000
0000
0000
0010
0000
0000
0000
0000
1000
0000
0000
0000
0000
0010
0000
0000
0000
0100
0000
0000
0000
0000
0000
0010
0000
0000
0000
0000
1000
0000
0000
0000
0010
0000
0000
0000
0000
0000
0100
0000
0000
0000
0010
0000
0000
0000
0000
0000
1000
0000
,
0000
0000
0000
0001
0000
0000
0000
0000
0000
0000
0000
0000
0000
0000
0000
0000
0000
0000
0000
0000
0000
0000
0000
0000
0000
0000
0000
0000
0000
0000
0000
0000
0000
0000
0000
0000
0000
0000
0000
0000
0000
0000
0000
0000
0000
0000
0000
0000
0000
0000
0000
0000
0000
0000
0000
0000
0000
0000
0000
0000
0000
0000
0000
0000
;

//---------------dance-single - ----------------
#NOTES:
     dance-single:
     :
     Beginner:
     1:
     0.067,0.093,0.048,0.000,0.000: // measure 1
0000
0000
0000
0010
,  // measure 2
0000
0000
0000
1000
,  // measure 3
0000
0000
0000
0001
,  // measure 4
1000
0000
0000
0010
,  // measure 5
0000
0000
0000
0100
,  // measure 6
0000
0000
0000
0010
,  // measure 7
0000
0000
0000
1000
,  // measure 8
0000
0000
0000
0000
,  // measure 9
0001
0000
0000
0000
,  // measure 10
1000
0000
0000
0000
,  // measure 11
0010
0000
0000
0000
,  // measure 12
0000
0000
0000
0000
,  // measure 13
0110
0000
0000
0000
,  // measure 14
0000
0000
0000
0000
,  // measure 15
0001
0000
0000
0000
,  // measure 16
1000
0000
0000
0001
,  // measure 17
0001
0000
0000
0000
,  // measure 18
1000
0000
0000
0000
,  // measure 19
0010
0000
0000
0000
,  // measure 20
0100
0000
0000
0000
,  // measure 21
0110
0000
0000
0000
,  // measure 22
0001
0000
0000
0000
,  // measure 23
1000
0000
0000
0000
,  // measure 24
0010
0000
0010
0000
,  // measure 25
0010
0000
0000
0100
,  // measure 26
0100
0000
0000
1000
,  // measure 27
1000
0000
0000
0001
,  // measure 28
1000
0000
0000
0000
,  // measure 29
0110
0000
0000
0000
,  // measure 30
0010
0000
0000
0000
,  // measure 31
1001
0000
0000
0000
,  // measure 32
0100
0000
0000
0000
;
