#TITLE:SHIFT;
#SUBTITLE:;
#ARTIST:AKIRA YAMAOKA;
#TITLETRANSLIT:;
#SUBTITLETRANSLIT:;
#ARTISTTRANSLIT:;
#CREDIT:;
#BANNER:bn.PNG;
#BACKGROUND:bg.PNG;
#LYRICSPATH:;
#CDTITLE:15 trooper.png;
#MUSIC:shift.mp3;
#OFFSET:0.220;
#SAMPLESTART:93.620;
#SAMPLELENGTH:12.000;
#SELECTABLE:YES;
#BPMS:0.000=130.000;
#STOPS:;
#BGCHANGES:;

//---------------dance-single - ----------------
#NOTES:
     dance-single:
     :
     Hard:
     7:
     0.432,0.451,0.215,0.268,0.081:
0000
0000
0000
0000
,
0000
0000
0000
0000
,
0000
0000
1000
0000
0001
0000
0100
1000
,
0100
0000
0001
0000
0100
0000
0001
0100
,
0001
0000
0010
0000
0001
0000
1000
0001
,
0100
0000
1000
0000
0010
0000
0001
0100
,
1000
0000
1001
0000
1000
0001
1000
0001
,
0100
0010
0002
0000
1003
0001
1000
0001
,
0100
0000
0001
0000
0200
0000
0000
0300
0001
0000
0100
0000
0001
0000
0010
0000
,
1000
0000
0010
0000
2000
0000
0000
0000
3100
0000
0001
0000
0000
0010
0000
0000
,
1001
0000
1000
0100
0010
0002
0000
0000
,
0003
0001
1000
0002
0000
1000
2000
0000
,
3003
0000
0010
1000
0010
2000
0000
0000
,
3000
1000
0100
0020
0000
0001
0002
0000
,
0033
0000
1000
0001
1000
0001
1000
0100
,
0001
0100
1000
0100
0001
0100
1000
0100
,
0001
0100
1000
0010
0001
0010
1000
0010
,
0001
0000
0000
0000
1000
0000
0000
1000
0000
0000
2000
0000
0000
0000
0000
0000
,
0000
0000
0000
3000
0001
0000
0000
0000
0101
0000
0000
0000
1000
0000
0000
0000
,
1100
0000
1000
0100
0000
0010
0002
0000
,
0003
0000
0001
0000
0101
0000
0010
1000
,
0010
0000
0000
0000
0100
0000
1000
0000
0000
0000
0200
2000
0000
0000
0000
0000
,
3300
0000
1000
0100
0010
0001
0010
0100
,
0001
0000
0010
1000
0010
1000
0001
0100
,
0010
0000
1002
0000
1003
0000
1000
0100
,
0010
0000
0001
0000
0011
0000
0001
0010
,
0100
0000
0000
0000
1000
0000
0000
0100
0000
0010
0000
0000
0001
0000
0010
0000
,
0200
0000
0000
0000
1300
0000
0000
0100
0000
1000
0000
0000
1000
0000
0100
0000
,
0020
0000
0000
0000
0031
0000
0000
0010
0000
0001
0000
0000
0010
0000
0100
0000
,
1000
0000
0000
1000
0000
0000
0000
0001
0000
0100
0000
0000
1000
0000
0100
0000
,
0010
0000
0011
0000
1000
0001
1000
0000
,
0000
1100
0000
0010
,
0000
0000
0001
0000
0010
0100
0010
0000
,
0100
2000
0000
0000
,
0000
0000
3100
0000
1000
0100
0010
0000
,
0001
0010
0001
0020
,
0130
0000
1000
0001
1000
0001
1000
0000
,
0010
0020
0000
0000
,
0130
0000
2000
0000
3100
1000
0100
0000
,
0010
0002
0010
0100
,
0013
0000
0001
0010
0100
1000
0200
0000
,
1300
1010
0010
0011
,
0001
0000
0000
0000
1000
0100
0000
0000
0010
0000
0001
0000
0010
0000
0000
0000
,
0100
2000
3010
0002
,
0103
0000
0001
0010
0100
1000
0100
0000
,
0010
0002
0000
0000
,
0003
0000
0000
0000
1100
0000
0000
0000
0000
0000
0000
0011
0000
0000
1100
0000
,
0000
0101
0101
0000
0000
0000
0010
0100
,
1000
0100
1100
0100
0000
0010
0011
0001
,
0000
0010
0110
0000
1001
0000
1000
0100
,
0010
0001
0010
0001
0010
0000
0100
0000
1000
0000
0100
0000
0000
0000
0000
0000
,
0000
1000
0100
0010
0000
0002
0020
0000
,
0033
0000
0001
0010
0100
1000
0000
0000
,
0000
0010
0100
1000
0000
2000
0200
0000
,
3300
0000
1000
0100
0010
0002
0000
0000
,
0003
0010
0100
0010
0000
0100
0000
1000
,
0000
0000
0001
1000
0001
1000
0000
0000
,
0000
0100
0010
0100
0000
0100
0000
1000
,
0000
0000
1100
0000
0011
0000
0000
1100
,
0000
0000
0000
0100
0000
0000
0000
0000
0000
0000
0000
0000
0000
0000
0101
0000
0000
0000
0000
0000
0000
0000
0000
0000
0000
0000
0000
0000
0000
0000
0000
0000
0000
0000
0000
0000
0000
0000
0000
0000
0000
0000
0000
0000
0000
0000
0000
0000
;

//---------------dance-single - ----------------
#NOTES:
     dance-single:
     :
     Medium:
     5:
     0.357,0.424,0.304,0.385,0.009:
0000
0000
0000
0000
,
0000
0000
0000
0000
,
0000
1000
0000
0000
,
0000
0001
0000
0000
,
0000
0010
0000
0000
,
0000
0100
0000
0000
,
0000
0000
1001
0000
0001
1000
0001
0000
,
0010
0000
0110
0000
0100
0000
1000
0100
,
1000
0000
0110
0000
0010
0000
0001
1000
,
0010
0100
1100
0000
0010
0000
0001
0100
,
1001
0000
0010
0100
0010
2000
0000
0000
,
0000
0000
0100
0100
0000
0100
0200
0000
,
0000
3300
0010
0001
0010
0002
0000
0000
,
0000
0010
0000
0020
,
0000
0033
0000
1001
0000
0110
0000
1010
,
0000
0001
0000
0100
0000
1000
0000
0100
,
0000
1000
0000
0010
0000
0100
0000
1000
,
0000
0001
2200
0000
0000
0000
0000
0000
,
3300
0000
0010
0100
0001
2000
0000
0000
,
0000
0100
0010
0002
,
3003
0000
0011
0000
1100
0000
0010
0100
,
0001
0000
1000
0100
0000
0020
0002
0000
,
0000
0033
0001
0000
0100
0000
1000
0100
,
0010
0000
0001
0000
1001
0000
0010
0100
,
1000
0010
0011
0100
,
1100
0000
0010
0100
0010
0000
1000
0000
,
0010
0002
0203
0320
,
2000
0030
3200
0000
0310
0000
1000
0000
,
1002
0103
1000
0100
,
0022
0030
0103
0000
1000
0000
0100
0010
,
1000
0000
1001
0000
0010
0100
0010
0000
,
2000
0000
0200
0000
0000
3000
0020
0000
,
0330
0000
0011
0000
0100
1000
1100
0000
,
0010
0002
0000
0000
,
0000
0000
0103
0000
0010
1000
0002
0000
,
0000
0203
0000
2300
,
0000
0000
3010
0000
0100
1000
0020
0000
,
0000
0200
0030
0002
,
0000
0303
1001
0000
0010
1000
0010
0000
,
0000
0200
0000
0000
,
0000
0000
0310
0000
1000
0100
0110
0000
,
0000
0002
0000
0000
,
0003
0000
0110
0000
0001
1000
0020
0000
,
0000
0200
0000
0000
,
0330
0000
1100
0000
0010
1000
0002
0000
,
0000
0200
0000
0000
,
0303
0000
0110
0000
0000
1000
0000
0100
,
0000
0010
0001
0000
0000
0000
0010
0000
,
0000
0000
1100
0000
0000
0010
0001
0000
,
0000
0001
0100
0000
1000
0000
0010
0100
,
0020
0000
0130
1000
0100
2000
0000
0000
,
0000
0000
3010
0100
0000
0002
2000
0000
,
3003
0000
0110
0010
0100
0010
0000
0000
,
0000
0001
1000
0100
0000
0010
0001
0000
,
0000
1001
0110
1010
,
0101
1100
0011
0220
,
0330
0000
0001
1000
0010
0200
0000
0000
,
0000
1300
0100
0020
0000
0031
0200
0000
,
0000
0000
0000
1300
0000
0000
1001
0000
0000
0000
0000
1000
,
0000
0000
0000
0001
0000
0000
0000
1000
0000
0000
0000
0000
0000
0000
0000
0000
0000
0000
0000
0000
0000
0000
0000
0000
;

//---------------dance-single - ----------------
#NOTES:
     dance-single:
     :
     Easy:
     3:
     0.260,0.372,0.268,0.367,0.000: // measure 1
0000
0000
0000
0000
,  // measure 2
0000
0000
0000
0000
,  // measure 3
0000
1000
0000
0000
,  // measure 4
0000
0100
0000
0000
,  // measure 5
0000
0010
0000
0000
,  // measure 6
0000
0002
0000
0000
,  // measure 7
0000
1003
0000
0100
,  // measure 8
0000
0022
0000
0000
,  // measure 9
0033
1100
0000
0001
,  // measure 10
0000
1001
0000
0000
,  // measure 11
0000
0100
1000
0000
,  // measure 12
0000
0001
0000
0010
,  // measure 13
0000
0100
0010
0000
,  // measure 14
0000
1000
0000
0001
,  // measure 15
0000
0100
0010
1000
,  // measure 16
0100
0010
0001
0100
,  // measure 17
1000
0010
0001
1000
,  // measure 18
0100
0202
0000
0303
,  // measure 19
0000
1000
0001
0100
,  // measure 20
0010
1000
0100
0002
,  // measure 21
0000
1003
0010
0100
,  // measure 22
0001
1000
0100
2000
,  // measure 23
0000
3010
1010
0100
,  // measure 24
0101
0010
0011
1000
,  // measure 25
1100
0002
1003
0200
,  // measure 26
0301
0020
0031
0200
,  // measure 27
1300
2020
0000
3000
,  // measure 28
0032
0020
0000
0003
,  // measure 29
1000
0002
0000
0030
,  // measure 30
0200
0000
0000
0000
,  // measure 31
0303
0010
1000
0010
,  // measure 32
0000
0002
0000
0000
,  // measure 33
0003
1100
0011
0220
,  // measure 34
0000
0330
0000
0000
,  // measure 35
0000
1001
0100
0020
,  // measure 36
0000
2000
0000
0000
,  // measure 37
3030
0001
0100
0020
,  // measure 38
0000
2000
0000
0000
,  // measure 39
3030
0001
1000
0200
,  // measure 40
0000
0020
0000
0000
,  // measure 41
0330
0001
1000
0200
,  // measure 42
0000
0002
0000
0000
,  // measure 43
0303
0011
1000
0200
,  // measure 44
0000
2000
0000
0000
,  // measure 45
3300
1010
0001
0100
,  // measure 46
0001
2002
0000
0000
,  // measure 47
3003
1000
0000
0000
,  // measure 48
0000
1001
0000
0000
,  // measure 49
0000
0110
0000
0110
,  // measure 50
0000
0110
0110
0110
,  // measure 51
0220
0330
0001
0000
,  // measure 52
1000
0100
0010
0022
,  // measure 53
0033
0001
0100
0010
,  // measure 54
1000
0101
1100
2020
,  // measure 55
3030
1001
0100
0000
,  // measure 56
0000
1000
0100
0002
,  // measure 57
0000
0013
1000
0000
,  // measure 58
0000
0100
0010
0001
,  // measure 59
1000
0000
1100
0000
0000
0000
0000
2002
,  // measure 60
0000
0000
0000
3003
0000
0000
0000
0000
;

//---------------dance-single - ----------------
#NOTES:
     dance-single:
     :
     Beginner:
     1:
     0.058,0.212,0.054,0.000,0.000: // measure 1
0000
0000
0000
0000
,  // measure 2
0000
0000
0000
0000
,  // measure 3
0000
0000
0000
0000
,  // measure 4
0000
0000
0000
0000
,  // measure 5
0000
0000
0000
0000
,  // measure 6
0000
0000
0000
0000
,  // measure 7
0000
1000
0000
0000
,  // measure 8
0000
0000
0000
0000
,  // measure 9
0000
0001
0000
0000
,  // measure 10
0000
0000
0000
0000
,  // measure 11
0000
0010
0000
0000
,  // measure 12
0000
0000
0000
0000
,  // measure 13
0000
0010
0000
0000
,  // measure 14
0000
0000
0000
0000
,  // measure 15
0000
0100
0000
0000
,  // measure 16
0000
0000
0000
0000
,  // measure 17
0000
0100
0000
0000
,  // measure 18
0000
1000
0000
0000
,  // measure 19
0000
0001
0000
0000
,  // measure 20
0000
0000
0000
0000
,  // measure 21
0000
1000
0000
0000
,  // measure 22
0000
0000
0000
0000
,  // measure 23
0000
0010
0000
0000
,  // measure 24
0000
0000
0000
0000
,  // measure 25
0000
0100
0000
0000
,  // measure 26
0000
0100
0000
0000
,  // measure 27
0000
1000
0000
0000
,  // measure 28
0000
1000
0000
0000
,  // measure 29
0000
1000
0000
0000
,  // measure 30
0000
0000
0000
0000
,  // measure 31
0000
0001
0000
0000
,  // measure 32
0000
0000
0000
0000
,  // measure 33
0000
0100
0000
0000
,  // measure 34
0000
0000
0000
0000
,  // measure 35
0000
1000
0000
0000
,  // measure 36
0000
0000
0000
0000
,  // measure 37
0000
0001
0001
0001
,  // measure 38
0000
0000
0000
0000
,  // measure 39
0000
0100
0000
0000
,  // measure 40
0000
0000
0000
0000
,  // measure 41
0000
1000
0000
0000
,  // measure 42
0000
0000
0000
0000
,  // measure 43
0000
0001
0000
0000
,  // measure 44
0000
0000
0000
0000
,  // measure 45
0000
0010
0000
0000
,  // measure 46
0000
0000
0000
0000
,  // measure 47
0000
0100
0000
0000
,  // measure 48
0000
0110
0000
0000
,  // measure 49
0000
1000
0000
1000
,  // measure 50
0000
1000
1000
1001
,  // measure 51
1001
1001
0000
0000
,  // measure 52
0000
0000
0000
0000
,  // measure 53
0000
0100
0000
0000
,  // measure 54
0000
0000
0000
0000
,  // measure 55
0000
0001
0000
0000
,  // measure 56
0000
0000
0000
0000
,  // measure 57
0000
0010
0000
0000
,  // measure 58
0000
0000
0000
0000
,  // measure 59
0000
0110
0000
0000
,  // measure 60
0000
1001
0000
0000
;
