#TITLE:SCORE;
#SUBTITLE:;
#ARTIST:DJ Remo-Con;
#TITLETRANSLIT:;
#SUBTITLETRANSLIT:;
#ARTISTTRANSLIT:;
#CREDIT:;
#BANNER:bn.PNG;
#BACKGROUND:bg.PNG;
#LYRICSPATH:;
#CDTITLE:!title.png;
#MUSIC:score.mp3;
#OFFSET:-0.410;
#SAMPLESTART:27.800;
#SAMPLELENGTH:12.000;
#SELECTABLE:YES;
#BPMS:0.000=140.000;
#STOPS:;
#BGCHANGES:;

//---------------dance-single - ----------------
#NOTES:
     dance-single:
     :
     Hard:
     8:
     0.481,0.583,0.480,0.076,0.206:
0000
0000
0000
0000
,
0000
0000
0000
0000
,
0000
0000
0000
0000
,
0000
0000
0000
0000
,
1000
0000
0001
0000
0010
0000
0100
1000
,
0010
0000
0100
0000
0010
0000
0001
0200
,
1300
0000
0010
0000
0100
0000
1000
0200
,
0310
0000
0001
0000
0010
0010
0110
0000
,
1000
0100
0010
0000
0001
0000
0010
0100
,
0010
0000
1000
0000
0001
0100
0001
0100
,
0010
0000
1000
0000
0010
1000
0100
0010
,
0001
0000
0010
0000
1000
0100
2000
0000
,
3100
0010
0100
0000
0010
1000
0010
0100
,
0001
0000
0011
0000
0001
0100
0001
0100
,
0010
0000
1010
0000
1000
0100
0010
0001
,
0010
0000
0100
0000
1000
0100
0011
0000
,
0010
0000
0100
0000
1000
0000
0000
0100
0000
0000
0010
0000
0100
0000
0000
0000
,
0010
0000
1000
0000
0010
0000
0000
0100
0000
0000
0001
0000
1000
0000
0000
0000
,
0010
0000
1000
0000
0100
0000
0000
0010
0000
0000
0001
0000
0010
0000
0000
0000
,
0001
0100
1000
0000
1010
0000
0101
0000
,
1000
0000
0100
0000
0010
0000
0000
0100
0000
0000
1000
0000
0100
0000
0000
0000
,
0010
0000
0001
0000
0010
0000
0000
0100
0000
0000
1000
0000
0100
0000
0000
0000
,
0010
0000
1000
0000
0001
0000
0000
0100
0000
0000
1000
0000
0100
0000
0000
0000
,
0010
0000
1000
0000
0001
0000
0000
0100
0000
0000
1000
0000
0100
0000
0000
0000
,
0010
0000
0100
0000
0010
0000
0000
0100
0000
0000
1000
0000
0100
0000
0000
0000
,
0010
0000
0100
0000
0010
0000
0000
0001
0000
0000
0100
0000
0101
0000
0000
0000
,
0010
0000
0100
0000
0010
0000
0000
0100
0000
0000
0100
0000
1100
0000
0000
0000
,
0010
1000
0010
0000
0110
0000
1010
0000
,
0001
0000
0100
0000
0010
0000
0000
0100
0000
0000
1000
0000
0100
0000
0000
0000
,
0010
0000
0100
0000
0010
0000
0000
1000
0000
0000
0010
0000
0110
0000
0000
0000
,
0010
0000
0100
0000
0001
0000
0000
1000
0000
0000
0010
0000
0110
0000
0000
0000
,
1000
0100
0010
0000
0011
0000
0101
0000
,
1100
0000
0000
0000
0000
0000
0000
0010
0000
0000
0100
0000
1000
0000
0000
0000
,
0000
0000
0000
0000
0000
0000
0000
0010
0000
0000
0001
0000
0100
0000
0000
0000
,
0000
0000
0000
0000
0000
0000
0000
0010
0000
0000
0100
0000
1000
0000
0000
0000
,
0000
0000
0000
0000
0000
0000
0000
0001
0000
0000
1000
0000
0100
0000
0000
0000
,
1001
0000
0000
0000
0000
0000
0000
0010
0000
0000
0100
0000
1000
0000
0000
0000
,
0000
0000
0000
0000
0000
0000
0000
0001
0000
0000
0010
0000
1000
0000
0000
0000
,
0000
0000
0000
0000
0000
0000
0000
0100
0000
0000
0010
0000
1000
0000
0000
0000
,
0000
0000
0000
0000
0000
0000
0000
0001
0000
0000
0100
0000
1000
0000
0000
0000
,
0000
0010
0000
0000
0100
0000
0000
1000
0000
0000
0100
0000
0010
0000
0000
0000
,
0000
0010
0000
0000
0100
0000
0000
0010
0000
0000
1000
0000
0100
0000
0000
0000
,
0000
0010
0000
0000
0100
0000
0000
0001
0000
0000
1000
0000
0100
0000
0000
0000
,
0000
0010
0000
0000
0100
0000
0000
1000
0000
0000
0001
0000
0100
0000
0000
0000
,
0010
0000
0110
0000
1000
0100
0010
0000
,
0001
0000
0011
0000
0001
0100
1000
0000
,
0010
0000
1010
0000
1000
0010
0001
0000
,
1001
0000
0110
0000
1000
0100
0020
0000
,
0130
1000
0100
1000
0100
1000
0100
1000
,
0100
0001
0100
0001
0100
0001
0100
0001
,
0010
0001
0010
0001
0010
0001
0010
0001
,
0100
1000
0100
1000
0100
1000
0100
1000
,
0010
0100
0010
0100
0010
0100
0010
0100
,
0010
1000
0010
1000
0010
1000
0010
1000
,
0001
0100
0001
0100
0001
0100
0001
0100
,
0010
0100
0010
1000
0010
0100
0002
0000
,
0003
1100
0000
0000
1100
0000
0000
0011
0000
0000
1010
0000
0000
0101
0000
0000
,
1100
0000
0000
0011
0000
0000
0110
0000
0000
1010
0000
0000
0002
0000
1003
0000
,
0000
0110
0000
0000
1010
0000
0000
0101
0000
0000
1100
0000
0000
0011
0000
0000
,
0110
0000
0000
1010
0000
0000
0101
0000
0000
1010
0000
0000
0020
0000
0130
0000
,
0000
1100
0000
0000
0011
0000
0000
0110
0000
0000
1010
0000
0000
0101
0000
0000
,
1100
0000
0000
0011
0000
0000
0110
0000
0000
1010
0000
0000
0020
0000
0130
0000
,
0000
0011
0000
0000
1100
0000
0000
0110
0000
0000
1010
0000
0000
0101
0000
0000
,
1100
0000
0000
0011
0000
0000
1010
0000
0000
0101
0000
0000
0010
0000
0100
0000
,
0020
0000
0000
0000
,
0000
0000
0000
0000
,
0030
0000
0000
0000
;

//---------------dance-single - ----------------
#NOTES:
     dance-single:
     :
     Medium:
     6:
     0.411,0.417,0.210,0.345,0.017:
0000
0000
0000
0000
,
0000
0000
0000
0000
,
0000
0000
0000
0000
,
0000
0000
0000
0000
,
1000
0100
0010
0001
,
0100
0000
1000
0000
0010
0000
0001
0100
,
0010
0000
1000
0000
0100
0000
0010
0100
,
0010
0000
1000
0000
0010
0100
1001
0000
,
0010
0000
1000
0000
0100
0000
0010
0001
,
0010
0000
0100
0000
0002
0000
0103
0010
,
0100
0000
1000
0000
0020
0000
0130
1000
,
0002
0103
0020
2030
,
3001
0000
0101
0000
0010
0000
0100
1000
,
0100
0000
0110
0000
0001
0000
0001
0100
,
1000
0000
0010
0000
0100
0000
0010
0010
,
1000
0000
0001
0000
1000
0100
0010
0000
,
1000
0100
0010
0000
0100
0000
0001
0000
,
0001
0100
0001
0000
0010
0000
0100
0000
,
1000
0100
1000
0000
0010
0000
0100
0000
,
0001
0010
0100
0000
2000
0000
3200
0000
,
0310
0001
0010
0000
0100
0000
1000
0000
,
1000
0100
0010
0000
0001
0000
0100
0000
,
0001
0010
1000
0000
0010
0000
0100
0000
,
0100
1000
0010
0000
0001
0000
0100
0000
,
0001
1000
0002
0000
0100
0000
0013
0000
,
1000
0100
2000
0000
0100
0000
3010
0000
,
0010
0100
0020
0000
1000
0000
0031
0000
,
0100
1000
0200
0000
0301
0000
1000
0000
,
0101
0000
0010
0000
0010
1000
0010
0000
,
0001
0000
0011
0000
0001
0100
0010
0000
,
1000
0100
0010
0000
0001
0100
0001
0000
,
0010
1000
0010
0000
0001
0000
0010
0000
,
1000
0100
2000
0000
0100
0000
0020
3000
,
0100
0100
0230
0000
0010
0000
0320
0000
,
0001
0001
0032
0000
0100
0000
0010
0003
,
1000
0100
0020
0000
0001
0000
0130
0000
,
1000
0100
2000
0000
0010
0000
0100
0000
,
0010
3000
0010
0000
0002
0000
0103
0000
,
0010
0100
0020
0000
2030
0000
3001
0000
,
0010
0100
0020
0000
2030
0000
3001
0000
,
0000
2002
0000
0000
0000
0000
0000
0000
0000
0000
0000
0000
3003
0000
0000
0000
,
0000
0220
0000
0000
0000
0000
0000
0000
0000
0000
0000
0000
0330
0000
0000
0000
,
0000
2200
0000
0000
0000
0000
0000
0000
0000
0000
0000
0000
3300
0000
0000
0000
,
0000
0022
0000
0000
0000
0000
0000
0000
0000
0000
0000
0000
0033
0000
0000
0000
,
1000
0001
0100
0010
,
1000
0000
0100
0000
0001
0001
0001
0000
,
0010
0110
1000
1001
,
0010
1000
2002
3003
,
0010
1000
0020
0000
0100
0000
1030
0000
,
1000
0100
2000
0000
0100
0000
3010
0000
,
0001
0100
0002
0000
0100
0000
0013
0000
,
0010
0100
0020
0000
1030
0001
0200
0000
,
0310
1000
0010
0000
0100
0000
0011
0000
,
0001
0100
0020
0000
1030
0000
0100
0000
,
1000
0100
0001
0000
0010
0000
0110
0000
,
0001
0010
0100
1000
0001
0100
1000
0000
,
0010
1010
0010
0011
,
0100
1100
0010
1010
,
0001
0011
0100
1100
,
0010
0000
0110
0000
0001
0000
1000
1000
,
0000
0100
1000
1100
,
0010
0000
0011
0000
0010
0000
0100
1000
,
0100
1010
0010
0011
,
0010
0000
0100
0000
1000
0000
0001
2000
,
0002
0000
0000
0000
,
0000
0000
0000
0000
,
3003
0000
0000
0000
;

//---------------dance-single - ----------------
#NOTES:
     dance-single:
     :
     Easy:
     3:
     0.200,0.323,0.093,0.387,0.000:
0000
0000
0000
0000
,
0000
0000
0000
0000
,
0000
0000
0000
0000
,
0000
0000
0000
0000
,
1000
0000
0001
0200
,
0301
0000
0010
2000
,
3100
0000
0100
0020
,
0031
0000
2000
3001
,
0010
1000
0100
0002
,
0103
0010
0001
2000
,
3010
0100
0001
2000
,
3100
0010
0002
2000
,
3003
0000
0010
1010
,
2000
3100
0001
0020
,
0031
1000
0200
0301
,
1000
0010
2000
3000
,
0010
0000
0010
0000
,
0010
0000
0010
0000
,
0010
0000
0010
0000
,
0010
0000
0110
1001
,
2002
3003
1000
0000
,
0001
0000
0100
0000
,
0100
0000
0010
0000
,
1000
0000
0001
0000
,
1001
0000
0010
0010
,
1000
0000
0002
1003
,
1010
0000
0002
0103
,
0101
0000
0020
0032
,
1003
0000
0100
0010
,
0000
0000
0000
1001
,
0000
0000
0000
0110
,
0000
0000
1000
0001
,
2002
0000
0000
3003
,
0000
0000
0000
0010
,
0000
0000
0000
0100
,
0000
0000
0000
1000
,
0000
0000
0000
0001
,
0000
0000
0000
0100
,
0000
0000
0000
0010
,
0000
0000
0000
1000
,
0002
0000
0000
0003
,
2000
0000
0000
3000
,
0200
0000
0000
0300
,
0020
0000
0000
0030
,
0002
0000
0000
0003
,
2000
0000
0000
3000
,
0200
0000
0000
0300
,
0020
0000
0000
0030
,
2000
0000
0000
3000
,
0002
0000
0000
0003
,
0200
0000
0000
0300
,
0022
0000
0000
0033
,
2000
0000
0000
3000
,
0200
0000
0000
0300
,
0020
0000
0000
0030
,
0002
0000
0000
0003
,
2000
0000
0000
0000
,
0200
0000
0000
3300
,
0020
0000
0000
0000
,
0002
0000
0000
0033
,
0200
0000
0000
0000
,
0002
0000
0000
0303
,
2000
0000
0000
0000
,
0002
0000
0000
0000
,
3003
0000
0000
0000
;

//---------------dance-single - ----------------
#NOTES:
     dance-single:
     :
     Beginner:
     1:
     0.079,0.162,0.008,0.000,0.000: // measure 1
0000
0000
0000
0000
,  // measure 2
0000
0000
0000
0000
,  // measure 3
0000
0000
0000
0000
,  // measure 4
0000
0000
0000
0000
,  // measure 5
1000
0000
0000
0000
,  // measure 6
0001
0000
0000
0000
,  // measure 7
1000
0000
0000
0000
,  // measure 8
0001
0000
0000
0000
,  // measure 9
0010
0000
0000
0000
,  // measure 10
0010
0000
0000
0000
,  // measure 11
0010
0000
0000
0000
,  // measure 12
0010
0000
0000
0000
,  // measure 13
0100
0000
0000
0000
,  // measure 14
0100
0000
0000
0000
,  // measure 15
0100
0000
0000
0000
,  // measure 16
1000
0000
0000
0000
,  // measure 17
0001
0000
0000
0000
,  // measure 18
0001
0000
0000
0000
,  // measure 19
1000
0000
0000
0000
,  // measure 20
1000
0000
0000
0000
,  // measure 21
0010
0000
0000
0000
,  // measure 22
0100
0000
0000
0000
,  // measure 23
1000
0000
0000
0000
,  // measure 24
0001
0000
0000
0000
,  // measure 25
1000
0000
0000
0010
,  // measure 26
0000
0000
0000
0010
,  // measure 27
0000
0000
0000
0010
,  // measure 28
0000
0000
0010
0000
,  // measure 29
0100
0000
0000
0100
,  // measure 30
0000
0000
0000
0100
,  // measure 31
0000
0000
0000
0100
,  // measure 32
0000
0000
0000
0100
,  // measure 33
1000
0000
0000
0000
,  // measure 34
0000
0000
0000
0000
,  // measure 35
0001
0000
0000
0000
,  // measure 36
0000
0000
0000
0000
,  // measure 37
0010
0000
0000
0000
,  // measure 38
0000
0000
0000
0000
,  // measure 39
0000
0000
0000
0000
,  // measure 40
0000
0000
0000
0000
,  // measure 41
1000
0000
0000
0000
,  // measure 42
1000
0000
0000
0000
,  // measure 43
1000
0000
0000
0000
,  // measure 44
1000
0000
0000
0000
,  // measure 45
0001
0000
0000
0000
,  // measure 46
0001
0000
0000
0000
,  // measure 47
0100
0000
0000
0000
,  // measure 48
0000
0000
0000
0000
,  // measure 49
0010
0000
0000
0000
,  // measure 50
0010
0000
0000
0000
,  // measure 51
0100
0000
0000
0000
,  // measure 52
0100
0000
0000
0000
,  // measure 53
1000
0000
0000
0000
,  // measure 54
0001
0000
0000
0000
,  // measure 55
1000
0000
0000
0000
,  // measure 56
0100
0000
0000
0000
,  // measure 57
0001
0000
0001
0000
,  // measure 58
0001
0000
0001
0000
,  // measure 59
1000
0000
1000
0000
,  // measure 60
1000
0000
1000
0000
,  // measure 61
0010
0000
0010
0000
,  // measure 62
0010
0000
0010
0000
,  // measure 63
0100
0000
0100
0000
,  // measure 64
0100
0000
0100
0000
,  // measure 65
1001
0000
0000
0000
;
