#TITLE:SABER WING;
#SUBTITLE:(satellite silhouette remix);
#ARTIST:TAG;
#TITLETRANSLIT:;
#SUBTITLETRANSLIT:;
#ARTISTTRANSLIT:;
#CREDIT:;
#BANNER:bn.png;
#BACKGROUND:bg.png;
#LYRICSPATH:;
#CDTITLE:;
#MUSIC:SABER_WING_(satellite_silhouette_remix).mp3;
#OFFSET:-0.080;
#SAMPLESTART:1.760;
#SAMPLELENGTH:12.000;
#SELECTABLE:YES;
#BPMS:0.000=138.000,163.000=276.001,179.000=138.000;
#STOPS:66.000=0.435
;
#BGCHANGES:;

//---------------dance-single - ----------------
#NOTES:
     dance-single:
     :
     Hard:
     8:
     0.515,0.561,0.205,0.146,0.273:
0000
0000
0000
0000
,
1000
0000
0001
0000
1000
0001
0000
0100
0000
0000
0010
0000
0100
0000
0001
0000
,
1000
0000
0100
0000
1000
0100
0000
0001
0000
0000
0100
0000
0010
0000
0100
0000
,
0001
0000
1000
0000
0001
0100
0000
0010
0000
0000
1000
0100
1000
0000
0100
0000
,
1000
0000
0000
0001
0000
0000
0100
0000
0000
0000
0010
0000
0110
0000
0100
0000
,
0010
0000
0100
0000
0001
1000
0000
0001
0000
0000
0001
0000
0010
0000
0100
0000
,
1000
0000
0001
0000
0100
0010
0000
0100
0000
0000
1000
0000
0100
0000
0010
0000
,
0001
0000
1000
0000
0001
0100
0000
0010
0000
0000
0010
0100
0010
0000
0001
0000
,
2000
0000
0000
0100
0000
0000
0002
0000
0000
0000
0000
0000
3003
0000
0100
0000
,
0010
0000
0000
0100
0010
0000
0000
0010
,
0100
0000
0000
0100
0000
0000
0010
0000
1000
0000
0000
0000
0000
0000
0001
0000
,
0100
0000
0000
0010
0100
0000
0000
1000
,
0100
0000
0000
1000
0000
0000
0100
0000
0000
0000
0011
0000
0000
0000
0001
0000
,
0100
0000
0000
0010
1000
0000
0000
0001
,
0100
0000
0000
0010
0000
0000
1000
0000
0001
0000
0000
0000
0000
0000
1000
0000
,
0100
0000
0000
0010
0001
0000
0000
0010
,
0101
0000
0000
1100
0000
0000
0110
0000
1001
0000
0000
0000
1000
0000
0100
0000
,
1000
0100
0000
0010
0000
0000
0001
0000
0100
0000
0010
0000
1000
0000
0001
0000
,
0001
0100
0000
0001
0000
0000
0010
0000
0100
0000
0001
0000
1000
0000
0001
0000
,
0001
0100
0000
0001
0000
0000
0001
1000
0100
0000
0010
0000
0100
0000
0000
0100
,
0000
0000
0001
0100
0001
0000
0010
0000
0100
0000
1000
0000
0001
0000
1000
0000
,
0010
0100
0000
0010
0000
0000
0001
0000
0100
0000
1000
0000
0100
0000
0010
0000
,
0001
0010
0000
0100
0000
0000
0001
0000
1000
0000
0010
0000
0100
0000
0010
0000
,
0001
1000
0000
0010
0000
0000
0100
0000
1000
0000
0100
0000
0000
0000
1100
0000
,
0000
0011
0000
0000
2002
0000
0000
0000
3003
0000
0000
0000
1020
0000
0000
0000
,
1000
0000
0001
0000
1030
0000
0001
0100
,
0010
0000
0001
1000
0100
0000
1002
0000
,
1000
0000
1000
0000
1003
0000
0001
0100
,
0010
0000
0010
0100
1000
0000
2100
0000
,
0100
0000
0100
0000
3100
0000
0010
1000
,
0001
0000
0100
1000
0010
0000
0012
0000
,
0100
0000
0010
0000
0103
0000
0001
1000
,
0010
0000
0010
0100
1000
0000
1002
0000
,
0100
0000
0010
0000
0103
0000
0001
0100
,
0010
1000
0001
0010
1000
0000
2100
0000
,
0100
0000
0010
0000
3001
0000
0001
0100
,
1000
0100
0001
0010
1000
0000
1020
0000
,
1000
0000
0100
0000
0031
0000
0010
0100
,
0010
1000
0001
0100
0010
0100
1001
0000
,
1100
0000
0011
0000
0010
0000
0010
0100
,
1000
0100
0010
0001
0010
1000
2002
0000
,
0000
0000
0000
0000
,
0000
0000
0000
0000
,
0000
0000
0000
0000
,
0000
0003
3001
1000
,
0000
0000
0100
0000
1000
0000
0000
0000
0000
0000
0010
0000
0001
0000
0000
0010
,
0000
0100
1000
0000
0000
0001
0100
0000
,
0000
0000
0010
0000
0100
0000
0000
0000
0000
0000
0010
0000
1000
0000
0000
0100
,
0000
0010
0000
0011
0000
0001
0100
0000
,
0000
0000
0001
0000
1000
0000
0000
0000
0000
0000
0100
0000
1000
0000
0000
0100
,
0000
0010
0001
0000
0000
0010
0100
0000
,
0000
0000
0001
0000
1000
0000
0000
0000
0000
0000
0100
0000
1000
0000
0000
0001
,
0000
0010
0100
0000
0000
0001
0100
1000
,
0010
1000
0000
0010
0000
0000
0100
0000
1000
0000
0100
0000
0010
0000
0001
0000
,
0010
0001
0000
0010
0000
0000
0000
0000
0000
0000
0001
0000
1000
0000
0001
0000
,
0001
0100
0000
0001
0000
0000
0010
0000
0100
0000
0001
0000
1000
0000
0010
0000
,
0010
0100
0000
0010
0000
0000
0000
0000
0000
0000
1000
0000
0100
0000
0010
0000
,
0001
0100
0000
0001
0000
0000
0010
0000
1000
0000
0001
0000
1000
0000
0001
0000
,
0001
0100
0000
0001
0000
0000
0000
0000
0000
0000
0010
0000
0100
0000
1000
0000
,
0100
1000
0000
0100
0000
0000
0010
0000
0001
0000
0010
0000
0100
0000
0010
0000
,
0001
2000
0000
0002
0000
0000
0000
0000
3000
0000
0003
0000
0000
0000
0000
0000
;

//---------------dance-single - ----------------
#NOTES:
     dance-single:
     :
     Medium:
     6:
     0.398,0.443,0.117,0.107,0.078:
0000
0000
0000
0000
,
0001
0000
0100
0010
0100
0000
0010
0000
,
1000
0000
0001
1000
0001
0000
0100
0000
,
0010
0000
0001
1000
0001
0000
0100
0000
,
1000
0000
0000
0100
0000
0000
0000
0000
0000
0000
0000
0000
0000
0000
0001
0000
,
0100
0000
0001
0000
0100
0000
0000
0001
0000
0000
0010
0000
1000
0000
0010
0000
,
1000
0000
0010
0000
1000
0000
0000
0001
0000
0000
1000
0000
0001
0000
1000
0000
,
0001
0000
1000
0000
0001
0000
0000
0100
0000
0000
0010
0000
1000
0000
0010
0000
,
1000
0000
0000
1000
0000
0000
1000
0000
0000
0000
0000
0000
0000
0000
0000
0000
,
0001
0000
0000
0100
1000
0000
0000
0010
,
0100
0000
0010
0000
0001
0000
0000
1000
,
0100
0000
0000
0010
0001
0000
0000
0001
,
0100
0000
0010
0000
0000
0110
0000
0010
,
0100
0000
0000
1000
0100
0000
0000
0010
,
0001
0000
0100
0000
0010
0000
0000
1000
,
0001
0000
0000
0010
0100
0000
0000
1000
,
0100
0000
0000
1000
0000
0000
0100
0000
0010
0000
0000
0000
0001
0000
0000
0000
,
1000
0001
1000
0000
0010
0000
0100
0000
,
0010
0100
0010
0000
1000
0000
0100
0000
,
1000
0100
1000
0000
0010
0000
0100
0000
,
0001
0000
0010
0001
0100
1000
0001
0000
,
1000
0001
1000
0000
0100
0000
1000
0000
,
0010
1000
0010
0000
0100
0000
0001
1000
,
0001
0000
0100
0000
0010
0000
0000
1100
,
0000
0011
0000
0000
0101
0000
0000
0000
0000
0000
0000
0000
0002
0000
0000
0000
,
1000
1000
1003
0001
,
0100
0010
1000
0200
,
1000
1000
1300
0010
,
1000
0010
0100
0002
,
0100
0100
0103
0001
,
1000
0100
0010
0200
,
0010
0010
0310
0001
,
1000
0100
0010
1002
,
1000
0000
1000
0000
1003
0000
0001
1000
,
0001
0100
0010
0210
,
0010
0000
0010
0000
0310
0000
0010
1000
,
0010
0000
0001
0100
0001
0000
2100
0000
,
0100
0000
0100
0000
3100
0000
0001
1000
,
0001
0100
0010
0012
,
0010
0000
0010
0000
0013
0000
0001
0100
,
0001
0000
0010
1000
0010
0000
2002
0000
,
0000
0000
0000
0000
,
0000
0000
0000
0000
,
0000
0000
0000
0000
,
0000
0000
0003
3001
,
0000
1000
0100
0000
0000
0010
0001
0000
,
0010
0000
1100
0000
0000
0010
0100
0000
,
0000
0001
1000
0000
0000
0100
1000
0000
,
0100
0000
0000
0011
0000
0001
0100
0000
,
0000
0010
0100
0000
0000
0010
1000
0000
,
0100
0000
0011
0000
0000
0001
0100
0000
,
0000
0000
0010
0000
0100
0000
0000
0000
0000
0000
1000
0000
0100
0000
0000
0100
,
0000
0010
0001
0000
0000
1000
0001
1000
,
0001
0000
0000
0100
0000
0000
0010
0000
0100
0000
0010
0000
1000
0000
0000
0000
,
0001
0000
0000
0100
0000
0000
0000
0000
0000
0000
0010
0000
1000
0000
0010
0000
,
1000
0000
0000
0010
0000
0000
1000
0000
0100
0000
0010
0000
0001
0000
0010
0000
,
0100
0000
0000
1000
0000
0000
0000
0000
0000
0000
0001
0000
1000
0000
0001
0000
,
1000
0000
0000
0001
0000
0000
0010
0000
0100
0000
0010
0000
0100
0000
0010
0000
,
0100
0000
0000
0100
0000
0000
0000
0000
0000
0000
1000
0000
0100
0000
1000
0000
,
0100
0000
0000
1000
0000
0000
1000
0000
0100
0000
0010
0000
0001
0000
0010
0000
,
0100
0000
0000
0002
0000
0000
0000
0000
0000
0000
0003
0000
0000
0000
0000
0000
;

//---------------dance-single - ----------------
#NOTES:
     dance-single:
     :
     Easy:
     3:
     0.252,0.295,0.039,0.156,0.000:
0000
0000
0000
0000
,
0001
1000
0001
0100
,
0001
1000
0001
0100
,
0001
1000
0001
0100
,
0010
0000
0000
0000
,
0010
0100
1000
0001
,
1000
0100
0010
0001
,
0010
0100
1000
0100
,
0002
0000
0000
0003
0000
0000
0000
0000
,
1000
0000
0001
0000
,
0100
0010
1000
0000
,
0001
0000
1000
0000
,
0001
0000
1000
0000
0000
1001
0000
0000
,
0001
0000
0100
0000
,
0010
1000
0100
0000
,
0010
0000
0100
0000
,
1000
0001
0101
0001
,
1000
0001
0100
0001
,
1000
0001
0010
0001
,
1000
0100
0001
0010
,
0200
0020
0330
0001
,
1000
0100
1000
0100
,
0010
0001
0100
0010
,
0100
0000
1000
0000
0010
0000
0000
0002
,
0000
1003
0000
2000
,
0000
0000
3000
0001
,
0100
0010
1000
0020
,
0000
0000
0030
0001
,
0100
1000
0100
0002
,
0000
0000
0003
1000
,
0001
0100
0010
2000
,
0000
0000
3000
0001
,
1000
0100
0010
0002
,
0000
0000
0003
0100
,
0010
1000
0001
2000
,
0000
0000
3000
0001
,
1000
0100
0010
0002
,
0000
0000
0003
0001
,
0100
0010
1000
0002
,
0000
0000
0003
1000
,
0001
0100
0010
2002
,
0000
0000
0000
0000
,
0000
0000
0000
0000
,
0000
0000
0000
0000
,
0000
0000
3003
0001
,
0000
1000
0000
1000
,
0001
0100
0000
0001
,
0000
1000
0000
0010
,
0100
0000
0000
0110
0000
0000
0010
0000
,
0000
0001
0000
1000
,
0001
0100
0000
0010
,
0000
0100
0000
1000
,
0001
1000
0000
0001
,
0100
0010
1000
0010
,
1000
0000
0000
0001
,
1000
0100
0010
0001
,
0010
0000
0000
0100
,
1000
0100
0010
0001
,
0010
0000
0000
1000
,
0001
0100
0010
1000
,
0002
0000
0200
0000
0000
0303
0000
0000
;

//---------------dance-single - ----------------
#NOTES:
     dance-single:
     :
     Beginner:
     1:
     0.082,0.146,0.019,0.000,0.000: // measure 1
0000
0000
0000
0000
,  // measure 2
1000
0000
0000
0000
,  // measure 3
0100
0000
0000
0000
,  // measure 4
0010
0000
0000
0000
,  // measure 5
0001
0000
0000
0000
,  // measure 6
0001
0000
0000
0000
,  // measure 7
1000
0000
0000
0000
,  // measure 8
0100
0000
0000
0000
,  // measure 9
0010
0000
0000
0000
,  // measure 10
1000
0000
0000
0000
,  // measure 11
1000
0000
0000
0000
,  // measure 12
0001
0000
0001
0000
,  // measure 13
0001
0000
0000
0000
,  // measure 14
0100
0000
0100
0000
,  // measure 15
0100
0000
0000
0000
,  // measure 16
0010
0000
0010
0000
,  // measure 17
0010
0000
1001
1000
,  // measure 18
0000
0000
0000
1000
,  // measure 19
0000
0000
0000
0001
,  // measure 20
0000
0000
0000
0100
,  // measure 21
0000
0000
0000
0010
,  // measure 22
0000
0000
0000
0010
,  // measure 23
0000
0000
0000
0100
,  // measure 24
0000
0000
0000
0000
,  // measure 25
0000
1001
0000
1000
,  // measure 26
0000
0000
0000
0000
,  // measure 27
0000
0000
0000
0001
,  // measure 28
0000
0000
0000
0000
,  // measure 29
0000
0000
0000
0100
,  // measure 30
0000
0000
0000
0000
,  // measure 31
0000
0000
0000
0010
,  // measure 32
0000
0000
0000
0000
,  // measure 33
0000
0000
0000
0001
,  // measure 34
0000
0000
0000
0000
,  // measure 35
0000
0000
0000
1000
,  // measure 36
0000
0000
0000
0000
,  // measure 37
0000
0000
0000
0100
,  // measure 38
0000
0000
0000
0000
,  // measure 39
0000
0000
0000
0010
,  // measure 40
0000
0000
0000
0000
,  // measure 41
0000
0000
0000
0001
,  // measure 42
0000
0000
0000
0000
,  // measure 43
0000
0000
0000
0000
,  // measure 44
0000
0000
0000
0000
,  // measure 45
0000
0000
0000
1000
,  // measure 46
0000
0000
0000
1000
,  // measure 47
0000
0000
0000
0001
,  // measure 48
0000
0000
0000
0001
,  // measure 49
0000
0000
0000
0100
,  // measure 50
0000
0000
0000
0100
,  // measure 51
0000
0000
0000
0010
,  // measure 52
0000
0000
0000
0010
,  // measure 53
0000
0000
0000
1000
,  // measure 54
0000
1000
0000
1000
,  // measure 55
0000
0000
0000
0001
,  // measure 56
0000
0001
0000
0001
,  // measure 57
0000
0000
0000
0100
,  // measure 58
0000
0100
0000
0100
,  // measure 59
0000
0000
0000
0010
,  // measure 60
0000
0010
0000
0010
;
