#TITLE:Roman;
#SUBTITLE:;
#ARTIST:Des-ROW UNITED;
#TITLETRANSLIT:;
#SUBTITLETRANSLIT:;
#ARTISTTRANSLIT:;
#CREDIT:;
#BANNER:Roman.PNG;
#BACKGROUND:Roman-bg.PNG;
#LYRICSPATH:;
#CDTITLE:;
#MUSIC:Roman.mp3;
#OFFSET:-0.540;
#SAMPLESTART:34.268;
#SAMPLELENGTH:12.000;
#SELECTABLE:YES;
#BPMS:0.000=170.680,272.000=85.340,304.000=170.680;
#STOPS:;
#BGCHANGES:;

//---------------dance-single - ----------------
#NOTES:
     dance-single:
     :
     Hard:
     8:
     0.567,0.558,0.254,0.057,0.065:
0000
0000
0000
0000
,
0000
0000
0000
0000
,
0000
0000
0000
0000
,
0000
0000
0000
0000
,
0010
0100
0010
1000
0000
0000
0001
0100
,
0010
1000
0000
0000
0000
0000
0000
0000
,
0010
1000
0001
0100
0000
0000
0010
0000
,
1010
0101
1100
0010
,
0001
1000
0010
1000
0100
1000
0010
0100
,
0010
1000
0001
0100
0010
1000
0001
0000
,
0010
0100
1000
0100
0010
1000
0010
1000
,
0001
0100
0010
0001
0010
0100
1000
0000
,
0010
1000
0010
0100
0001
0100
0010
0001
,
1000
0010
1000
0100
0001
0100
1000
0000
,
0010
1000
0001
0100
1000
0100
0010
0001
,
0010
0100
0001
1000
0001
0000
0000
0000
,
0001
0010
0100
1000
0000
0010
0100
0000
,
1000
0100
0000
0010
0001
0000
0010
0000
,
0100
1000
0100
0010
0000
0001
0100
0000
,
1000
0100
0000
0010
0100
0000
0000
0000
,
0010
1000
0010
1000
0001
0100
0010
0001
,
0010
0100
1000
0100
0010
1000
0010
0000
,
0001
0010
0100
1000
0010
1000
0010
1000
,
0001
0100
0010
0001
1010
0000
0000
0000
,
0010
1000
0010
1000
0001
0100
0001
0100
,
0010
0001
0010
0100
1000
1000
1001
0000
,
0010
0100
1000
0100
0010
0100
0001
0100
,
1000
0100
0001
1000
0100
0001
0101
0000
,
0010
0100
0001
1000
0010
0100
0001
0100
,
1000
0100
0001
0010
1000
0100
1100
0000
,
0010
1000
0001
0100
1000
0100
0010
1000
,
0010
0100
0001
1000
0010
0001
1001
0000
,
1002
1000
1000
1000
,
0100
0100
0100
0100
,
0010
0010
0010
0013
,
2001
0001
0001
0001
,
3001
0000
0101
0000
1010
0000
0010
0100
,
0000
1100
0000
0010
0100
0000
1001
0000
,
1010
0000
0101
0000
1100
0000
0010
1000
,
0000
0100
0000
1000
0000
0100
1000
0000
,
1010
0000
0101
0000
1100
0000
0010
0100
,
0000
0110
0000
1010
0000
0001
1001
0000
,
0010
0000
1010
0000
0101
0000
1000
0100
,
0000
1100
0000
0011
0000
0010
0110
0000
,
0000
1000
0100
0000
0000
0010
0100
0001
,
0100
1000
0100
0010
0001
0100
1000
0000
,
0000
0010
0100
0000
0000
1000
0100
0010
,
1000
0001
0100
1000
0100
0010
1000
0000
,
0010
0000
1000
0000
0100
1000
0100
0000
,
0010
0000
0001
0000
0100
1000
1001
0000
,
0010
0010
0100
1000
0010
0100
0001
1000
,
0010
0001
0010
0100
1000
0100
0010
0000
,
0001
1000
0001
1000
0010
0100
0010
0100
,
0010
1000
0010
1000
0001
0100
0001
0100
,
0000
0000
1000
0100
0010
0100
0001
1000
,
0010
0100
1000
0100
0010
0100
0001
0010
,
0100
1000
0010
1000
0010
0100
0001
0100
,
0010
0001
0010
0100
1000
0100
0010
0000
,
0000
0000
0010
1000
0010
0100
0001
0100
,
1000
0100
0010
0001
0010
0100
0010
1000
,
0001
0001
1000
0001
0100
1000
0010
0000
,
0010
1000
0010
0100
0001
1000
0100
0000
,
1000
0100
0010
0000
0001
0100
0010
0000
,
1000
0100
0001
1000
0010
0100
0110
0000
,
0010
1000
0010
0000
0001
0100
0001
0000
,
0010
0001
0010
0100
1000
0100
0010
0000
,
0001
1000
0001
1000
0001
1000
0010
0100
,
0010
1000
0010
0100
0001
1000
0001
0000
,
1001
0000
0000
1000
0000
0000
0100
0000
0000
0010
0000
0000
0001
0000
0100
0000
,
1000
0000
0000
0010
0000
0000
0100
0000
0000
0001
0000
0000
0100
0000
1000
0000
,
0010
0000
0000
0001
0000
0000
0100
0000
0000
1000
0000
0000
0010
0000
0100
0000
,
1000
0000
0000
0001
0000
0000
0100
0000
0000
1000
0000
0000
0010
0000
0100
0000
,
2000
0000
0000
0100
0000
0000
0100
0000
0000
0100
0000
0000
0100
0000
0100
3000
,
0020
0000
0000
0001
0000
0000
0001
0000
0000
0001
0000
0000
0001
0000
0001
0030
,
0002
0000
0000
0100
0000
0000
0100
0000
0000
0100
0000
0000
0100
0000
0100
0003
,
2000
0000
0000
3001
0000
0000
0020
0000
0000
0130
0000
0000
1000
0000
0001
0000
;

//---------------dance-single - ----------------
#NOTES:
     dance-single:
     :
     Medium:
     6:
     0.404,0.434,0.114,0.057,0.000:
0000
0000
0000
0000
,
0000
0000
0000
0000
,
0000
0000
0000
0000
,
0000
0000
0000
0000
,
0001
1000
0001
1000
0000
0000
0010
0100
,
0010
0100
0000
0000
0000
0000
0000
0000
,
1000
0100
1000
0100
0000
0000
0010
0001
,
0010
0100
1000
0010
,
0001
0000
1000
0000
0100
1000
0100
0000
,
0010
0000
1000
0000
0001
0100
0010
0000
,
0100
1000
0001
0100
,
1000
0000
0010
0000
0001
0100
1000
0000
,
0010
0100
0001
1000
,
0100
0000
0001
0000
0010
0100
1000
0000
,
0001
1000
0100
0001
,
1000
0100
1001
0000
,
0010
1000
0100
0001
,
1000
0000
0010
0000
0100
1000
0100
0000
,
0001
1000
0100
0010
,
0001
0100
0001
0000
1000
0100
0010
0000
,
0001
0000
1000
0000
0001
1000
0001
0000
,
0010
0000
0100
0000
1000
0100
1000
0000
,
0010
1000
0001
0100
,
1000
0100
0010
0001
0010
0000
0000
0000
,
0010
0100
0010
0000
0010
1000
0010
0000
,
0010
0100
0001
0000
0010
0100
1000
0000
,
0001
1000
0001
0000
0001
0100
0001
0000
,
0010
0001
0010
0000
0001
0100
1000
0000
,
0010
1000
0010
0000
0100
0010
0100
0000
,
0001
0100
0001
0000
0010
0001
0010
0000
,
0200
0000
1300
0000
0010
1000
0001
0000
,
0200
0000
0310
0000
0001
1000
0010
0000
,
1001
0001
0001
0001
,
0001
0000
0001
0000
0001
0000
0001
0001
,
0001
0001
0001
0001
,
0001
0001
0001
0001
,
1000
1100
0010
0011
,
0010
0000
0110
0000
1000
0100
0010
0000
,
0001
1000
0100
0010
,
0011
1100
0010
0100
,
1000
0000
0100
0000
0010
0000
0001
1000
,
0000
0100
0000
0010
0000
0001
1000
0000
,
0100
0000
1000
0000
0010
0000
0001
0100
,
0000
1000
0000
0010
0000
0100
1000
0000
,
1001
0000
0001
0000
0000
0100
1000
0000
,
0000
0010
0100
1000
,
0000
0010
1000
0000
0000
0100
1000
0000
,
0010
0000
0100
0000
0001
1000
1001
0000
,
0000
0010
1000
0100
,
0010
0000
0001
0000
0100
0100
0101
0000
,
0010
0000
1000
0000
0001
0100
0010
0000
,
1000
0000
0010
0000
1000
1000
1100
0000
,
0010
1000
0100
0010
,
0001
0000
0100
0000
1000
0100
0010
0000
,
0001
0100
1000
0001
,
0010
0000
0100
0000
0001
1000
0010
0100
,
0001
0010
1000
0001
,
0100
0000
1000
0000
0010
1000
0001
0000
,
0100
1000
0010
0001
,
0100
0000
1000
0000
0010
0010
0110
0000
,
1000
0000
0100
0000
0001
0100
0001
0000
,
0010
0000
0100
0000
1000
0100
1000
0000
,
0010
1001
0010
0110
,
1000
0100
0010
0000
0001
0100
0010
0000
,
1000
0001
0100
0010
,
0100
1000
0010
0001
,
0100
1000
0010
0001
,
1000
0100
0001
1000
0010
0100
1000
0000
,
0001
0000
0001
0000
1000
0000
0100
0010
,
0001
0000
0010
0000
0100
0000
1000
0001
,
1000
0000
0100
0000
0010
0000
0001
0100
,
0001
0010
1000
0001
,
0200
0000
0000
0000
,
0320
0000
1000
1000
,
2030
0000
3002
0000
,
0203
0000
0000
0000
0000
0000
0000
0300
;

//---------------dance-single - ----------------
#NOTES:
     dance-single:
     :
     Easy:
     4:
     0.303,0.337,0.172,0.016,0.000:
0000
0000
0000
0000
,
0000
0000
0000
0000
,
0000
0000
0000
0000
,
0000
0000
0000
0000
,
1000
0000
0000
1001
0000
0000
0010
0000
,
0000
0110
0000
0000
0000
0000
0000
0000
,
1000
0000
0000
1100
0000
0000
0010
0000
,
0001
1000
0100
0010
,
1000
1000
0100
0100
,
0010
0010
0001
0011
,
0001
0001
0010
0010
,
0100
0100
1000
1100
,
0010
0010
0100
0100
,
1000
1000
0001
1001
,
0010
0010
0100
0100
,
1000
1000
1001
0000
,
0010
0100
1000
0100
,
0010
0001
0100
1000
,
0010
0100
1000
0010
,
0001
0100
1000
1001
,
0010
0100
1000
0010
,
0100
0001
1000
1010
,
1000
0100
0010
0001
,
0100
1000
0010
0000
,
1000
0100
1000
0100
,
0001
0100
0001
0101
,
0010
1000
0100
0010
,
0001
0100
1000
0110
,
0001
1000
0100
0010
,
0001
0100
1000
1010
,
1000
0100
0010
0001
,
0100
1000
0010
0100
,
1002
1000
1000
1000
,
1000
1000
1000
1000
,
1000
1000
1000
1000
,
2000
0000
0000
3003
,
0010
0010
0010
0000
,
0100
0000
1000
0001
,
0100
0000
0100
0000
,
0100
1000
0010
0000
,
0001
0000
1000
0000
,
0100
1000
0010
0001
,
0100
0000
1000
0000
,
0010
0000
0100
0000
,
0000
0001
0000
0100
,
1000
0010
0100
0000
,
0000
0001
0000
1000
,
0100
0010
0001
0000
,
0010
0000
0010
0000
,
0100
0000
1000
1001
,
0000
0010
0000
0100
,
1000
0001
0100
0000
,
0010
1000
0100
0010
,
0001
0100
1000
0010
,
0001
0100
1000
0010
,
0100
1000
0001
0100
,
0001
1000
0010
0100
,
0010
0100
1000
0001
,
0000
1000
0100
0001
,
0100
1000
0010
0100
,
1001
0010
0100
1000
,
0100
0010
0001
0011
,
0001
0100
1000
0010
,
0100
1000
0001
1010
,
1000
0100
0010
0001
,
0100
1000
0010
0110
,
0001
1000
0100
0010
,
0001
0100
1000
0001
,
1100
0000
0000
0000
,
0010
0000
0100
0001
,
0110
0000
1000
0000
,
0001
0000
0000
0000
,
0110
0000
0000
0000
,
0001
0000
1000
0100
,
0010
0000
0001
0000
,
1000
0000
0000
0000
;

//---------------dance-single - ----------------
#NOTES:
     dance-single:
     :
     Challenge:
     9:
     0.626,0.558,0.204,0.196,0.155:
0000
0000
0000
0000
,
0000
0000
0000
0000
,
0000
0000
0000
0000
,
0000
0000
0000
0000
,
1000
0100
0010
0011
0000
0000
0001
0100
,
0010
0110
0000
0000
0000
0000
0000
0000
,
1000
0001
0100
0101
0000
0000
0010
0000
,
0210
0310
1002
1003
,
1000
0100
0010
0001
0010
0100
0010
1000
,
0010
0000
0100
0000
0010
0000
1000
0000
0001
0100
0001
0000
0101
0000
0000
0000
,
1000
0001
0100
0010
1000
0100
0010
0001
,
0010
0000
0100
0000
0001
0000
1000
0000
0010
0100
0010
0000
0110
0000
0000
0000
,
1000
0001
0100
0010
1000
0100
0010
0001
,
0010
0000
0100
0000
0001
0000
1000
0000
0010
1000
0010
0000
1010
0000
0000
0000
,
0001
1000
0010
0100
0001
1000
0010
0100
,
0001
0000
1000
0001
1000
0000
0100
0000
0010
0000
0000
0000
0000
0000
0000
0000
,
0001
1000
0010
1000
0001
1000
0010
0100
,
0001
0100
0010
1000
0001
0100
0010
1000
,
0001
0010
0100
1000
0100
0010
0001
0010
,
0100
1000
0001
0100
0010
1000
0000
0000
,
0001
1000
0010
1000
0001
0100
0010
0001
,
0010
0100
1000
0100
0010
1000
0010
0000
,
1000
0100
0010
0001
0010
0100
0010
1000
,
0001
0001
1000
1000
0220
0000
0330
0000
,
1000
0100
0001
0100
1000
0100
0001
0100
,
1000
0000
0100
0000
0001
0000
0100
0000
1000
0100
0010
0001
0010
0000
0000
0000
,
0100
0001
0010
0001
0100
0001
0010
0001
,
0100
0000
0001
0000
0010
0000
0001
0000
0100
0001
1000
0010
1000
0000
0000
0000
,
0010
1000
0100
1000
0010
1000
0100
1000
,
0010
0000
1000
0000
0100
0000
1000
0000
0010
1000
0001
0100
0001
0000
0000
0000
,
0001
0010
1000
0010
0001
0010
1000
0010
,
0001
0010
1000
0010
0001
1000
0001
0000
,
1000
0100
1000
0000
0010
0001
0010
0000
,
0100
0001
0100
0000
0010
1000
0010
0000
,
0001
1000
0001
0000
1000
0100
1000
0000
,
0010
0001
0010
0100
1000
0100
0010
0001
,
1100
0000
0120
0000
0130
0000
0010
0210
,
0000
0010
0000
0010
0000
0001
0301
0000
,
0101
0000
1010
0000
0110
0000
0001
2000
,
0000
0001
0000
3010
0000
0010
0100
0000
,
1002
0000
0100
0000
1003
0000
1000
2100
,
0000
0010
0000
0001
0000
0001
3001
0000
,
0102
0000
0103
0000
0120
0000
0130
0120
,
0000
0100
0000
0200
0000
0330
0000
0000
,
0000
1000
1100
0000
0000
1000
0100
0010
,
0001
0010
0100
0010
1000
0001
0101
0000
,
0000
0001
0101
0000
0000
0010
0100
0001
,
1000
0010
0100
0010
1000
1000
1000
0000
,
1100
0000
0010
1000
0010
0000
0001
0100
,
0001
0010
0100
1000
0100
1000
0100
0000
,
1000
0100
0010
0001
0010
0100
0010
1000
,
0001
0000
0100
0000
0010
0000
1000
0000
0010
0000
0100
0000
0010
0000
1000
0001
,
1000
0100
0010
0001
0010
0100
0001
0100
,
0010
0000
1000
0000
0001
0000
0100
0000
0010
0000
1000
0001
1000
0000
0000
0000
,
1000
0100
0010
0001
0010
0100
0001
0100
,
0010
0000
1000
0000
0001
0000
0100
0000
0010
0000
1000
0000
0001
0010
0001
0000
,
0100
0001
1000
0010
1000
0010
1000
0001
,
0100
1000
0100
0010
0001
0010
0100
1000
,
0000
0000
1000
0001
0100
0010
0001
1000
,
0200
0000
0000
1000
0000
0000
0010
0000
0020
0000
0000
0000
0000
0330
0000
0000
,
0001
0000
1000
0000
0010
0000
1000
0000
0001
0000
0000
1000
0000
0000
0000
0000
,
1000
0000
0000
0100
0000
0000
0010
0000
0000
0001
0000
0000
0010
0000
0100
0000
1000
0000
0001
0000
0000
0000
0000
0000
,
1000
0000
0100
0000
0010
0000
0001
0000
0010
0000
0000
1000
0000
0000
0001
1000
,
0001
0000
0010
0000
0100
0000
1000
0000
0001
0000
0100
0001
0100
0000
0000
0000
,
1000
0100
0100
0001
0100
0100
0001
0100
,
0100
0001
1000
0010
1000
1000
1001
0000
,
1000
0100
0010
0001
0010
0100
0010
1000
,
0001
0100
0010
1000
0010
0100
0001
0000
,
1000
0000
0000
0100
0000
0000
0010
0000
0000
0001
0000
0000
0100
0000
0010
1000
,
0001
0000
0000
0100
0000
0000
1000
0000
0000
0100
0000
0000
0010
0000
0001
0100
,
0001
0000
0000
0010
0000
0000
0100
0000
0000
1000
0000
0000
0001
0000
1000
0100
,
1000
0000
0000
0010
0000
0000
0100
0000
0000
0001
0000
0000
1000
0000
0100
0000
,
2000
0000
0000
3100
0000
0000
0020
0000
0000
0031
0000
0000
0100
0000
0010
0000
,
0002
0000
0000
1003
0000
0000
2000
0000
0000
3100
0000
0000
0010
0000
0100
0000
,
0002
0000
1000
0003
0000
2000
0000
0000
3100
0000
0000
0000
0010
0000
0100
0000
,
0002
0000
0003
1000
0000
0000
0200
0000
0300
0010
0000
0000
2000
0000
3100
0000
;

//---------------dance-single - ----------------
#NOTES:
     dance-single:
     :
     Beginner:
     1:
     0.076,0.153,0.000,0.000,0.000: // measure 1
0000
0000
0000
0000
,  // measure 2
0000
0000
0000
0000
,  // measure 3
0000
0000
0000
0000
,  // measure 4
0000
0000
0000
0000
,  // measure 5
1000
0000
0000
0000
,  // measure 6
0000
0000
0000
0000
,  // measure 7
0001
0000
0000
0000
,  // measure 8
0000
0000
0000
0000
,  // measure 9
0100
0000
0000
0000
,  // measure 10
0000
0000
0000
0000
,  // measure 11
1000
0000
0000
0000
,  // measure 12
0000
0000
0000
0000
,  // measure 13
0001
0000
0000
0000
,  // measure 14
0000
0000
0000
0000
,  // measure 15
0100
0000
0000
0000
,  // measure 16
0000
0000
0000
0000
,  // measure 17
0010
0000
0000
0000
,  // measure 18
0000
0000
0000
0000
,  // measure 19
1000
0000
0000
0000
,  // measure 20
0000
0000
0000
0000
,  // measure 21
0001
0000
0000
0000
,  // measure 22
0000
0000
0000
0000
,  // measure 23
1000
0000
0000
0000
,  // measure 24
0000
0000
0000
0000
,  // measure 25
0010
0000
0000
0000
,  // measure 26
0010
0000
0000
0000
,  // measure 27
0100
0000
0000
0000
,  // measure 28
0100
0000
0000
0000
,  // measure 29
1000
0000
0000
0000
,  // measure 30
1000
0000
0000
0000
,  // measure 31
0001
0000
0000
0000
,  // measure 32
0001
0000
0000
0000
,  // measure 33
1000
1000
0000
0001
,  // measure 34
0000
0001
0000
0001
,  // measure 35
0000
0000
0000
0000
,  // measure 36
0000
0000
0000
0000
,  // measure 37
0010
0000
0000
0000
,  // measure 38
0000
0000
0000
0000
,  // measure 39
0100
0000
0000
0000
,  // measure 40
1000
0000
0001
0000
,  // measure 41
1000
0000
0000
0000
,  // measure 42
0000
0000
0000
0000
,  // measure 43
0001
0000
0000
0000
,  // measure 44
0000
0000
0000
0000
,  // measure 45
0000
0010
0000
0100
,  // measure 46
0000
0010
0000
0000
,  // measure 47
0000
1000
0000
0001
,  // measure 48
0000
1000
0000
0000
,  // measure 49
0001
0000
0000
0000
,  // measure 50
1000
0000
0000
0000
,  // measure 51
0100
0000
0000
0000
,  // measure 52
0000
0000
0000
0000
,  // measure 53
0010
0000
0000
0010
,  // measure 54
0000
0000
0010
0000
,  // measure 55
0100
0000
0000
0100
,  // measure 56
0000
0000
0100
0000
,  // measure 57
1000
0000
0000
1000
,  // measure 58
0000
0000
1000
0000
,  // measure 59
0001
0000
0000
0001
,  // measure 60
0000
0000
0000
0000
,  // measure 61
1000
0000
0000
0000
,  // measure 62
0001
0000
0000
0000
,  // measure 63
0100
0000
0000
0000
,  // measure 64
0010
0000
0000
0000
,  // measure 65
1000
0000
0000
0000
,  // measure 66
0001
0000
0000
0000
,  // measure 67
0001
0000
0000
0000
,  // measure 68
0000
0000
0000
0000
,  // measure 69
0100
0000
0000
0000
,  // measure 70
0001
0000
1000
0000
,  // measure 71
1000
0000
0000
0000
,  // measure 72
0001
0000
0000
0000
,  // measure 73
0100
0000
0000
0000
,  // measure 74
1000
0000
0000
0000
,  // measure 75
0001
0000
0000
0000
,  // measure 76
0010
0000
0000
0000
;
