#TITLE:Rise'n Beauty;
#SUBTITLE:;
#ARTIST:Sota feat. Cyborg Akemi;
#TITLETRANSLIT:;
#SUBTITLETRANSLIT:;
#ARTISTTRANSLIT:;
#CREDIT:;
#BANNER:bn.PNG;
#BACKGROUND:bg.PNG;
#LYRICSPATH:;
#CDTITLE:Beatmania IIDX.png;
#MUSIC:risenbeauty.mp3;
#OFFSET:-7.120;
#SAMPLESTART:47.110;
#SAMPLELENGTH:12.000;
#SELECTABLE:YES;
#BPMS:0.000=143.990;
#STOPS:;
#BGCHANGES:;

//---------------dance-single - ----------------
#NOTES:
     dance-single:
     :
     Medium:
     5:
     0.369,0.370,0.076,0.349,0.066:
0000
0000
0000
0000
,
0000
0000
0000
0000
,
0000
0000
0000
0000
,
0000
0000
0000
0000
,
1000
0001
0100
0010
,
2000
3020
0200
0330
,
0001
1000
0001
0010
,
0200
2300
0200
3300
,
0001
1000
0001
0100
,
0010
1000
0010
0100
,
0002
0000
0000
1000
0000
0000
2000
0000
,
0000
0000
0000
3003
,
0001
0000
0100
0010
1000
0000
1001
0000
,
1000
0000
0001
0100
0010
0000
1010
0000
,
0010
0000
0010
0100
0001
0000
1001
0000
,
1000
0000
0001
1000
0010
0000
1010
0000
,
1000
0000
0100
0000
1000
0000
0000
0010
0000
0000
0010
0000
0000
0010
0000
0000
,
0001
0000
0100
0000
0001
0000
0000
0100
0000
0000
0100
0000
0000
0100
0000
0000
,
0010
0000
0100
0000
0010
0000
0000
0100
0000
0000
0100
0000
0000
0100
0000
0000
,
0001
0000
1000
0000
0001
0000
0000
1000
0000
0000
1000
0000
0000
1000
0000
0000
,
0001
0000
0100
0000
0010
0000
0000
1000
0000
0000
1000
0000
0000
1000
0000
0000
,
0010
0000
0100
0000
0001
0000
0000
1000
0000
0000
1000
0000
0000
1000
0000
0000
,
2002
0000
0000
0000
0000
0000
0000
0000
0000
0000
0000
0000
0000
3003
0000
0000
,
0220
0000
0000
0330
,
1000
0000
0001
0100
0001
0000
0010
1000
,
0010
1000
0001
0101
,
0001
0000
0001
1000
0001
0000
0001
0100
,
0010
1000
0100
0010
0002
0000
0013
0000
,
0001
0000
0010
1000
0010
0000
0100
0010
,
0200
0310
2000
3001
,
2000
0000
3002
0000
,
0200
0000
0000
0000
0303
0000
0010
0100
,
0010
0000
1000
0001
0010
0000
1000
0100
,
1000
0100
0010
0011
,
0001
0000
0001
0100
0010
0000
0001
0100
,
1000
0100
0010
0001
0020
0000
0031
0000
,
0100
0000
0010
1000
0001
0000
0010
1000
,
0002
1003
2000
3100
,
0020
0000
1030
1000
0010
0000
0100
0000
,
0020
0000
0030
0000
,
0001
1000
0001
0000
0200
0000
0310
0000
,
0001
1000
0010
0000
0020
0000
0031
0000
,
0002
0000
0000
0000
0200
0000
0000
0303
,
0000
0000
0000
0000
,
0010
1000
0010
0000
0200
0000
0310
0000
,
0001
1000
0010
0000
1000
0000
0001
1000
,
0020
0000
0000
0000
0200
0000
0000
0330
,
0000
0000
0000
0000
0010
0100
0010
0000
,
0001
1000
0001
0000
0200
0000
0310
0000
,
0010
1000
0001
0000
0002
0000
0103
0000
,
0010
1000
0001
0000
0200
0000
0310
0000
,
0010
1000
0002
0000
0100
0000
0103
0000
,
0001
1000
0020
0000
0100
0000
0130
0000
,
0010
1000
0020
0000
0100
0000
0130
0000
,
0001
1000
0020
0000
0100
0000
0130
0000
,
0001
0000
0000
0000
1000
0000
0000
0000
0010
0000
0000
0000
1000
0001
1000
0001
,
0100
0000
0000
0000
;

//---------------dance-single - ----------------
#NOTES:
     dance-single:
     :
     Hard:
     7:
     0.495,0.503,0.170,0.613,0.264:
0000
0000
0000
0000
,
0000
0000
0000
0000
,
0000
0000
0000
0000
,
0000
0000
0000
0000
,
2000
0000
3001
0100
0020
0000
0130
0010
,
2000
0001
0020
3030
,
2000
0000
3100
1000
0010
0000
0001
1000
,
0200
0010
0002
0303
,
2000
0000
3001
0100
0010
0000
0010
1000
,
0002
1003
2000
3100
,
0012
0000
0000
0203
0000
0000
0320
0000
,
1000
0000
1000
0000
1000
1000
1030
0000
,
0010
0000
1000
0000
0010
0000
0001
0100
0000
0010
0000
0000
0100
0000
0000
0000
,
0010
0000
1000
0000
0001
0000
0010
1000
0000
0001
0000
0000
1000
0000
0000
0000
,
0010
0000
1000
0000
0001
0000
0010
1000
0000
0001
0000
0000
0101
0000
0000
0000
,
1000
0000
0001
0000
1000
0000
0010
0100
0000
0010
0000
0000
1001
0000
0000
0000
,
1000
0000
0100
0000
2000
0000
0000
0100
0000
0000
0100
0000
0000
3100
0000
0000
,
0001
0000
0100
0000
0002
0000
0000
0100
0000
0000
0100
0000
0000
0103
0000
0000
,
0010
0000
0001
0000
0200
0000
0000
0010
0000
0000
0010
0000
0000
0310
0000
0000
,
0010
0000
1000
0000
0002
0000
0000
1000
0000
0000
1000
0000
0000
1003
0000
0000
,
0010
0000
1000
0000
0002
0000
0000
0100
0000
0000
0100
0000
0000
0103
0000
0000
,
0001
0000
0010
0000
0200
0000
0000
0010
0000
0000
0010
0000
0000
0310
0000
0000
,
1001
0000
0000
0000
0000
0000
0000
1000
0000
0000
0100
0000
0000
0000
0000
0000
,
0002
0000
0000
0000
2003
3200
0302
0203
,
0320
0000
1030
0010
0100
0000
0010
1000
,
0012
0100
0020
0033
,
0102
0000
0103
0010
2000
0000
3010
0100
,
0120
1000
0002
0033
,
0011
0000
0010
0100
0020
0000
0130
0010
,
1002
0103
1002
1003
,
1002
1000
0100
1000
,
0203
0000
0000
0000
0000
0000
0000
0000
0300
0000
0000
0000
0001
1000
0001
0100
,
0002
0000
1003
0010
0200
0000
0310
1000
,
1020
0100
2000
3030
,
0012
0010
0020
0033
,
0011
1100
0220
0330
,
1002
0000
1003
0001
2000
0000
0010
0000
,
3200
1300
0020
0130
,
0120
0000
1000
0000
,
0002
0000
0000
0000
0000
0000
0000
0000
0033
0000
0000
0000
0001
0010
0100
0010
,
1000
0100
2000
0000
0010
0000
3001
0000
,
0001
0100
0020
0000
0130
0000
0010
1000
,
0001
0000
0000
0001
0000
0000
0002
0000
1000
0000
0000
1000
0000
0000
2000
0000
,
0000
0000
0000
0000
0000
0000
0000
0000
3003
0000
0000
0000
0001
0100
0001
0100
,
0002
0103
0020
1030
,
0020
0000
0130
0000
0010
0000
1000
0001
,
0100
0000
0000
0100
0000
0000
0200
0000
0001
0000
0000
0001
0000
0000
0002
0000
,
0000
0000
0303
0000
0002
0023
0230
2300
,
3001
0000
1000
0000
0010
0000
0010
1000
0000
0010
0000
0010
0100
0000
0000
0000
,
0010
0000
1000
0000
0001
0000
0010
1000
0000
0001
0000
0001
0100
0000
0000
0000
,
0010
0000
1000
0000
0001
0000
0010
1000
0000
0010
0000
0010
1000
0000
0000
0000
,
0010
0000
0100
0000
0001
0000
0001
1000
0000
0010
0000
0001
1000
0000
0000
0000
,
1000
0000
0100
0000
0010
0000
0001
0010
0000
0010
0000
0010
0100
0000
0001
0000
,
1000
0000
0010
0000
0100
0000
0001
0100
0000
0001
0000
0001
0100
0000
0010
0000
,
1000
0000
0001
0000
0100
0000
0010
0100
0000
0001
0000
0010
1000
0000
0010
1000
,
0020
0000
0000
0000
0100
0000
0000
0130
0000
0000
0000
0000
0001
1000
0001
0010
,
0200
0300
0000
0000
0000
0000
0000
0000
0000
0000
0000
0000
0000
0000
0000
0000
;

//---------------dance-single - ----------------
#NOTES:
     dance-single:
     :
     Easy:
     3:
     0.210,0.264,0.028,0.293,0.000:
0000
0000
0000
0000
,
0000
0000
0000
0000
,
0000
0000
0000
0000
,
0000
0000
0000
0000
,
0001
0000
1000
0000
,
0001
1000
0100
0000
,
0001
0000
1000
0000
,
0001
1000
0010
0000
,
0010
0000
0100
0000
,
0010
0100
1000
0000
,
0002
0000
2000
3003
,
0000
0000
0000
0000
,
0001
1000
0001
0100
,
0001
1000
0001
0010
,
1000
0001
1000
0100
,
0001
1000
0001
0010
,
1000
1000
2000
3000
,
0001
0001
0002
0003
,
0100
0100
0200
0300
,
0010
0010
0020
0030
,
1000
0001
2000
3000
,
0001
0100
0002
0003
,
2002
0000
0000
3003
,
2002
0000
0000
3003
,
2000
0000
3001
0000
,
0001
0200
0301
0000
,
1000
0000
0001
0000
,
2000
0100
3100
0000
,
0002
0000
0103
0000
,
0010
1000
0100
0001
,
2000
0000
0100
0000
,
0200
0000
3300
0000
,
0002
0000
1003
0000
,
0010
1000
0010
0000
,
0200
0000
0301
0000
,
1000
1000
1001
0000
,
0002
0000
1003
0000
,
0001
0000
1000
0000
,
0002
0000
0103
0000
,
0020
0000
0030
0000
,
2000
0000
3001
0000
,
0002
0000
0103
0010
,
2000
0000
0200
0000
,
3300
0000
0000
0000
,
0002
0000
0103
0000
,
0020
0000
1030
0000
,
0002
0000
0200
0000
,
0303
0000
0000
0000
,
1000
0000
0001
0000
,
0100
0000
0010
0000
,
1000
0000
0001
0000
,
0001
0000
1000
0000
,
0010
0010
0010
0000
,
1000
0001
0100
0000
,
0010
1000
0001
0000
,
1000
0000
0001
0000
,
1000
0000
0000
0000
;

//---------------dance-single - ----------------
#NOTES:
     dance-single:
     :
     Beginner:
     1:
     0.081,0.132,0.009,0.000,0.000: // measure 1
0000
0000
0000
0000
,  // measure 2
0000
0000
0000
0000
,  // measure 3
0000
0000
0000
0000
,  // measure 4
0000
0000
0000
0000
,  // measure 5
0010
0000
0000
0000
,  // measure 6
0100
0000
0100
0000
,  // measure 7
0010
0000
0000
0000
,  // measure 8
1000
0000
1000
0000
,  // measure 9
0001
0000
0000
0000
,  // measure 10
0100
0000
0000
0000
,  // measure 11
0010
0000
0000
0000
,  // measure 12
0000
0000
0000
0000
,  // measure 13
1000
0000
0000
0000
,  // measure 14
0001
0000
0000
0000
,  // measure 15
0100
0000
0000
0000
,  // measure 16
0010
0000
0000
0000
,  // measure 17
1000
0000
0000
0000
,  // measure 18
1000
0000
0000
0000
,  // measure 19
0001
0000
0000
0000
,  // measure 20
0001
0000
0000
0000
,  // measure 21
0100
0000
0000
0000
,  // measure 22
0100
0000
0000
0000
,  // measure 23
0010
0000
0000
0000
,  // measure 24
0010
0000
0000
0000
,  // measure 25
1000
0000
0000
0000
,  // measure 26
0001
0000
1000
0000
,  // measure 27
0100
0000
0000
0000
,  // measure 28
0010
0000
0100
0000
,  // measure 29
0010
0000
0000
0000
,  // measure 30
1000
0000
0001
0000
,  // measure 31
1000
0000
0000
0000
,  // measure 32
0000
0000
0000
0000
,  // measure 33
0100
0000
0000
0000
,  // measure 34
0010
0000
0010
0000
,  // measure 35
1000
0000
0000
0000
,  // measure 36
0001
0000
0001
0000
,  // measure 37
1000
0000
0000
0000
,  // measure 38
0001
0000
0100
0000
,  // measure 39
0010
0000
0010
0000
,  // measure 40
1000
0000
0000
0000
,  // measure 41
1000
0000
0000
0000
,  // measure 42
0001
0000
0000
0000
,  // measure 43
0100
0000
0000
0000
,  // measure 44
0000
0000
0000
0000
,  // measure 45
0010
0000
0000
0000
,  // measure 46
0000
0000
0000
0000
,  // measure 47
1000
0000
0001
0000
,  // measure 48
0000
0000
0000
0000
,  // measure 49
0100
0000
0000
0000
,  // measure 50
0010
0000
0000
0000
,  // measure 51
1000
0000
0000
0000
,  // measure 52
0001
0000
0000
0000
,  // measure 53
1000
0000
0000
0000
,  // measure 54
0010
0000
0000
0000
,  // measure 55
0100
0000
0000
0000
,  // measure 56
1000
0000
0001
0000
,  // measure 57
1001
0000
0000
0000
;
