#TITLE:Raison d'etre;
#SUBTITLE:;
#ARTIST:Zektbach;
#TITLETRANSLIT:;
#SUBTITLETRANSLIT:;
#ARTISTTRANSLIT:;
#CREDIT:;
#BANNER:bn.png;
#BACKGROUND:bg.png;
#LYRICSPATH:;
#CDTITLE:;
#MUSIC:IIDX 17 SIRIUS Raison d'etre ~~ Zektbach.mp3;
#OFFSET:-0.800;
#SAMPLESTART:35.260;
#SAMPLELENGTH:12.000;
#SELECTABLE:YES;
#BPMS:0.000=155.000,82.000=175.000,186.000=131.250,186.750=131.240,210.000=175.000;
#STOPS:306.000=1.029
;
#BGCHANGES:;

//---------------dance-single - ----------------
#NOTES:
     dance-single:
     :
     Hard:
     8:
     0.513,0.594,0.392,0.262,0.100: // measure 1
0000
0000
0000
0000
,  // measure 2
0000
0000
0000
0000
,  // measure 3
0000
0000
0000
0000
,  // measure 4
0000
0000
0000
0000
,  // measure 5
0000
0000
2200
0000
,  // measure 6
0000
3300
0022
0000
,  // measure 7
0000
0033
0202
0000
,  // measure 8
0000
0303
0220
0000
,  // measure 9
0000
0000
0330
0000
1001
0001
0100
0001
,  // measure 10
0100
0010
0000
0010
0100
0010
0100
0001
,  // measure 11
1000
0100
1000
1100
0011
0001
0010
0001
,  // measure 12
0100
0001
0000
0100
0001
0100
0010
1000
,  // measure 13
0010
0000
1000
0000
0001
0000
0000
0000
0001
0000
0000
0010
0001
0000
0000
0001
,  // measure 14
0100
0000
0000
0100
0010
0000
0000
0010
1000
0000
0000
1000
0100
0000
0000
0100
,  // measure 15
0010
0000
0000
0010
0001
0000
0000
0001
1000
0000
0000
1000
0001
0000
0000
0001
,  // measure 16
1000
0000
0000
1000
0001
0000
0000
0001
0100
0000
0000
0010
0100
0000
0000
0010
,  // measure 17
1000
0000
0000
1000
0100
0000
0000
0000
0011
0000
0001
0000
0001
0000
0010
0000
,  // measure 18
0001
0100
0000
0001
1000
0010
1000
0001
,  // measure 19
1000
0100
0010
0011
1100
1000
0001
0100
,  // measure 20
0010
0010
0000
1000
0001
0100
0001
0010
,  // measure 21
0100
1000
0001
0000
0110
0000
0000
0000
,  // measure 22
0000
0000
0000
0000
,  // measure 23
0000
0000
0001
0100
,  // measure 24
0000
0001
0100
0010
1000
0000
1000
0000
,  // measure 25
0000
1000
0001
0100
0001
0000
0001
0000
,  // measure 26
0000
0010
0001
0100
0001
0000
0100
0000
,  // measure 27
0000
0001
1000
0010
1000
0000
1000
0000
,  // measure 28
0000
0010
1000
0010
0100
0000
0100
0000
,  // measure 29
0000
0010
1000
0001
0100
0000
0101
0000
,  // measure 30
0000
0001
1000
0010
1000
0000
1010
0000
,  // measure 31
0000
1000
0010
0100
0001
0000
0000
0000
,  // measure 32
1000
0000
0000
0000
0000
0000
0100
0010
0100
0000
0000
0000
0110
0000
0000
0000
,  // measure 33
0000
1000
1001
0000
,  // measure 34
0010
0000
0000
0000
0000
0000
0001
1000
0100
0000
0000
0000
0110
0000
0000
0000
,  // measure 35
0000
0001
0102
0000
,  // measure 36
0000
0000
0000
0000
0000
0003
0100
0001
0100
0000
0000
0000
0101
0000
0000
0000
,  // measure 37
0000
0000
0120
0000
,  // measure 38
0000
0000
2000
0000
,  // measure 39
0000
3030
0002
0010
,  // measure 40
0103
0100
0120
1000
,  // measure 41
0130
0000
1000
0000
0001
0100
0020
0000
,  // measure 42
1000
0100
2030
3001
,  // measure 43
0200
0000
0301
0010
0200
0000
0010
0000
,  // measure 44
0310
0000
1000
0001
0200
0000
0010
0000
,  // measure 45
0310
0000
0010
1000
0002
0000
0010
0000
,  // measure 46
0013
0000
1000
0001
0200
0000
0010
0000
,  // measure 47
0310
0000
1000
0001
1100
0000
0000
0000
,  // measure 48
0000
0000
0000
0000
0000
0000
0000
1001
0000
0000
0000
0000
0000
0000
0000
0000
,  // measure 49
0101
0000
0000
0000
0000
0000
0000
0000
0000
0000
0000
0000
0000
0000
0000
0011
,  // measure 50
0000
0000
1100
0000
,  // measure 51
0000
0000
0000
0000
0000
0000
0000
1001
0000
0000
0000
0000
0000
0000
0000
0000
,  // measure 52
1100
0000
0000
0000
0000
0000
0000
0000
0000
0000
0000
0000
0000
0000
0000
0101
,  // measure 53
0000
0000
0000
0000
0010
1000
0101
0000
,  // measure 54
0001
0100
0000
0010
0000
0100
0000
0010
,  // measure 55
1000
0001
1000
0000
0010
1000
0010
0000
,  // measure 56
0010
0100
0010
0000
0001
0100
0010
1000
,  // measure 57
0100
1000
0010
0000
0010
0000
1010
0000
,  // measure 58
0010
0100
0001
0200
0000
0001
0000
0001
,  // measure 59
0000
0301
0100
0000
0001
0010
0001
0000
,  // measure 60
0001
1000
0010
0000
0001
1000
0001
0100
,  // measure 61
0010
1000
0010
1000
0001
1000
0100
0010
0001
0000
1000
0000
0001
0000
0000
0000
,  // measure 62
0010
1000
0010
0000
0100
0010
0100
0000
,  // measure 63
0001
0100
0001
0000
0001
0100
0010
0000
,  // measure 64
0010
1000
0100
0000
0100
1000
0010
0000
,  // measure 65
0010
1000
0001
0000
1001
0000
0101
0000
,  // measure 66
0002
0000
0100
0100
0103
0000
1001
0000
,  // measure 67
0001
1000
0100
1000
0010
0000
1010
0000
,  // measure 68
1010
1010
0020
2030
,  // measure 69
3002
0103
0101
0011
,  // measure 70
1001
1010
1001
1100
,  // measure 71
1000
0100
0010
0001
0011
0000
0011
0000
,  // measure 72
0110
0000
1001
0001
1000
0000
0010
0000
,  // measure 73
1000
0010
0120
2030
,  // measure 74
3002
0000
0203
0000
0302
0000
0103
0001
,  // measure 75
0010
0001
1000
0010
1000
0000
0001
1000
,  // measure 76
0100
0000
0001
1000
0010
1000
0001
1000
,  // measure 77
0100
0010
1001
0000
0110
0000
1000
0000
,  // measure 78
0001
0100
0000
0100
0000
0010
0100
0000
,  // measure 79
0010
1000
0000
0010
0000
0010
1000
0000
,  // measure 80
0100
0010
0000
0010
0000
0010
0001
0000
,  // measure 81
0001
0100
0000
0010
0000
0010
0100
0000
,  // measure 82
0010
1000
0000
1001
0000
0001
1000
0000
,  // measure 83
0001
0100
0000
0110
0000
1000
0010
0000
,  // measure 84
2000
0010
0000
0010
0000
3010
0200
0000
,  // measure 85
0010
0010
0000
0010
0000
0310
0200
0000
,  // measure 86
0000
0002
0000
0303
;

//---------------dance-single - ----------------
#NOTES:
     dance-single:
     :
     Medium:
     5:
     0.324,0.429,0.139,0.439,0.015: // measure 1
0000
0000
0000
0000
,  // measure 2
0000
0000
0000
0000
,  // measure 3
0000
0000
0000
0000
,  // measure 4
0000
0000
0000
0000
,  // measure 5
0000
0000
2002
0000
,  // measure 6
0000
3003
2002
0000
,  // measure 7
0000
3003
0220
0000
,  // measure 8
0000
0330
0220
0000
,  // measure 9
0000
0000
0330
0000
0001
1000
0001
1000
,  // measure 10
0001
0100
0000
0000
0001
0000
1000
0000
,  // measure 11
0010
0000
0100
0100
0110
0000
0010
0000
,  // measure 12
0100
0010
0000
0010
0100
0000
0010
0000
,  // measure 13
1000
0001
2000
0000
,  // measure 14
0000
0000
3002
0000
,  // measure 15
0000
0000
0203
0000
,  // measure 16
0000
0000
0320
0000
,  // measure 17
0000
0000
0000
0000
1030
0010
1000
0010
,  // measure 18
1000
0010
0000
0010
0100
0000
0100
0000
,  // measure 19
0010
0000
0010
1000
1001
0000
0001
0000
,  // measure 20
1000
1000
0000
0001
0100
0000
0010
0000
,  // measure 21
1000
0001
0100
0000
0110
0000
0000
0000
,  // measure 22
0000
0000
0000
0000
,  // measure 23
0000
0000
0010
2000
,  // measure 24
0000
3000
0100
1000
0200
0000
0000
0000
,  // measure 25
0000
1300
0000
0000
0010
2000
0002
0000
,  // measure 26
0000
0000
0000
0000
,  // measure 27
0000
3003
0001
0100
,  // measure 28
0000
0000
0010
0100
0020
0000
0000
0000
,  // measure 29
0000
0130
0000
0000
0001
2000
0020
0000
,  // measure 30
0000
0000
0000
0000
,  // measure 31
0000
3030
0002
0000
,  // measure 32
2003
0000
0200
0000
,  // measure 33
3300
0020
0002
0000
,  // measure 34
0000
0000
0000
0033
,  // measure 35
0000
0001
0002
0000
,  // measure 36
0000
0000
2003
0000
,  // measure 37
0010
0000
0020
0000
,  // measure 38
3000
0000
0200
0000
,  // measure 39
0000
0330
0002
0000
,  // measure 40
0000
0000
0103
0001
0200
0000
0000
0000
,  // measure 41
0000
0000
0310
0000
0010
1000
0002
0000
,  // measure 42
0000
1003
0002
0000
,  // measure 43
1003
0001
0100
0001
0200
0000
0010
0000
,  // measure 44
0010
0000
0310
1000
0020
0000
0000
0000
,  // measure 45
1030
0001
0200
0000
,  // measure 46
0000
0000
0002
0000
,  // measure 47
0000
0303
1001
0000
,  // measure 48
0000
0000
0000
0000
0000
0000
0000
0001
0000
0000
0000
0000
0000
0000
0000
0000
,  // measure 49
0001
0000
0000
0000
0000
0000
0000
0000
0000
0000
0000
0000
0000
0000
0000
1000
,  // measure 50
0000
0000
1000
0000
,  // measure 51
0000
0000
0000
0000
0000
0000
0000
0010
0000
0000
0000
0000
0000
0000
0000
0000
,  // measure 52
0010
0000
0000
0000
0000
0000
0000
0000
0000
0000
0000
0000
0000
0000
0000
0100
,  // measure 53
0000
0000
0200
0310
,  // measure 54
0000
0010
0000
0100
0000
0010
0000
1000
,  // measure 55
0002
0000
2003
0000
,  // measure 56
3020
0000
0230
0000
,  // measure 57
0320
0000
0000
0000
1030
0000
0001
1000
,  // measure 58
0000
0001
0000
0100
0000
0001
0000
0100
,  // measure 59
0000
0010
0100
0000
0010
0100
0000
0010
,  // measure 60
0000
1000
0001
0000
1000
0002
0000
0100
,  // measure 61
0000
0010
0003
0100
0000
0000
0101
0000
,  // measure 62
0000
1100
0000
0110
,  // measure 63
0000
1010
0000
0101
,  // measure 64
0000
1100
0000
0011
,  // measure 65
0000
0110
0000
0020
,  // measure 66
0200
0330
0000
2100
,  // measure 67
0200
0000
0000
3300
0000
0000
0011
0000
,  // measure 68
0002
0000
0103
0010
,  // measure 69
1000
0000
0010
0010
,  // measure 70
0100
0100
0010
0010
,  // measure 71
0010
1000
0001
1000
0001
0000
0001
0000
,  // measure 72
0001
0000
0001
1000
0100
0000
0100
0000
,  // measure 73
1000
0010
0200
0010
,  // measure 74
0310
0000
0010
1000
0010
0000
0010
0100
,  // measure 75
0001
1000
0001
0100
0001
0000
0001
0000
,  // measure 76
0100
0001
0010
0100
,  // measure 77
1000
0001
0000
0002
,  // measure 78
0000
0000
0000
2003
,  // measure 79
0000
0000
0000
3020
,  // measure 80
0000
0000
0000
0230
,  // measure 81
0000
0000
0000
0300
,  // measure 82
0010
0100
0000
0010
0000
1000
0000
0000
,  // measure 83
0001
1000
0000
0001
0000
0100
0000
0000
,  // measure 84
0001
0020
0000
0001
0000
0031
0000
0000
,  // measure 85
1000
0200
0000
1000
0000
1300
0200
0000
,  // measure 86
0000
2000
0000
3300
;

//---------------dance-double - ----------------
#NOTES:
     dance-double:
     :
     Challenge:
     8:
     0.478,0.594,0.585,0.377,0.031:
00000000
00000000
00000000
00000000
,
00000000
00000000
00000000
00000000
,
00000000
00000000
00000000
00000000
,
00000000
00000000
00000000
00000000
,
00000000
00000000
02020000
00000000
,
00000000
03030000
00022000
00000000
,
00000000
00033000
00002200
00000000
,
00000000
00003300
00000202
00000000
,
00000000
00000000
00000303
00000000
00001001
00000001
00000100
00000010
,
00000100
00000100
00000000
00000010
00001000
00000100
00010000
00001000
,
00100000
00010000
01000000
10100000
10010000
10000000
00010000
10000000
,
00010000
01000000
00000000
00010000
00100000
01000000
10000000
00010000
,
01000000
00100000
00010000
00000000
00202000
00000000
00000000
00000000
,
00000000
00303000
00020200
00000000
,
00000000
00030300
00002002
00000000
,
00000000
00003003
00020020
00000000
,
00000000
00000000
00030030
00000000
00001100
00001000
00000100
00000010
,
00000001
00000001
00000000
00000001
00001000
00000010
00000100
00000010
,
00000100
00001000
00000100
00001100
00011000
00000000
00110000
00000000
,
10000000
00010000
01000000
00000000
10000000
00010000
01000000
00100000
,
10000000
00100000
01010000
00000000
,
00000000
00000000
00000000
00000000
,
00000000
00000000
10000000
10010000
,
00000000
10000000
01000000
00100000
00010000
00000000
00011000
00000000
,
00000000
00000100
00000010
00000001
00001000
00000000
00001100
00000000
,
00000000
00000001
00000010
00000100
00001000
00000000
00011000
00000000
,
00000000
00010000
10000000
01000000
00100000
00000000
01100000
00000000
,
00000000
00100000
00001000
00010000
00001000
00000000
00011000
00000000
,
00000000
00001000
00000001
00000100
00000010
00000000
00000110
00000000
,
00000000
00000001
00000010
00000100
00001000
00000000
01010000
00000000
,
00000000
10000000
00010000
01000000
00200000
00000000
00000000
00000000
,
20300000
00000000
00020000
00000000
,
30030000
02000000
00002000
00000000
,
00000000
00000000
00000000
03003000
,
00000000
00020000
00032000
00000000
,
00000000
00003000
00010000
00000000
,
00000100
00000000
00000012
00000000
,
00000000
00000000
00000200
00000000
,
00000303
00000000
00000000
00000000
00000010
00000010
00001000
00000000
,
00000001
00000001
00000010
00000000
00000010
00000010
00000100
00000000
,
00000100
00000100
00010000
00000000
00001000
00001000
00100000
00000000
,
00100000
00100000
01000000
00000000
00010000
00010000
01000000
00000000
,
10000000
00010000
01000000
00010000
00200000
00000000
00001000
00000000
,
00301000
00000000
00010000
01000000
00200000
00000000
10000000
00000000
,
10300000
00000000
00010000
10000000
02000000
00000000
00100000
00000000
,
00100000
03100000
02000000
00010000
,
00010000
03010000
00011000
00000000
,
00000000
00000000
00000000
00000000
00000000
00000000
00000000
11000000
00000000
00000000
00000000
00000000
00000000
00000000
00000000
00000000
,
00011000
00000000
00000000
00000000
00000000
00000000
00000000
00000000
00000000
00000000
00000000
00000000
00000000
00000000
00000000
00000011
,
00000000
00000000
00011000
00000000
,
00000000
00000000
00000000
00000000
00000000
00000000
00000000
01000100
00000000
00000000
00000000
00000000
00000000
00000000
00000000
00000000
,
00011000
00000000
00000000
00000000
00000000
00000000
00000000
00000000
00000000
00000000
00000000
00000000
00000000
00000000
00000000
01000100
,
00000000
00000000
00000000
00000000
00011000
00010000
00010000
00000000
,
00000000
01010000
00000000
10010000
00000000
10000000
01000000
00100000
,
00020000
00130000
00200000
00301000
,
00020000
00030100
00002000
00003100
,
00000200
00000000
00000310
00000000
00000002
00000000
00000103
00000010
,
00000000
00000110
00000000
00001100
00000000
00011000
00000000
00110000
,
00000000
01100000
00000000
10010000
00000000
11000000
00000000
00110000
,
00000000
10010000
10000000
00010000
01000000
10000000
00010000
10000000
,
00010000
00100000
10000000
01000000
10000000
01000000
00100000
00010000
01000000
00000000
00000000
00000000
00100000
00000000
00000000
00000000
,
00000000
00001000
00000000
00000001
,
00000000
00000100
00000000
00010000
,
00000000
10000000
00000000
00010000
,
00000000
01000000
00000000
00000200
,
00002000
00003300
00000000
00020000
,
00002000
00000000
00033000
00000000
10000000
00010000
01010000
00000000
,
00001000
00000100
00001100
00000000
00001100
00000000
00001100
00000000
,
01010000
01010000
00200000
01300000
,
20000000
31000000
00020000
01030000
,
01000000
00001000
00100000
00001000
00011000
00000000
00001100
00000000
,
00000011
00000000
00000001
00000100
00000010
00000000
00000110
00000000
,
00001000
00001010
00010100
00011000
,
00101000
00000000
00010000
00100000
01000000
00000000
11000000
00000000
,
01100000
00000000
00010000
10000000
11000000
00000000
01100000
00000000
,
00110000
00011000
00001100
00000110
,
00000101
00000110
00001001
00000100
,
00020000
00001000
00000000
00001000
00000000
00031000
00010000
00000000
,
00000100
00010000
00000000
00001000
00000000
00100000
01000000
00000000
,
10000000
00020000
00000000
01000000
00000000
01030000
00010000
00000000
,
00010000
00200000
00000000
00010000
00000000
00310000
00100000
00000000
,
10000000
00020000
00000000
00100000
00000000
00130000
00000000
00000000
,
20000000
01000000
00000000
01000000
00000000
31000000
00000000
00000000
,
00010000
00110000
00000000
00011000
00000000
00110000
00000000
00000000
,
00000100
00001100
00000000
00011000
00000000
00110000
00200000
00000000
,
00000000
00002000
00000000
00303000
;

//---------------dance-single - ----------------
#NOTES:
     dance-single:
     :
     Easy:
     3:
     0.223,0.391,0.154,0.162,0.000: // measure 1
0000
0000
0000
0000
,  // measure 2
0000
0000
0000
0000
,  // measure 3
0000
0000
0000
0000
,  // measure 4
0000
0000
0000
0000
,  // measure 5
0000
0000
0101
0000
,  // measure 6
0000
0000
1100
0000
,  // measure 7
0000
0000
0110
0000
,  // measure 8
0000
0000
1001
0000
,  // measure 9
0000
0000
1100
1000
,  // measure 10
1000
0000
0001
0100
,  // measure 11
0010
1000
1010
0010
,  // measure 12
0010
0000
1000
0001
,  // measure 13
0100
0000
0101
0000
,  // measure 14
0000
0000
0110
0000
,  // measure 15
0000
0000
1010
0000
,  // measure 16
0000
0000
1100
0000
,  // measure 17
0000
0000
0011
0001
,  // measure 18
0001
0000
1000
0001
,  // measure 19
0100
0010
1010
0010
,  // measure 20
0010
0000
1000
0001
,  // measure 21
0100
0010
1010
0000
,  // measure 22
0000
0000
0000
0000
,  // measure 23
0000
0000
1000
0001
,  // measure 24
0000
1000
0001
0000
,  // measure 25
0000
0100
0010
2000
,  // measure 26
0000
0000
0000
0000
,  // measure 27
0000
3000
0001
1000
,  // measure 28
0000
0100
1000
0000
,  // measure 29
0000
0010
0001
0200
,  // measure 30
0000
0000
0000
0000
,  // measure 31
0000
0300
0001
0000
,  // measure 32
1000
0000
0100
0000
,  // measure 33
0000
0010
0010
0000
,  // measure 34
0000
0000
0000
0000
,  // measure 35
0000
0001
0001
0000
,  // measure 36
0000
0000
1000
0000
,  // measure 37
0001
0000
0100
0000
,  // measure 38
0000
0000
0010
0000
,  // measure 39
0000
0000
1001
0000
,  // measure 40
0000
1000
2000
0000
,  // measure 41
3000
0001
0100
0200
,  // measure 42
0000
0000
0002
0000
,  // measure 43
0303
0001
0002
0000
,  // measure 44
0003
1000
2000
0000
,  // measure 45
3010
0010
0020
0000
,  // measure 46
0000
0000
2000
0000
,  // measure 47
0000
0000
3030
0000
,  // measure 48
0000
0000
0000
0000
,  // measure 49
1001
0000
0000
0000
,  // measure 50
0000
0000
0101
0000
,  // measure 51
0000
0000
0000
0000
,  // measure 52
0011
0000
0000
0000
,  // measure 53
0000
0000
1000
1000
,  // measure 54
0000
0001
0000
1000
0000
0001
0000
0100
,  // measure 55
0000
0001
0000
0000
1000
0000
0000
0000
,  // measure 56
1000
0000
0001
0000
,  // measure 57
0001
0000
1000
1000
,  // measure 58
0000
0001
0000
0100
0000
0010
0000
1000
,  // measure 59
0000
0010
0000
0100
0000
0010
0000
1000
,  // measure 60
0000
0001
0000
1000
0000
0100
0000
0010
,  // measure 61
0000
0001
0000
0000
0000
0000
1000
0000
,  // measure 62
0000
1000
0000
0001
,  // measure 63
0000
0001
0000
0100
,  // measure 64
0000
0100
0000
0010
,  // measure 65
0000
0010
0000
1000
,  // measure 66
2000
3000
0000
0001
,  // measure 67
0002
0003
0000
0100
,  // measure 68
0200
0000
0010
0000
,  // measure 69
0310
0000
1000
0001
,  // measure 70
0100
0010
1000
0001
,  // measure 71
1000
1000
0100
1000
,  // measure 72
0100
0001
0100
0010
,  // measure 73
1000
0001
2000
0100
,  // measure 74
3100
0000
0001
0100
0001
0000
0100
0000
,  // measure 75
0010
1000
1001
0010
,  // measure 76
1001
0100
1001
1000
,  // measure 77
1000
1000
0000
0002
,  // measure 78
0000
0000
0000
2003
,  // measure 79
0000
0000
0000
3020
,  // measure 80
0000
0000
0000
0230
,  // measure 81
0000
0000
0000
0302
,  // measure 82
0000
0000
0000
2003
,  // measure 83
0000
0000
0000
3200
,  // measure 84
0000
0000
0000
2300
,  // measure 85
0000
0000
0000
3000
;

//---------------dance-single - ----------------
#NOTES:
     dance-single:
     :
     Beginner:
     1:
     0.085,0.161,0.031,0.000,0.000:
0000
0000
0000
0000
,
0000
0000
0000
0000
,
0000
0000
0000
0000
,
0000
0000
0000
0000
,
0000
0000
0010
0000
,
0000
0000
0010
0000
,
0000
0000
0010
0000
,
0000
0000
0010
0000
,
0000
0000
0110
0000
,
0000
0000
0000
0000
,
0000
0000
1000
0000
,
0000
0000
0000
0000
,
0000
0000
0001
0000
,
0000
0000
0001
0000
,
0000
0000
0001
0000
,
0000
0000
0001
0000
,
0000
0000
1001
0000
,
0000
0000
0000
0000
,
0000
0000
0010
0000
,
0000
0000
0000
0000
,
0000
0000
0000
0000
,
0000
0000
0000
0000
,
0000
0000
1000
0000
,
0000
0000
0001
0000
,
0000
0000
0100
0000
,
0000
0000
0000
0000
,
0000
0000
0010
0000
,
0000
0000
1000
0000
,
0000
0000
0001
0000
,
0000
0000
0000
0000
,
0000
0000
0110
0000
,
0000
0000
0000
0000
,
0000
0000
0010
0000
,
0000
0000
0000
0000
,
0000
0000
1000
0000
,
0000
0000
0000
0000
,
0000
0000
0001
0000
,
0000
0000
0000
0000
,
0000
0000
1000
0000
,
0000
0000
0010
0000
,
0000
0000
0100
0000
,
0000
0000
0000
0000
,
0000
0000
0001
0000
,
0000
0000
1000
0000
,
0000
0000
0100
0000
,
0000
0000
0010
0000
,
0000
0000
1001
0000
,
0000
0000
0000
0000
,
0000
0000
0000
0000
,
0000
0000
0000
0000
,
0000
0000
0000
0000
,
0000
0000
0000
0000
,
0000
0000
0010
0010
,
0000
0000
0000
0000
,
1000
0000
1000
0000
,
0000
0000
0000
0000
,
0001
0000
0100
0100
,
0000
0000
0010
0000
,
0010
0000
0010
0000
,
0000
0000
1000
0000
,
0000
0000
0000
0001
,
0000
0001
0000
0001
,
0000
0001
0000
1000
,
0000
1000
0000
1000
,
0000
1000
0000
0010
,
0010
0000
0000
0100
,
0100
0000
0010
0000
,
0010
0000
0010
0000
,
0010
0000
1000
0000
,
0000
0000
0001
0000
,
0000
0000
0100
0000
,
0000
0000
0010
0000
,
0000
0000
1000
0000
,
0000
0000
1000
0000
,
0000
0000
0001
0000
,
0000
0000
0001
0000
,
0000
0000
0000
0100
,
0000
0000
0000
0010
,
0000
0000
0000
1000
,
0000
0000
0000
0001
,
0000
0000
0000
1000
,
0000
0000
0000
0010
,
0000
0000
0000
0100
,
0000
0000
0000
0001
;
