#TITLE:Radius;
#SUBTITLE:;
#ARTIST:Yasuhiro Abe;
#TITLETRANSLIT:;
#SUBTITLETRANSLIT:;
#ARTISTTRANSLIT:;
#CREDIT:Kyon;
#BANNER:bn.PNG;
#BACKGROUND:bg.PNG;
#LYRICSPATH:;
#CDTITLE:15 trooper.png;
#MUSIC:Radius.mp3;
#OFFSET:-1.220;
#SAMPLESTART:89.240;
#SAMPLELENGTH:12.000;
#SELECTABLE:YES;
#BPMS:0.000=150.000;
#STOPS:;
#BGCHANGES:;

//---------------dance-single - ----------------
#NOTES:
     dance-single:
     :
     Hard:
     8:
     0.541,0.535,0.326,0.310,0.347:
0000
0000
0000
0000
,
0000
0000
0000
0000
,
0000
0000
0000
0000
,
0000
0000
0000
0000
,
0001
0100
0010
0000
0100
0000
0010
0000
,
1000
0001
0010
0001
,
0100
0010
1000
0100
,
0010
1001
0100
1001
,
0010
1001
0100
0101
,
0100
0110
1000
1100
,
0001
1000
0100
0000
1000
0000
0100
0000
,
0010
0001
0100
0010
,
1000
0000
0000
0000
0001
0000
0000
1000
0000
0000
0001
0000
0100
0000
0000
0010
,
0000
0000
0100
0000
0010
0000
0000
1000
0000
0000
0001
0000
0100
0000
0000
0010
,
0000
0000
1000
0000
0100
0000
0000
0010
0000
0000
0001
0000
1000
0000
0000
0001
,
0000
0000
0100
0000
0010
0000
0000
0100
0000
0000
0010
0000
1000
0000
0000
0001
,
0000
0000
0001
0000
1000
0000
0000
0100
0000
0000
0010
0000
0001
0000
0000
0100
,
0000
0000
0010
0000
1000
0000
0000
0001
0000
0000
0100
0000
0010
0000
0000
0100
,
0000
0000
0010
0000
1000
0000
0000
0001
0000
0000
1000
0000
0100
0000
0000
1000
,
0000
0000
0001
0000
0100
0000
0000
0001
0000
0000
0010
0000
0100
0000
0000
1000
,
0000
0000
0001
0000
2000
0000
0000
3001
0000
0000
0100
0000
0020
0000
0000
1030
,
0000
0000
0001
0000
0020
0000
0000
0031
0000
0000
0010
0000
0200
0000
0000
1300
,
0000
0000
0001
0000
0200
0000
0000
0310
0000
0000
1000
0000
0002
0000
0000
0103
,
0000
0000
0010
0000
2000
0000
0000
3100
0000
0000
0001
0000
0010
0000
0000
0000
,
0011
0000
0000
0000
0002
0000
0000
0100
0003
0000
0010
0000
2000
0000
0000
0001
,
3000
0000
1000
0000
0200
0000
0000
1000
0300
0000
0001
0000
0200
0000
0000
0010
,
0300
0000
0100
0000
0020
0000
0000
1000
0030
0000
0001
0000
0020
0000
0000
0001
,
0030
0000
0001
0000
0020
0000
0000
0100
0030
0000
1000
0000
0002
0000
0000
0100
,
0003
0000
0001
0000
0000
0000
1000
0000
0200
0000
0000
0000
1000
0000
0000
1000
,
0000
0000
1300
0000
1000
0000
0001
0000
0200
0000
0000
0000
0010
0000
0000
0010
,
0000
0000
0310
0000
0100
0000
0000
0000
0010
0000
0000
0000
1001
0000
0000
1001
,
0000
1001
1001
0000
0001
0000
0100
0000
,
0010
0000
1000
0001
1000
0000
0001
0000
1000
0000
0001
0000
1000
0000
0001
0000
,
1000
0001
0100
0001
0100
0001
0100
0001
,
0100
0001
0100
0010
0100
0010
1000
0010
,
1000
0010
1000
0100
0010
0001
0100
0001
,
1000
0000
0010
0000
1000
0000
0000
1000
0000
0000
1000
0000
1000
0000
0000
1000
,
0000
0000
0001
0000
0001
0000
0000
0001
0000
0000
0001
0000
0001
0000
0000
0001
,
0000
0000
0001
0000
0100
0000
0000
0100
0000
0000
0100
0000
0100
0000
0000
0100
,
0000
0000
0100
0000
0010
0000
0000
0010
0000
0000
0010
0000
0010
0000
0000
0010
,
0000
0000
0010
0000
1000
0000
0000
0010
0000
0000
0100
0000
0010
0000
0000
0100
,
0000
0000
0010
0000
1000
0000
0000
0001
0000
0000
1000
0000
0001
0000
0000
1000
,
0000
0000
0001
0000
0100
0000
0000
0001
0000
0000
0100
0000
0010
0000
0000
1000
,
0000
0000
0100
0000
0010
0000
0000
0100
0000
0000
0010
0000
0001
0000
0000
0001
,
0000
1000
0002
0000
0000
0000
2003
0000
,
0000
3020
0000
0230
,
0000
0000
0301
1000
0001
0100
0001
0000
,
0001
0010
0002
0000
0000
0013
0001
0010
,
0100
1000
0200
0000
1300
0000
0010
0100
,
0010
0100
0110
0000
1001
0000
0001
0100
,
1000
0000
1001
0000
0000
0001
0010
1000
,
0010
0001
0010
0000
0000
0001
0100
0010
,
1000
0010
2000
0000
3001
0000
0020
0000
,
0031
0200
0010
0002
,
0303
0000
0000
0000
1001
0000
0000
1000
0000
0000
0100
0000
1100
0000
0000
1000
,
0000
0000
0010
0000
0011
0000
0000
0001
0000
0000
0100
0000
0101
0000
0000
0100
,
0000
0000
0010
0000
0110
0000
0000
0010
0000
0000
1000
0000
1001
0000
0000
1000
,
0000
0000
1000
0000
1100
0000
0000
0100
0000
0000
0010
0000
0011
0000
0000
0001
,
0000
0000
0001
0000
0101
0000
0000
0100
0000
0000
0010
0000
0110
0000
0000
1000
,
0000
0000
0001
0000
1001
0000
0000
1000
0000
0000
0100
0000
1100
0000
0000
1000
,
0000
0000
0001
0000
0011
0000
0000
0001
0000
0000
0100
0000
0110
0000
0000
1000
,
0000
0000
0001
0000
0101
0000
0000
0100
0000
0000
0010
0000
0110
0000
0000
1000
,
0000
0000
0001
0000
2100
0000
0000
0100
0000
0000
0100
0000
0100
0000
0000
0100
,
3000
0000
0100
0000
0102
0000
0000
0100
0000
0000
0100
0000
0100
0000
0000
0100
,
0003
0000
0010
0000
0120
0000
0000
0100
0000
0000
0100
0000
0100
0000
0000
0100
,
0030
0000
0001
0000
1002
0000
0000
1000
0000
0000
1000
0000
1000
0000
0000
1000
,
0003
0000
1000
0000
2100
0000
0000
0100
0000
0000
0100
0000
0100
0000
0000
0100
,
3000
0000
1000
0000
1020
0000
0000
1000
0000
0000
1000
0000
1000
0000
0000
1000
,
0030
0000
0100
0000
0102
0000
0000
0100
0000
0000
0100
0000
0100
0000
0000
0100
,
0003
0000
0100
0000
0210
0000
0000
0010
0000
0000
0010
0000
0010
0000
0000
0010
,
0300
0010
2002
0000
0000
0000
0000
0000
,
3003
0000
0000
0000
;

//---------------dance-single - ----------------
#NOTES:
     dance-single:
     :
     Medium:
     5:
     0.471,0.502,0.402,0.837,0.000:
0000
0000
0000
0000
,
0000
0000
0000
0000
,
0000
0000
0000
0000
,
0000
0000
0000
0000
,
1000
0001
0100
0000
0100
0000
0010
0000
,
1000
1001
0001
0101
,
0001
0000
2000
0000
0000
0010
3010
0000
,
0010
1000
0010
0100
,
0001
1001
0001
0101
,
0100
0110
0010
1010
,
0010
0100
0001
0000
0001
0000
1000
0000
,
1000
0001
1000
0100
,
0010
0012
0010
0010
,
0013
1200
1000
1000
,
1300
0210
0010
0010
,
0310
1002
1003
2001
,
3001
2100
3010
0102
,
0013
2001
3100
1002
,
0103
2001
0100
0001
,
0100
0010
0010
0010
,
3010
1020
1000
1000
,
1030
0201
0001
0001
,
0301
0021
0001
0001
,
0031
0001
1000
0001
,
0001
0100
0020
0000
0000
0000
0230
0000
,
0000
0320
0000
2030
,
0000
3002
0203
0320
,
2030
3002
1000
1000
,
1003
0000
0001
0200
0002
0000
0000
0000
,
0303
0000
0001
1000
0002
0000
0200
0000
,
0000
0303
0001
0000
0100
0000
0020
0000
,
0000
0200
0000
0000
,
0330
0000
0010
0100
0010
0000
1000
0000
,
0010
0000
0010
1000
0100
0000
1000
0000
,
0100
0000
1000
0100
0010
0000
0001
1000
,
0001
0000
0001
0100
0001
0000
1000
0001
,
0100
0102
0100
0100
,
0100
0010
0010
0010
,
0010
1000
1000
1000
,
1000
0100
0100
0100
,
0103
2001
0100
0100
,
0100
0001
0001
0001
,
0001
0010
0010
0010
,
0010
0100
0100
0100
,
3100
2000
0000
3002
,
0000
0203
0000
0320
,
0000
0000
1030
0010
2000
0000
0010
0000
,
3100
0000
1100
0000
0000
0000
1000
0001
,
0100
0000
0101
0000
0101
0000
0001
0100
,
0001
0002
1000
0020
,
0033
0000
0011
0000
0000
0000
0010
0001
,
0010
0000
0011
0000
0000
0000
0001
1000
,
0001
1002
1000
1000
,
1000
1000
1000
2000
,
3003
2200
3300
0022
,
0033
0202
0303
0220
,
0330
2020
3030
0202
,
0303
2002
3003
2200
,
3300
0022
0033
2002
,
3003
0202
0303
0220
,
0330
2020
3030
0220
,
0330
2002
3003
2200
,
3300
2000
3200
2300
,
3020
0230
0320
2030
,
3002
0203
0320
2030
,
3200
0320
0032
2003
,
3001
0201
0301
0102
,
0103
0210
0310
1020
,
1030
1200
2300
3002
,
0203
0320
2030
3200
,
0320
0002
0033
0000
;

//---------------dance-single - ----------------
#NOTES:
     dance-single:
     :
     Easy:
     3:
     0.286,0.323,0.134,0.486,0.000:
0000
0000
0000
0000
,
0000
0000
0000
0000
,
0000
0000
0000
0000
,
0000
0000
0000
0000
,
0000
0002
0000
0000
,
0003
1000
0000
0001
,
0000
0200
0000
0300
,
0000
0001
1000
0100
,
1000
0020
0030
2000
,
3000
0020
0030
2000
,
3000
0001
1000
0001
,
0100
0010
1000
0010
,
0100
0110
0000
1000
,
0000
0001
0000
0100
,
0000
0010
1000
0002
,
0003
1000
0001
0100
,
0010
2000
0000
3001
,
0000
0002
0000
1003
,
0000
1000
0010
0100
,
0010
1000
0001
0100
,
0001
0200
0000
0301
,
0000
0002
0000
0013
,
0000
0020
0000
0130
,
0000
0200
0000
1000
,
1300
1001
0000
0001
,
1000
0001
0000
0100
,
0000
0001
0100
0010
,
1000
0010
0100
0010
,
2000
0200
3300
0000
,
0000
0002
0010
0020
,
0033
0002
1000
2000
,
0000
3000
2000
0000
0000
0000
0000
0000
,
3003
0001
0001
0001
,
0001
1000
1000
1000
,
1000
0010
0010
0100
,
0100
0010
1000
0001
,
0100
0101
0000
0101
,
0000
1100
0000
1100
,
0000
1010
0000
1010
,
0000
0101
0000
0101
,
0000
2000
3000
0002
,
0003
2000
3000
0020
,
0030
0200
0300
0020
,
0030
2000
3000
0002
,
0003
0000
0000
0000
,
0000
0000
0000
0000
,
0000
0000
0001
0100
0001
0000
0100
0000
,
0001
0010
0000
1010
,
0101
2000
3000
0001
,
1000
0200
1000
2000
,
3300
0000
1100
0000
0000
0000
0001
1000
,
0001
0000
1001
0000
0000
0000
0001
0100
,
0001
0002
0000
0203
,
0000
0001
0001
0002
,
0303
2000
0000
0000
,
0000
3002
0000
0000
,
0000
0203
0000
0000
,
0000
0320
0000
0000
,
0000
2030
0000
3020
,
0000
2030
0000
3020
,
0000
0230
0000
0302
,
0000
0023
0000
0032
,
0000
1003
1000
0001
,
0100
0020
1000
2000
,
3030
0101
0101
2000
,
0000
0001
0001
0002
,
3003
0002
0000
2003
,
0000
3002
0000
0203
,
0000
0320
0000
2030
,
0000
3020
0000
2030
,
0000
3000
0000
0000
;

//---------------dance-single - ----------------
#NOTES:
     dance-single:
     :
     Beginner:
     1:
     0.090,0.118,0.017,0.000,0.000: // measure 1
0000
0000
0000
0000
,  // measure 2
0000
0000
0000
0000
,  // measure 3
0000
0000
0000
0000
,  // measure 4
0000
0000
0000
0000
,  // measure 5
0000
1000
0000
0000
,  // measure 6
0000
0000
0000
0000
,  // measure 7
0000
0001
0000
0000
,  // measure 8
0000
0010
0000
0100
,  // measure 9
0000
0010
0000
0000
,  // measure 10
0000
0010
0000
0000
,  // measure 11
0000
1000
0000
0000
,  // measure 12
0000
0001
0000
0000
,  // measure 13
0000
1000
0000
0000
,  // measure 14
0000
1000
0000
0000
,  // measure 15
0000
0001
0000
0000
,  // measure 16
0000
0001
0000
0001
,  // measure 17
0000
0100
0000
0000
,  // measure 18
0000
0100
0000
0000
,  // measure 19
0000
0100
0000
0000
,  // measure 20
0000
0100
0000
0100
,  // measure 21
0000
0010
0000
0000
,  // measure 22
0000
0010
0000
0000
,  // measure 23
0000
0010
0000
0000
,  // measure 24
0000
0010
0000
0010
,  // measure 25
0000
1000
0000
0000
,  // measure 26
0000
1000
0000
0000
,  // measure 27
0000
1000
0000
0000
,  // measure 28
0000
0001
0000
0000
,  // measure 29
0000
0000
0000
1000
,  // measure 30
0000
0000
0000
0001
,  // measure 31
0000
0000
0000
0100
,  // measure 32
0000
0000
0000
0000
,  // measure 33
0000
0010
0000
0000
,  // measure 34
0000
0010
0000
0000
,  // measure 35
0000
0100
0000
0000
,  // measure 36
0000
0100
0000
0000
,  // measure 37
0000
1000
0000
0000
,  // measure 38
0000
1000
0000
0000
,  // measure 39
0000
0001
0000
0000
,  // measure 40
0000
0001
0000
0000
,  // measure 41
0000
0100
0000
0000
,  // measure 42
0000
0100
0000
0000
,  // measure 43
0000
0010
0000
0000
,  // measure 44
0000
0010
0000
0000
,  // measure 45
0000
0000
0000
0000
,  // measure 46
0000
0000
0000
0000
,  // measure 47
0000
1000
0000
0000
,  // measure 48
0000
0000
0000
0001
,  // measure 49
0001
0001
0000
0000
,  // measure 50
0000
0010
0000
0000
,  // measure 51
0000
0100
0000
0000
,  // measure 52
0000
0000
0000
0000
,  // measure 53
0000
1000
0000
1000
,  // measure 54
0000
0001
0000
0001
,  // measure 55
0000
1001
0000
0000
,  // measure 56
0000
0001
0000
0000
,  // measure 57
0000
1000
0000
0000
,  // measure 58
0000
0010
0000
0000
,  // measure 59
0000
0100
0000
0000
,  // measure 60
0000
0010
0000
0000
,  // measure 61
0000
1000
0000
0000
,  // measure 62
0000
0001
0000
0000
,  // measure 63
0000
1000
0000
1000
,  // measure 64
0000
1000
0000
0000
,  // measure 65
0000
0001
0000
0001
,  // measure 66
0000
0001
0000
0000
,  // measure 67
0000
0010
0000
0010
,  // measure 68
0000
0010
0000
0000
,  // measure 69
0000
0100
0000
0100
,  // measure 70
0000
0100
0000
0000
,  // measure 71
0000
1001
0000
0000
;
