#TITLE:R5;
#SUBTITLE:;
#ARTIST:tiger YAMATO;
#TITLETRANSLIT:;
#SUBTITLETRANSLIT:;
#ARTISTTRANSLIT:;
#CREDIT:;
#BANNER:bn.PNG;
#BACKGROUND:bg.PNG;
#LYRICSPATH:;
#CDTITLE:Beatmania IIDX.png;
#MUSIC:R5.mp3;
#OFFSET:-6.380;
#SAMPLESTART:25.360;
#SAMPLELENGTH:12.500;
#SELECTABLE:YES;
#BPMS:0.000=180.000,8.000=90.000,20.500=45.000,25.000=180.000,74.000=90.000,75.000=180.000;
#STOPS:25.000=1.330
;
#BGCHANGES:;

//---------------dance-single - ----------------
#NOTES:
     dance-single:
     :
     Hard:
     7:
     0.454,0.480,0.192,0.113,0.040:
0000
0000
0000
0000
,
0000
0000
0000
0000
,
0001
0000
0000
1000
0000
0000
0001
0000
0000
0100
0000
0000
0010
0000
0000
1000
,
0000
0000
0010
0000
0000
0100
0000
0000
1000
0000
0000
0001
0000
0000
0010
0000
,
1000
0000
0001
0000
0001
0000
0001
0000
0001
0000
0001
0000
0000
0000
0001
1000
,
0010
0100
2020
0000
0000
0000
0000
0000
0000
0000
0000
0000
0000
0000
0000
0000
,
0000
0000
3030
0101
2100
0000
3001
0000
,
0110
0000
0000
0010
0000
0100
0000
0000
,
0010
0000
0000
1000
0000
1000
0100
0000
,
0001
0100
0000
1000
0100
0000
0000
0000
,
0110
0000
0000
0010
0000
0100
0000
0000
,
0010
0000
0000
0010
0000
0010
1000
0000
,
0001
0100
0000
0001
1001
0000
0001
0000
,
1000
0000
0001
0100
0001
0100
0000
0000
,
0001
0000
0010
0100
0000
0010
0100
0000
,
0001
1000
0000
0010
1000
0000
0010
0000
,
1010
0000
0000
1000
0100
1000
0000
0000
,
0010
0000
0100
0010
0000
0010
1000
0000
,
0001
0100
0000
0010
2000
0000
3100
1000
,
0000
0100
1000
0000
0001
0100
0001
0100
,
0000
0000
0010
0100
0000
0010
1000
0000
,
0001
0100
0010
1000
0000
0000
0010
0100
,
0000
0001
1000
0000
0001
0100
0001
1000
,
0000
0000
0001
1000
0000
0001
1000
0000
,
1000
0100
1000
0000
0001
0100
0001
0100
,
0001
0100
0001
0100
0001
0100
0010
0100
,
0010
1000
0010
1000
0010
1000
0010
1000
,
0010
1000
0001
1000
0010
0001
0010
0100
,
1000
0100
0010
0100
0001
1000
0010
1000
,
0100
1000
0010
0001
0010
0100
0001
1000
,
0010
1000
0001
0100
0000
0101
0000
1100
,
0000
0001
0100
0020
0000
0000
0130
0000
,
0000
0110
0000
0110
0000
0010
1000
0002
,
0000
0000
1003
0000
0000
1100
0000
1100
,
0000
1000
0100
2000
0000
0000
3010
0000
,
0000
0101
0000
0101
0000
0001
0100
0002
,
0000
0000
0013
0000
0001
1000
0001
1000
,
0001
1000
0001
1000
0001
1000
0001
1000
,
0001
1000
0001
1000
0010
0100
0010
0100
,
0010
0100
0010
0100
0010
0100
0010
0100
,
0010
0100
0010
0100
0010
0000
1000
1000
,
0000
0001
0001
0000
1000
1000
1000
1000
,
0000
0000
0001
0001
0000
0100
0100
0000
,
0010
0010
0010
0010
0000
0000
0000
0000
,
0000
0000
0000
0000
0000
0000
1000
1000
,
0000
0001
0001
0000
0100
0100
0100
0100
,
0000
0000
0010
0010
0000
0100
0100
0000
,
0010
0010
0010
0010
0000
0000
1000
0001
,
1000
0100
0010
0001
2002
0000
0000
0000
,
0000
0000
0000
3000
1000
1003
0000
0000
,
1100
0000
0000
0000
;

//---------------dance-single - ----------------
#NOTES:
     dance-single:
     :
     Medium:
     5:
     0.325,0.339,0.090,0.023,0.028:
0000
0000
0000
0000
,
0000
0000
0000
0000
,
0001
0000
0000
1000
0000
0000
0001
0000
0000
1000
0000
0000
0001
0000
0000
0100
,
0000
0000
0010
0000
0000
1000
0000
0000
0100
0000
0000
1000
0000
0000
0100
0000
,
1000
0010
0010
0100
0100
0010
0000
1000
,
0001
1001
0000
0000
0000
0000
0000
0000
,
0000
0000
0000
1000
2002
0000
3003
0000
,
0010
0000
0000
0100
0000
0010
0000
0000
,
0100
0000
0000
0010
0000
0000
1000
0000
,
0000
0100
0000
0000
1100
0000
0000
0000
,
0010
0000
0000
0100
0000
0010
0000
0000
,
0110
0000
0000
0001
0000
0000
1000
0000
,
0000
0100
0000
1000
1100
0000
0000
0000
,
0110
0000
0000
0001
0000
0001
0000
0000
,
1000
0000
0000
0001
0000
0000
0100
0000
,
0000
0010
0000
0000
0110
0000
0000
0000
,
0010
0000
0000
0100
0000
0010
0000
0000
,
0100
0000
0000
0010
0000
0000
1000
0000
,
0000
0001
0000
1000
0001
0000
1000
0100
,
0000
0010
0001
0000
0001
0100
0001
0100
,
0000
0000
0010
1000
0000
0010
1000
0000
,
0010
0100
0010
0100
0000
0000
0001
1000
,
0000
0001
1000
0000
0001
1000
0001
1000
,
0000
0000
1000
0100
0000
1000
0100
0000
,
1000
0100
1000
0000
0001
0000
0001
0000
,
1000
1000
0010
0010
,
0100
0100
0010
1000
,
0010
1000
0001
0100
,
0001
0010
0100
1000
,
0100
0010
0001
0010
,
1000
0000
0001
0000
0000
1000
0000
1000
,
0000
1000
0100
0001
0000
0000
0000
0000
,
0000
0001
0000
0001
0000
0001
0100
1000
,
0000
0000
0000
0000
0000
0010
0000
0010
,
0000
0010
0100
0001
0000
0000
0000
0000
,
0000
0010
0000
0010
0000
0010
0100
1000
,
0000
0000
0001
0001
,
1000
1000
0001
1000
,
0001
0010
0001
0100
,
0010
1000
0100
1000
,
0010
0000
0100
0000
0010
0000
1000
0100
,
0000
0010
0001
0000
0001
0100
0001
0100
,
0000
0000
0010
1000
0000
0100
1000
0000
,
0100
1000
0100
1000
0000
0000
0010
0000
,
0100
0010
1000
0001
,
1000
0100
0010
0001
,
0010
0100
1000
0001
,
1000
0000
0001
0000
0100
0010
0100
0010
,
1000
0010
1000
0001
0001
0000
0000
0000
,
0000
0000
0000
0000
1000
0001
0000
0000
,
1001
0000
0000
0000
;

//---------------dance-single - ----------------
#NOTES:
     dance-single:
     :
     Easy:
     3:
     0.237,0.254,0.023,0.000,0.000:
0000
0000
0000
0000
,
0000
0000
0000
0000
,
1000
0000
0000
0000
0001
0100
0000
0000
,
0000
0000
0010
0100
0000
0000
0000
0000
,
1000
0001
0001
0001
0001
0001
0000
0000
,
0000
1001
0000
0000
0000
0000
0000
0000
,
0000
0000
0000
0010
0100
0000
0010
0000
,
0100
0000
0000
0010
0000
0100
0000
0000
,
0010
0000
0000
1000
0000
0000
1000
0000
,
0000
1000
0000
0000
1000
0000
0000
0000
,
0001
0000
0000
0001
0000
0001
0000
0000
,
0001
0000
0000
0100
0000
0000
0100
0000
,
0000
0100
0000
0000
0000
0000
0000
0000
,
0010
0000
0000
0010
0000
0010
0000
0000
,
0010
0000
0000
1000
0000
0000
0001
0000
,
0000
1000
0000
0000
0001
0000
0000
0000
,
0100
0000
0000
0010
0000
0100
0000
0000
,
0010
0000
0000
1000
0000
0000
0001
0000
,
0000
0100
0000
0000
0000
0000
0010
0000
,
0000
0010
0000
0000
0100
0000
0100
0000
,
0000
0000
1000
0000
0000
1000
0000
0000
,
0001
1000
0000
0001
,
0000
0100
0000
0000
0010
0000
1000
0000
,
0000
0000
1000
0000
0000
0100
0000
0000
,
1000
0100
0001
1000
,
0001
1000
0001
1000
,
0001
0100
0001
0100
,
0001
0100
0010
0100
,
0010
0100
0010
0100
,
0010
1000
0010
1000
,
0010
0000
1000
0000
0000
0001
0000
0001
,
0000
0001
0000
0001
0000
0000
0000
0000
,
0000
1000
0000
1000
0000
1000
0000
1000
,
0000
0000
0000
0000
0000
0010
0000
0010
,
0000
0010
0000
0010
0000
0000
0000
0000
,
0000
0100
0000
0100
0000
0100
0000
0100
,
0000
0000
0010
0010
,
0010
0010
0010
0010
,
0010
0010
0100
0100
,
0100
0100
0100
0100
,
0100
0100
0100
1000
,
0000
0001
0000
0000
0100
0000
0010
0000
,
0000
0000
1000
0000
0000
0010
0000
0000
,
0100
0100
0000
0000
,
0010
0100
1000
0001
,
0000
0001
0000
0000
0001
0000
1000
0000
,
0000
0000
0001
0000
0000
1000
0000
0000
,
0001
0100
0010
1000
,
0001
0001
0010
0000
,
0000
0000
0000
0000
1000
0100
0000
0000
,
0101
0000
0000
0000
;

//---------------dance-single - ----------------
#NOTES:
     dance-single:
     :
     Beginner:
     1:
     0.071,0.141,0.023,0.000,0.000: // measure 1
0000
0000
0000
0000
,  // measure 2
0000
0000
0000
0000
,  // measure 3
0000
0000
0000
0000
,  // measure 4
0000
0000
0000
0000
,  // measure 5
0000
1000
0000
0001
0000
1000
0000
0000
,  // measure 6
0000
1001
0000
0000
0000
0000
0000
0000
,  // measure 7
0000
0000
0000
0010
,  // measure 8
0000
0000
0000
0000
,  // measure 9
0000
0100
0000
0000
,  // measure 10
0000
0000
0000
1000
,  // measure 11
0000
0000
0000
0000
,  // measure 12
0000
0001
0000
0000
,  // measure 13
0000
0000
1000
0000
,  // measure 14
1000
0000
0000
0000
,  // measure 15
0000
0001
0000
0000
,  // measure 16
0000
0000
0000
0000
,  // measure 17
0010
0000
0000
0000
,  // measure 18
0000
0100
0000
0000
,  // measure 19
0000
0000
0000
1000
,  // measure 20
0000
0000
1000
1000
,  // measure 21
0000
0001
0000
0000
,  // measure 22
0001
0001
0000
0100
,  // measure 23
0000
0000
0100
0100
,  // measure 24
0000
0010
0000
0000
,  // measure 25
0010
0010
0010
0000
,  // measure 26
0000
0000
0000
0000
,  // measure 27
1000
0000
0000
0000
,  // measure 28
0000
0000
0001
0000
,  // measure 29
0000
0000
0000
0000
,  // measure 30
0100
0000
0000
0000
,  // measure 31
0000
0000
0000
0000
0000
0010
0000
0000
,  // measure 32
0000
0000
0000
0000
,  // measure 33
0000
0100
0000
0000
0000
0000
0000
0000
,  // measure 34
0000
0000
0000
0000
0000
1000
0000
0000
,  // measure 35
0000
0000
0000
0000
,  // measure 36
0000
0001
0000
0000
0000
0000
0000
0000
,  // measure 37
0000
0000
1000
0000
,  // measure 38
0000
0000
0000
0000
,  // measure 39
0000
0000
0001
0000
,  // measure 40
0000
0000
0000
0000
,  // measure 41
0000
0000
0100
0000
,  // measure 42
0000
0000
0000
0000
,  // measure 43
0010
0000
0000
0000
,  // measure 44
0000
0000
0000
0000
,  // measure 45
0000
0000
0000
0100
,  // measure 46
0000
0000
0000
0000
,  // measure 47
0000
0010
0000
0000
,  // measure 48
0000
0000
0000
0000
,  // measure 49
0000
0000
1000
0000
,  // measure 50
0000
0000
0001
0000
,  // measure 51
1001
0000
0000
0000
;
