#TITLE:R2;
#SUBTITLE:;
#ARTIST:tiger YAMATO;
#TITLETRANSLIT:;
#SUBTITLETRANSLIT:;
#ARTISTTRANSLIT:;
#CREDIT:;
#BANNER:bn.PNG;
#BACKGROUND:bg.PNG;
#LYRICSPATH:;
#CDTITLE:;
#MUSIC:29.R2.mp3;
#OFFSET:-3.400;
#SAMPLESTART:18.000;
#SAMPLELENGTH:12.000;
#SELECTABLE:YES;
#BPMS:0.000=160.000;
#STOPS:;
#BGCHANGES:;

//---------------dance-single - ----------------
#NOTES:
     dance-single:
     :
     Hard:
     8:
     0.509,0.534,0.050,0.215,0.198:
0000
0000
0000
0000
,
0000
0000
0000
0000
,
1000
0100
1000
0100
0000
0100
0000
0100
,
1100
0000
0000
0000
,
0001
0100
0001
0100
0000
0100
0000
0100
,
0101
0000
0000
0000
,
1000
1000
0001
0001
1000
1000
0001
0001
,
0100
0100
0001
0001
0100
0100
0001
0001
,
0010
0010
0100
0100
0010
0010
0100
0100
,
0010
0010
0100
0100
0010
0010
0000
1000
,
0100
0000
1000
0000
0100
0000
0000
0100
0000
0000
0100
0000
0000
0000
0010
0000
,
0001
0000
0100
0000
0001
0000
0000
1000
0000
0000
0001
0000
0000
0000
0010
0000
,
0100
0000
0001
0000
1000
0000
0000
0001
0000
0000
1000
0000
0000
0000
1000
0000
,
0100
0000
0010
0000
0001
0000
0000
0001
0000
0000
0001
0000
0000
0000
0001
0000
,
0100
0000
0001
0000
0100
0000
0000
0010
0000
0000
0100
0000
0000
0000
0010
0000
,
1000
0000
0001
0000
1000
0000
0000
0001
0000
0000
1000
0000
0000
0000
1000
0000
,
0100
0000
1000
0000
0100
0000
0000
1000
0000
0000
0100
0000
0000
0000
0010
0000
,
0001
0000
0010
0000
0100
0000
0000
0001
0000
0000
0100
0000
0000
0000
0010
0000
,
0100
0000
0010
0000
0100
0000
0000
0010
0000
0000
0010
0000
0000
0000
0010
0000
,
1000
0000
0001
0000
0100
0000
0000
0010
0000
0000
0100
0000
0000
0000
0001
0000
,
1000
0000
0001
0000
1000
0000
0000
0001
0000
0000
1000
0000
0000
0000
0001
0000
,
0010
0000
0100
0000
1000
0000
0000
0100
0000
0000
1000
0000
0000
0000
0100
0000
,
1000
0000
0100
0000
0010
0000
0000
0010
0000
0000
0010
0000
0000
0000
0010
0000
,
0100
0000
0001
0000
1000
0000
0000
1000
0000
0000
1000
0000
0000
0000
0001
0000
,
0100
0000
0010
0000
1000
0000
0000
1000
0000
0000
1000
0000
0000
0000
1000
0000
,
0100
0000
0010
0000
0001
0000
0000
0001
0000
0000
0001
0000
0000
0000
1000
0000
,
0200
0000
0000
0000
1000
0000
0000
1000
0000
0000
1300
0000
0000
0000
0100
0000
,
0020
0000
0000
0000
0001
0000
0000
0001
0000
0000
0031
0000
0000
0000
0001
0000
,
0200
0000
0000
0000
0010
0000
0000
0010
0000
0000
0310
0000
0000
0000
0010
0000
,
2000
0000
0000
0000
0010
0000
0000
0100
0000
0000
3010
0000
0000
0000
0001
0000
,
2000
0000
0000
0000
0100
0000
0000
0100
0000
0000
3100
0000
0000
0000
0010
0000
,
0200
0000
0000
0000
0010
0000
0000
0010
0000
0000
0310
0000
0000
0000
0001
0000
,
2000
0000
0000
0000
0100
0000
0000
0100
0000
0000
3100
0000
0000
0000
0001
0000
,
0200
0000
0000
0000
0010
0000
0000
0010
0000
0000
0310
0000
0000
0000
0010
0000
,
0100
0010
0100
0010
0100
0010
1000
1000
,
0001
0001
1000
1000
0001
0001
1000
1000
,
0100
0100
0010
0010
0001
0001
1000
1000
,
0100
0000
0100
0000
0010
0000
0010
0000
0001
0000
0000
1000
0000
0000
0001
0000
,
0100
0000
0000
0010
0000
0000
1000
0000
0100
0000
0000
0010
0000
0000
0001
0000
,
0010
0000
0000
0100
0000
0000
2000
0000
0100
0000
0000
0000
0100
0000
0000
0000
,
0100
0100
0100
0100
,
0100
0000
0000
0000
3100
0000
0000
0000
0010
0000
0000
0100
0000
0000
1000
0000
,
0100
0000
0000
0010
0000
0000
0001
0000
0010
0000
0000
0100
0000
0000
1000
0000
,
0100
0000
0000
0010
0000
0000
0001
0000
1000
0000
0001
0000
1000
0000
0001
0000
,
1000
0001
1000
0001
1000
0001
1000
0001
,
1000
0001
1000
0001
1000
0000
0000
0000
,
0000
0000
0001
0000
,
0000
0000
0200
0000
,
0000
0000
0000
0000
,
0000
0300
0010
0100
,
0010
1000
1010
1000
,
0100
0000
0010
0000
0001
1000
0001
1000
,
0001
1000
0001
0100
0001
0100
0010
1000
,
0001
1000
0001
0100
0220
0000
0330
0000
,
0010
0100
1000
0100
,
0010
0001
0022
0033
,
1000
0001
0002
0000
,
0000
0000
0003
0000
1000
1000
0001
0001
,
0100
0100
0010
0010
1000
1000
0010
0010
,
0100
0000
0100
0000
0010
0000
0000
0100
0000
0000
0010
0000
1000
0000
0000
0010
,
0000
0000
1000
0000
0100
0000
0000
0010
0000
0000
0001
0000
0010
0000
0000
0100
,
0000
1000
0200
0000
1000
0000
1000
0000
,
1000
1000
1000
1000
,
1300
0000
0000
0000
0010
0000
0000
1000
0000
0000
0010
0000
0100
0000
0000
0010
,
0000
0000
1000
0000
0100
0000
0000
0010
0000
0000
0001
0000
0010
0000
0000
0100
,
0000
1000
0001
1000
0001
1000
0001
0100
,
0001
0100
0010
1000
0001
0100
0010
1000
,
0001
0000
1000
0000
0010
0000
1000
0000
0020
0000
0000
0000
1000
0000
0000
1000
,
0000
0000
1030
0000
0000
0000
1000
0000
0200
0000
0000
0000
1000
0000
0000
1000
,
0000
0000
1300
0000
0000
0000
0100
0000
0020
0000
0000
0000
0001
0000
0000
0001
,
0000
0000
0031
0000
0000
0000
0001
0000
0100
0000
0000
0000
0020
0000
0000
0100
,
0000
0000
0130
0000
0000
0000
0010
0000
2000
0000
0000
0000
0100
0000
0000
0100
,
0000
0000
3100
0000
0000
0000
0010
0000
0200
0000
0000
0000
0010
0000
0000
0010
,
0000
0000
0310
0000
0000
0000
0001
0000
2000
0000
0000
0000
0100
0000
0000
0100
,
0000
0000
3100
0000
0000
0000
0010
0000
0002
0000
0000
0000
0100
0000
0000
0100
,
0000
0103
2002
0000
0000
0000
0000
0000
,
3003
0000
0000
0000
;

//---------------dance-single - ----------------
#NOTES:
     dance-single:
     :
     Medium:
     6:
     0.426,0.471,0.248,0.083,0.099:
0000
0000
0000
0000
,
0000
0000
0000
0000
,
0000
0000
0000
0100
0000
0100
0000
1000
,
0100
0000
0000
0000
,
0000
0000
0000
0010
0000
0010
0000
0010
,
0001
0000
0000
0000
,
0000
1001
0000
0110
0000
0010
0100
0010
,
0000
0110
0000
0110
0000
1001
0000
1001
,
0000
1100
0000
1100
0000
1000
0100
1000
,
0000
0101
0000
0101
0000
0101
0000
0001
,
1000
0000
0001
0000
1000
0000
0000
0001
0000
0000
1000
0000
0000
0000
0010
0000
,
0100
0000
0010
0000
0100
0000
0000
0010
0000
0000
0100
0000
0000
0000
0001
0000
,
0100
0000
0001
0000
0100
0000
0000
0001
0000
0000
0100
0000
0000
0000
0010
0000
,
1000
0000
0010
0000
1000
0000
0000
0010
0000
0000
1000
0000
0000
0000
0100
0000
,
1000
0000
0100
0000
1000
0000
0000
0100
0000
0000
1000
0000
0000
0000
0010
0000
,
0001
0000
0010
0000
0001
0000
0000
0010
0000
0000
0001
0000
0000
0000
0100
0000
,
0001
0000
0100
0000
0001
0000
0000
0100
0000
0000
0001
0000
0000
0000
0010
0000
,
0100
0000
0010
0000
0100
0000
0000
0010
0000
0000
0100
0000
0010
0000
0000
0000
,
0100
0000
1000
0001
1000
0000
0100
0000
,
0010
0000
0001
0100
0001
0000
0101
0000
,
0100
0000
0010
1000
0010
0000
0100
0000
,
0010
0000
1000
0100
1000
0000
1001
0000
,
0001
0000
0010
0100
0010
0000
1000
0000
,
0100
0000
1000
0100
1000
0000
1100
0000
,
0100
0010
0001
0010
,
0100
0000
1000
0000
0001
0000
0000
1000
,
0001
0000
0000
0000
1000
0000
0000
1000
0000
0000
1000
0000
0000
0000
0001
0000
,
0100
0000
0000
0000
0001
0000
0000
0001
0000
0000
0001
0000
0000
0000
0010
0000
,
0100
0000
0000
0000
0010
0000
0000
0010
0000
0000
0010
0000
0000
0000
1000
0000
,
0100
0000
0000
0000
1000
0000
0000
1000
0000
0000
1000
0000
0000
0000
0001
0000
,
0100
0000
0000
0000
0001
0000
0000
0001
0000
0000
0001
0000
0000
0000
1000
0000
,
0001
0000
0000
0000
1000
0000
0000
1000
0000
0000
1000
0000
0000
0000
0010
0000
,
1000
0000
0000
0000
0010
0000
0000
0010
0000
0000
0010
0000
0000
0000
0100
0000
,
0010
0000
0000
0000
0100
0000
0000
0100
0000
0000
0100
0000
0000
0000
1100
0000
,
0000
1100
0000
0101
0000
0101
0000
0010
,
0000
0100
0000
0010
0000
0100
0000
0110
,
0000
0110
0000
0010
0100
0010
0000
1001
,
0000
1001
0000
0001
2000
0000
0000
0000
,
3100
0000
0020
0000
,
0031
0000
0100
0100
,
0010
1000
0001
1000
,
0001
0010
0200
0000
,
0000
0000
2000
0000
,
0000
0000
3300
0000
0001
0100
0001
0100
,
0001
0100
0001
0100
0001
0100
0001
0100
,
0001
0100
0001
0100
0001
0000
0001
0000
,
0001
0001
1000
1000
,
1000
1000
2000
0000
,
0000
0000
0000
0000
,
3000
0000
0010
0010
,
0010
0010
0100
0100
,
0100
0000
0100
0000
0010
1000
0010
1000
,
0010
1000
0010
1000
0010
1000
0010
1000
,
0010
1000
0010
1000
0010
0000
0000
0010
,
0000
0010
0000
0000
0100
0000
0000
0000
,
0010
0000
0000
0000
1000
0000
0000
0001
,
0000
1000
0000
0000
0002
0000
0000
0000
,
0000
0000
0003
0000
0000
1001
0000
1001
,
0000
0001
0100
0001
0000
0010
0000
0110
,
0000
0010
0100
0000
0010
0000
1000
0000
,
0001
1001
0001
0010
,
0100
2200
0000
0000
,
0000
0000
0000
0000
,
3300
0110
0010
1000
,
0001
0101
0001
1000
,
0010
0000
0100
0010
0100
0010
0100
0010
,
0100
0010
1000
0001
1000
0001
1000
0001
,
1000
0000
0001
0000
0000
0000
1000
0000
0100
0000
0000
0000
1000
0000
0000
1000
,
0000
0000
1000
0000
0000
0000
0001
0000
0100
0000
0000
0000
0001
0000
0000
0001
,
0000
0000
0001
0000
0000
0000
0010
0000
0100
0000
0000
0000
0010
0000
0000
0010
,
0000
0000
0010
0000
0000
0000
0001
0000
1000
0000
0000
0000
0001
0000
0000
0001
,
0000
0000
0001
0000
0000
0000
1000
0000
0001
0000
0000
0000
0100
0000
0000
0100
,
0000
0000
0100
0000
0000
0000
0010
0000
1000
0000
0000
0000
0001
0000
0000
0001
,
0000
0000
0001
0000
0000
0000
0010
0000
0100
0000
0000
0000
0010
0000
0000
0010
,
0000
0000
0010
0000
0000
0000
1000
0000
0100
0000
0000
0000
1000
0000
0000
1000
,
0000
1000
2002
0000
0000
0000
0000
0000
,
3003
0000
0000
0000
;

//---------------dance-single - ----------------
#NOTES:
     dance-single:
     :
     Easy:
     3:
     0.238,0.283,0.017,0.454,0.000:
0000
0000
0000
0000
,
0000
0000
0000
0000
,
0000
0000
0000
0000
,
0001
0000
0000
0000
,
0000
0000
0000
0000
,
1000
0000
0000
0000
,
0010
0010
0100
0100
,
0010
0100
0010
0100
,
0001
0001
1000
1000
,
0001
1000
0001
1000
,
0001
0100
0000
0001
,
1000
0100
0000
0001
,
1000
0100
0000
0001
,
1000
0100
0000
0010
,
1000
0001
0000
0100
,
0001
1000
0000
0010
,
1000
0001
0000
0100
,
0001
1000
0000
0001
,
0001
1000
0001
0000
,
1000
0001
0100
0020
,
0030
0100
0010
0000
,
1000
0100
1000
0200
,
1300
0100
0010
0000
,
0001
0100
0010
2000
,
3100
0010
0000
0001
,
0100
0010
0000
0000
,
0002
2000
3003
0000
,
2000
0200
3300
0000
,
0020
0002
0033
0000
,
0002
0200
0303
0000
,
0020
0200
0330
0000
,
2000
0200
3300
0000
,
0020
0002
0033
0000
,
0002
0000
0200
0000
0303
0000
0000
0001
,
0000
0001
0000
1000
0000
1000
0000
0001
,
0000
1000
0000
0001
0000
1000
0000
0010
,
0000
0010
0000
0100
0000
0100
0000
0010
,
0000
0100
0000
0010
2000
0000
0000
0000
,
0000
0000
3002
0000
,
0000
0000
0200
0000
,
0000
0000
0000
0000
,
0000
0303
0020
0000
,
0000
0000
2000
0000
,
0000
0000
3030
0000
0002
0200
0000
0000
,
0000
0000
0000
0000
,
0000
0303
0001
0000
,
0000
0000
1000
0000
,
0000
0000
0001
0000
,
0000
0000
0000
0000
,
0000
0000
0200
0000
,
0000
0300
0020
0000
,
0000
0000
0030
0000
2000
0200
0000
0000
,
0000
0000
0000
0000
,
0000
3300
0001
0000
,
0000
0000
0000
0000
,
0000
0000
1100
0000
,
0000
0000
0000
0000
,
0000
0000
0000
0000
0000
0010
0000
0010
,
0000
0100
0000
0100
0000
0010
0000
1000
,
0000
0001
0200
0000
0000
0000
0000
0000
,
0000
0320
0000
0000
,
0000
2000
0000
0000
,
0000
0000
0000
0000
,
3030
0002
0000
0000
,
0000
0203
0000
0000
,
0000
0000
0302
2000
0000
0000
0000
0000
,
0000
0000
0000
0000
,
3003
0000
0002
0200
,
0303
0000
2000
0200
,
3300
0000
0020
0200
,
0330
0000
0020
0200
,
0330
0000
0002
0200
,
0303
0000
2000
0200
,
3300
0000
0020
0200
,
0330
0000
2000
0200
,
3300
0202
0000
0000
,
0303
0000
0000
0000
;

//---------------dance-single - ----------------
#NOTES:
     dance-single:
     :
     Beginner:
     1:
     0.068,0.093,0.008,0.000,0.000: // measure 1
0000
0000
0000
0000
,  // measure 2
0000
0000
0000
0000
,  // measure 3
0000
0000
0000
0000
,  // measure 4
0001
0000
0000
0000
,  // measure 5
0000
0000
0000
0000
,  // measure 6
1000
0000
0000
0000
,  // measure 7
0010
0000
0000
0000
,  // measure 8
0010
0000
0000
0000
,  // measure 9
0010
0000
0000
0000
,  // measure 10
0010
0000
0000
0100
,  // measure 11
0000
0000
0000
0000
,  // measure 12
0000
0000
0000
0100
,  // measure 13
0000
0000
0000
0000
,  // measure 14
0000
0000
0000
1000
,  // measure 15
0000
0000
0000
0000
,  // measure 16
0000
0000
0000
0001
,  // measure 17
0000
0000
0000
0000
,  // measure 18
0000
0000
0000
0010
,  // measure 19
0000
0000
0000
0000
,  // measure 20
0000
0000
0000
1000
,  // measure 21
0000
0000
0000
0000
,  // measure 22
0000
0000
0000
0001
,  // measure 23
0000
0000
0000
0000
,  // measure 24
0000
0000
0000
1000
,  // measure 25
0000
0000
0000
0000
,  // measure 26
0000
0000
0000
0100
,  // measure 27
0000
0000
0000
0010
,  // measure 28
0000
0000
0000
0100
,  // measure 29
0000
0000
0000
0010
,  // measure 30
0000
0000
0000
1000
,  // measure 31
0000
0000
0000
0001
,  // measure 32
0000
0000
0000
1000
,  // measure 33
0000
0000
0000
0001
,  // measure 34
0000
0000
0000
1000
,  // measure 35
0000
0000
0000
0001
,  // measure 36
0000
0000
0000
0001
,  // measure 37
0000
0000
0000
0001
,  // measure 38
0000
0000
1000
0000
,  // measure 39
0000
0000
0001
0000
,  // measure 40
0000
0000
0100
0000
,  // measure 41
0000
0000
0000
0000
,  // measure 42
0000
0000
0010
0000
,  // measure 43
0000
0000
0100
0000
,  // measure 44
0000
0000
1000
0000
,  // measure 45
0000
0000
0000
0000
,  // measure 46
0000
0000
0001
0000
,  // measure 47
0000
0000
0001
0000
,  // measure 48
0000
0000
0001
0000
,  // measure 49
0000
0000
0000
0000
,  // measure 50
0000
0000
1000
0000
,  // measure 51
0000
0000
1000
0000
,  // measure 52
0000
0000
1000
0000
,  // measure 53
0000
0000
0000
0000
,  // measure 54
0000
0000
0010
0000
,  // measure 55
0000
0000
0000
0000
,  // measure 56
0000
0000
0010
0000
,  // measure 57
0000
0000
0000
0000
,  // measure 58
0000
0000
0000
0100
,  // measure 59
0000
0000
0100
0000
,  // measure 60
0000
0100
0000
0000
,  // measure 61
0000
1000
0000
0000
,  // measure 62
0000
0001
0000
0000
,  // measure 63
0000
0000
0000
0000
,  // measure 64
0000
0010
0000
0000
,  // measure 65
0000
0100
0000
0000
,  // measure 66
0000
1000
0000
0000
,  // measure 67
0000
0000
0000
0000
,  // measure 68
0000
0001
0000
0000
,  // measure 69
0000
0001
0000
0000
,  // measure 70
0000
1000
0000
0000
,  // measure 71
0000
1000
0000
0000
,  // measure 72
0000
0010
0000
0000
,  // measure 73
0000
0100
0000
0000
,  // measure 74
0000
0010
0000
0000
,  // measure 75
0000
1000
0000
0000
,  // measure 76
0000
0110
0000
0000
;
