#TITLE:Quell;
#SUBTITLE:-The Seventh Slave-;
#ARTIST:DJ Taka Vs. DJ Yoshitaka;
#TITLETRANSLIT:;
#SUBTITLETRANSLIT:;
#ARTISTTRANSLIT:;
#CREDIT:Kyon;
#BANNER:bn.bmp;
#BACKGROUND:bg.bmp;
#LYRICSPATH:;
#CDTITLE:Beatmania IIDX.png;
#MUSIC:Quell -The Seventh Slave-.mp3;
#OFFSET:-0.100;
#SAMPLESTART:31.371;
#SAMPLELENGTH:12.000;
#SELECTABLE:YES;
#BPMS:0.000=140.000,65.000=69.990,69.000=140.000,133.000=70.000,149.000=140.000;
#STOPS:181.000=2.571
;
#BGCHANGES:;

//---------------dance-single - ----------------
#NOTES:
     dance-single:
     :
     Hard:
     7:
     0.354,0.547,0.056,0.056,0.129: // measure 1
0000
0000
0000
0000
,  // measure 2
0000
0000
0000
0000
,  // measure 3
0000
0000
0000
0000
,  // measure 4
0000
0000
0000
0000
,  // measure 5
0000
0000
0000
0000
,  // measure 6
0000
0000
0000
0000
,  // measure 7
0000
0000
0000
0000
,  // measure 8
0000
0000
0000
0000
,  // measure 9
0000
1000
0000
0100
,  // measure 10
0000
0010
0000
0000
0001
0000
0000
0100
,  // measure 11
0000
0000
1000
0100
0000
0010
0100
0000
,  // measure 12
0000
0001
0000
0000
0010
0000
0000
1000
,  // measure 13
0000
0000
0010
2000
0000
0000
3200
0000
,  // measure 14
0000
0320
0000
0000
0032
0000
0000
2003
,  // measure 15
0000
3200
0000
0000
,  // measure 16
0000
0000
0000
0000
,  // measure 17
0000
0020
0000
0000
,  // measure 18
0330
0000
0001
1000
0100
0000
0010
0001
,  // measure 19
0000
0100
1000
0000
0010
1000
0000
0100
,  // measure 20
1000
0100
0000
0001
0010
0000
0100
0010
,  // measure 21
0000
1000
0001
0000
0100
0010
0000
1000
,  // measure 22
0100
0010
0000
0001
0100
0000
1000
0010
,  // measure 23
0000
0100
1000
0000
0100
0001
0000
0010
,  // measure 24
0100
1000
0000
0001
0100
0000
1000
0010
,  // measure 25
0000
0100
0001
0000
0100
0010
0000
1000
,  // measure 26
0001
0100
0000
0010
0001
0000
1000
1000
,  // measure 27
0000
0100
0100
0000
0010
0010
0000
0001
,  // measure 28
1000
0001
0000
0100
0100
0000
0010
0010
,  // measure 29
0000
1000
1000
0000
0001
0001
0000
0010
,  // measure 30
0100
0010
0000
1000
1000
0000
0100
0100
,  // measure 31
0000
0001
0001
0000
0010
0010
0000
1000
,  // measure 32
0001
0100
0000
0010
0010
0000
1000
1000
,  // measure 33
0000
0001
0001
0000
0100
0100
0000
0010
,  // measure 34
1000
0001
1001
0000
0000
0000
0000
0000
,  // measure 35
1000
0100
0001
0000
0000
0000
0000
0000
,  // measure 36
0001
0000
0010
0000
0001
0000
0000
0000
0000
0100
1000
0100
0010
0001
0010
0100
,  // measure 37
0000
0000
1000
0000
0100
0000
0001
0000
0010
0000
0000
0000
1000
0100
1000
0100
1000
0000
0000
0000
0000
0000
0001
1000
0001
0000
0010
0000
0100
0000
1000
0000
,  // measure 38
0001
0010
1100
0000
0000
0000
0010
1000
,  // measure 39
0100
0010
0001
0100
0010
1000
0010
0000
,  // measure 40
0010
0000
1001
0000
0000
0000
1000
0100
,  // measure 41
0010
1000
0001
0100
0010
1000
0001
0000
,  // measure 42
0001
0000
0011
0000
0000
0000
0001
0100
,  // measure 43
0001
0100
0010
1000
0100
0010
0001
0000
,  // measure 44
0001
0000
1010
0010
1000
0001
1000
0001
,  // measure 45
0100
0010
0100
0000
1000
0000
0010
0000
,  // measure 46
0001
0000
1001
0000
0000
0000
0000
0010
,  // measure 47
0001
0000
0010
0000
0100
0000
0000
1000
0000
0000
0100
0000
0000
0000
0010
0000
,  // measure 48
1000
0000
0001
0000
0100
0000
0000
1000
0000
0000
0010
0000
0000
0000
0001
0000
,  // measure 49
0010
0000
0100
0000
1000
0000
0000
0010
0000
0000
0100
0000
0000
0001
0000
0000
,  // measure 50
1000
0000
0000
0010
0000
0000
0001
0000
0010
0000
1000
0000
0000
0000
0100
0000
,  // measure 51
0001
0010
1000
0001
0100
1000
0000
0010
,  // measure 52
1000
0100
0010
0001
0010
1000
0000
0001
,  // measure 53
1000
0000
0010
0000
0100
0000
1000
0000
0100
0000
0010
0000
0000
0001
0000
0000
,  // measure 54
0010
0000
0000
0100
0000
0000
1000
0000
0100
0000
1000
0000
0000
0000
0100
0000
,  // measure 55
1000
0000
0100
0000
0010
0000
0000
0010
0000
0000
0010
0000
0000
0001
0100
0000
,  // measure 56
0010
0000
1000
0000
0001
0000
0000
0100
0000
0000
1000
0000
0000
0010
1000
0000
,  // measure 57
0100
0000
1000
0000
0010
0000
0000
0010
0000
0000
0010
0000
0000
0001
0000
0000
,  // measure 58
0010
0000
0000
0100
0000
0000
1000
0000
0100
0000
0010
0000
0000
0010
0100
0000
,  // measure 59
1000
0000
0100
0000
0010
0000
0001
0000
0010
0000
0100
0000
0000
0010
1000
0000
,  // measure 60
0001
0000
0100
0000
1000
0000
0100
0000
0010
0000
0100
0000
0000
0001
0100
0000
,  // measure 61
0010
0000
1000
0000
0001
0000
0100
0000
1000
0000
0010
0000
0000
1000
0000
0000
,  // measure 62
0100
0000
0000
0010
0000
0000
0001
0000
0100
0000
0010
0000
1001
0000
0000
0000
;

//---------------dance-single - ----------------
#NOTES:
     dance-single:
     :
     Medium:
     4:
     0.231,0.348,0.105,0.185,0.000:
0000
0000
0000
0000
,
0000
0000
0000
0000
,
0000
0000
0000
0000
,
0000
0000
0000
0000
,
0000
0000
0000
0000
,
0000
0000
0000
0000
,
0000
0000
0000
0000
,
0000
0000
0000
0000
,
0000
2000
0000
0000
,
0000
0000
0000
0000
,
0000
0002
0000
0000
,
0000
0000
0000
3000
,
0000
0023
0000
0000
,
0000
0000
0000
0000
,
0000
0200
0000
0000
,
0000
0000
0000
0000
,
0330
1001
0000
0000
,
0000
1000
0100
0010
,
0000
0001
0000
0000
0010
0000
0000
0100
,
1000
0100
0000
0000
0010
0000
0100
0000
,
0000
1000
0000
0000
0010
0000
0000
0001
,
0100
0001
0000
0000
0100
0000
0000
1000
,
0000
0000
0010
0000
0000
0100
0000
0001
,
1000
0010
0000
0000
0100
0000
0000
1000
,
0000
0000
0010
0000
0000
0001
0000
0001
,
1000
0001
0000
0000
0100
0000
0000
1000
,
0000
0000
0010
0000
0000
0001
0000
0010
,
0100
0010
0000
0000
0100
0000
0000
1000
,
0000
0000
0010
0000
0000
0001
0000
0100
,
1000
0100
0000
0000
0010
0000
0000
0001
,
0000
0000
0010
0000
0000
0100
0000
1000
,
0100
1000
0000
0000
0010
0000
0000
0100
,
0000
0000
1000
0000
0000
0001
0000
0100
,
1000
0020
0002
0000
0000
0000
0033
0000
,
1000
0100
0010
0000
0000
0000
0000
0000
,
0001
0010
0100
0000
0000
1000
0100
0010
,
0001
0100
1100
0020
0030
0000
0002
0013
,
0100
1000
1020
0000
0000
0000
2000
0000
,
0000
0000
3000
1000
,
1030
1100
0000
0200
,
0000
0000
0000
0010
,
1000
0300
2002
0000
0000
0000
0000
0000
,
0000
0000
0000
0000
,
3003
0110
0010
0011
,
0100
1000
0100
0010
,
0001
1001
0000
0001
,
0010
0100
1000
0100
,
0010
0001
0100
0001
,
0010
0000
0100
0000
1000
0000
0000
0200
,
0000
0000
0000
0010
0010
0310
0000
0000
,
1000
0100
0010
0001
,
0100
1000
0010
0100
,
0001
1000
0100
1020
,
0100
0000
1000
0000
0130
1000
0100
0000
,
0010
1000
0002
0013
,
0100
1000
0200
1300
,
0010
0100
0001
2000
,
3200
0000
0320
0000
0031
0100
1000
0000
,
0100
0010
0001
0101
,
0010
0100
1000
1010
,
0010
0110
0001
0002
,
0023
0000
0230
0000
1300
0010
1001
0000
;

//---------------dance-single - ----------------
#NOTES:
     dance-single:
     :
     Easy:
     2:
     0.130,0.199,0.024,0.097,0.000:
0000
0000
0000
0000
,
0000
0000
0000
0000
,
0000
0000
0000
0000
,
0000
0000
0000
0000
,
0000
0000
0000
0000
,
0000
0000
0000
0000
,
0000
0000
0000
0000
,
0000
0000
0000
0000
,
0000
0002
0000
0000
,
0000
0000
0000
0000
,
0000
0000
0000
0000
,
0000
0000
0000
0000
,
0000
2000
0000
0000
,
0000
0000
0000
0000
,
0000
0000
0000
0000
,
0000
0000
0000
0000
,
0000
3003
0000
0000
,
0000
0000
1000
0000
,
0100
0000
0001
0000
,
0010
0000
1000
0000
,
0001
0000
0010
0000
,
0100
0000
1000
0000
,
0100
0000
0010
0000
,
0001
0000
1000
0000
,
0010
0000
0001
0000
,
1000
0001
0100
0010
,
0000
0010
0000
1000
,
0000
0100
0000
0001
,
0000
0010
0000
1000
,
0000
0100
0000
0010
,
0000
0001
0000
1000
,
0000
0001
0000
0100
,
0000
0010
0000
1000
,
0000
2002
0000
3003
,
0010
0000
0000
0000
,
1000
0001
0000
0010
,
0000
0000
1000
0200
0300
0000
0010
0001
,
0010
1000
0000
0200
,
0000
0000
0000
0001
,
0001
0301
0000
0020
,
0000
0000
0000
1000
,
1000
1030
0000
0200
,
0000
0000
0000
0000
,
0000
0302
0000
2003
,
0000
3010
1000
0100
,
0010
0011
0000
1000
,
0000
0000
0000
0000
,
0001
0000
0000
0000
,
0010
0000
0000
1000
,
0100
0001
0010
1000
,
0000
0001
0000
0010
,
0000
0100
0100
0100
,
0000
1000
0000
0020
,
0000
0000
0001
0031
,
0000
1000
0000
0100
,
0000
0001
0000
1000
,
0000
0100
0000
0020
,
0000
0000
1000
1030
,
0000
0001
0000
0100
,
0000
0010
0010
1000
,
0000
0001
0000
0100
,
0010
1000
0001
1001
;

//---------------dance-single - ----------------
#NOTES:
     dance-single:
     :
     Edit:
     10:
     0.612,0.821,0.209,0.201,0.600: // measure 1
0000
0000
0000
0000
,  // measure 2
0000
0000
0000
0000
,  // measure 3
0000
0000
0000
0000
,  // measure 4
0000
0000
0000
0000
,  // measure 5
0000
0000
0000
0000
,  // measure 6
0000
0000
0000
0000
,  // measure 7
0000
0000
0000
0000
,  // measure 8
0000
0000
0000
0000
,  // measure 9
0000
0000
1000
0100
0010
0100
0001
0000
,  // measure 10
0010
1000
0000
0010
0100
0000
0010
0100
,  // measure 11
0000
1000
0100
0010
0000
0001
0100
0000
,  // measure 12
1000
0100
0000
0010
0100
0000
1000
0100
,  // measure 13
0000
0010
0100
1000
0100
0010
0001
1000
,  // measure 14
0010
0100
1000
0100
0010
1000
0001
0100
,  // measure 15
0010
0000
1000
0000
0001
0010
0100
1000
0100
0010
0001
1000
0001
1000
0100
1000
,  // measure 16
0010
0001
0010
0100
0001
0100
0001
0100
1000
0100
1000
0100
0010
0001
0010
0100
,  // measure 17
1000
0001
1000
0100
0020
0000
0000
0000
0000
0000
0000
0000
0000
0000
0000
0000
,  // measure 18
0000
0000
1030
0100
0010
0000
0120
1M30
,  // measure 19
0000
0012
01M3
0000
1020
M130
0000
002M
,  // measure 20
1000
1030
0100
0001
1000
0000
2001
310M
,  // measure 21
0000
1020
M031
0000
2100
3M01
0000
20M0
,  // measure 22
0100
3100
0001
0010
0100
0000
0210
03M1
,  // measure 23
0000
2100
3M10
0000
0201
031M
0000
M200
,  // measure 24
0001
0301
0010
1000
0001
0000
1002
M013
,  // measure 25
0000
0201
130M
0000
0012
10M3
0000
0M02
,  // measure 26
0010
0013
0001
1000
0100
0000
1200
M301
,  // measure 27
0000
0120
1M30
0000
0201
130M
0000
02M0
,  // measure 28
0001
0301
0010
0100
0001
0000
0102
0M13
,  // measure 29
0000
2001
310M
0000
0012
01M3
0000
M002
,  // measure 30
0010
0013
1000
0100
0010
0010
1000
0001
,  // measure 31
0100
0010
1000
0100
0010
0001
0100
0010
,  // measure 32
1000
0000
0001
0000
1000
0100
1000
0100
1000
0100
1000
0100
1000
0100
1000
0100
,  // measure 33
1000
0100
0010
0001
0010
0100
1000
0100
0010
0100
0001
1000
0010
0100
1000
0001
,  // measure 34
0010
0100
1000
0001
0100
0000
0000
0000
0000
0000
0000
0000
0000
0000
0000
0000
,  // measure 35
1000
0100
0010
0000
0000
0000
0000
0000
,  // measure 36
0001
0000
0010
0000
0100
0000
0000
0000
0000
1000
0001
0100
0010
0001
0001
1000
,  // measure 37
0000
0000
0100
0000
1000
0000
0010
0000
1000
0000
0000
0000
1000
0100
0010
0001
0010
0000
0000
0000
0000
0000
1000
0001
1000
0000
0001
0000
0100
0000
0010
0000
,  // measure 38
0001
0000
1000
0000
1100
0000
0000
0000
0000
0000
0000
0000
0010
1000
0010
1000
,  // measure 39
0010
0100
0010
0100
0010
0001
0010
0001
0010
0001
0010
0001
0010
0000
0000
0000
,  // measure 40
0010
0000
0000
0000
0110
0000
0000
0000
0000
0000
0000
0000
0001
1000
0001
1000
,  // measure 41
0010
1000
0010
1000
0010
0100
0010
0100
0010
0100
0010
0100
0010
0000
0000
0000
,  // measure 42
0010
0000
0000
0000
1100
0000
0000
0000
0000
0000
0000
0000
0010
1000
0010
1000
,  // measure 43
0010
0100
0010
0100
0010
0100
0010
0100
0001
0100
0001
0100
0001
0100
0001
0100
,  // measure 44
0001
0100
0001
0100
0010
1000
0010
1000
0010
1000
0010
1000
0010
1000
0010
1000
,  // measure 45
0010
0001
0010
0001
0010
0000
0000
0000
1100
0000
0000
0000
0110
0000
0000
0000
,  // measure 46
1001
0000
0000
0000
1110
0000
0000
0000
0000
0000
0000
0000
1000
0100
0010
0000
,  // measure 47
0001
0000
0100
0000
0010
0000
0100
1000
0000
0010
0100
1000
0000
0001
0100
0000
,  // measure 48
0001
0000
1000
0000
0010
0000
0001
0100
0000
1000
0100
0010
0000
0001
1000
0000
,  // measure 49
0100
0000
0001
0000
0100
0000
0010
0100
0000
1000
0100
1000
0000
0010
0001
0000
,  // measure 50
0010
0100
0000
0100
1000
0000
0001
0000
0100
0000
0001
0000
0100
0001
1000
0000
,  // measure 51
0010
0000
0001
0000
1000
0000
0001
0100
0000
1000
0001
0100
0000
0010
0001
0000
,  // measure 52
0010
0000
0100
0000
1000
0100
0010
0001
0010
0100
0001
1000
0100
0010
0100
0010
,  // measure 53
0000
0000
0001
0010
0001
0010
0001
0100
1000
0100
0010
0001
0000
1000
0100
0000
,  // measure 54
0001
0010
0000
0100
0010
0000
1000
0000
0001
0000
0100
0000
0001
1000
0100
0000
,  // measure 55
0010
0000
1000
0000
0100
0000
1000
0001
0000
0100
1000
0001
0000
0010
1000
0000
,  // measure 56
0010
0000
0001
0000
0100
0000
0010
1000
0000
0001
1000
0100
0000
0010
0001
0000
,  // measure 57
1000
0000
0010
0000
1000
0000
0100
1000
0000
0001
1000
0001
0000
0100
0010
0000
,  // measure 58
0100
1000
0000
1000
0001
0000
0010
0000
1000
0000
0010
0000
1000
0010
0001
0000
,  // measure 59
0100
0000
0010
0000
0001
0000
0010
1000
0000
0001
0010
1000
0000
1000
0010
0000
,  // measure 60
1000
0000
0001
0000
0100
0001
1000
0010
1000
0001
0010
0100
0001
1000
0001
1000
,  // measure 61
0000
0000
0010
1000
0010
1000
0010
0001
0100
0001
1000
0010
0000
0010
0001
0000
,  // measure 62
1000
0000
0010
0100
0000
0010
0001
0000
0100
0000
0001
0000
1100
0000
0000
0000
;
