#TITLE:Quell [ANOTHER];
#SUBTITLE:-The Seventh Slave-;
#ARTIST:DJ Taka Vs. DJ Yoshitaka;
#TITLETRANSLIT:;
#SUBTITLETRANSLIT:;
#ARTISTTRANSLIT:;
#CREDIT:Kyon;
#BANNER:bn.PNG;
#BACKGROUND:bg.PNG;
#LYRICSPATH:;
#CDTITLE:IIDX DistorteD.png;
#MUSIC:quell -the seventh slave- [Another].mp3;
#OFFSET:-0.040;
#SAMPLESTART:27.031;
#SAMPLELENGTH:12.000;
#SELECTABLE:YES;
#BPMS:0.000=162.000,65.000=81.010,69.000=162.000,133.000=81.000,149.000=162.000,181.000=81.000,182.000=162.000;
#STOPS:182.000=1.111
;
#BGCHANGES:;

//---------------dance-single - ----------------
#NOTES:
     dance-single:
     :
     Hard:
     8:
     0.526,0.699,0.176,0.250,0.250:
0000
0000
0000
0000
,
0000
0000
0000
0000
,
0000
0000
0000
0000
,
0000
0000
0000
0000
,
0000
0000
0000
0000
,
0000
0000
0000
0000
,
0000
0000
0000
0000
,
0000
0000
0000
0000
,
0000
0000
1000
0100
0000
0000
0010
0000
,
0000
0001
0000
0000
0100
0000
0000
0010
,
0000
1000
0100
0010
0000
0000
0001
0000
,
0000
1000
0000
0000
0001
0000
0000
0100
,
0000
0010
0110
0010
0000
0000
0010
0000
,
0000
1000
0000
0000
0001
0000
0000
0100
,
0000
0000
0010
1000
0000
1000
0100
0000
,
0010
0001
0000
0100
0001
0000
1000
0001
,
0000
0001
0102
0100
0200
0000
0000
0000
,
0000
0303
0020
0100
0230
0000
0320
0100
,
0000
0100
0200
0030
0010
0020
0300
0100
,
0100
0130
2000
0100
3200
0000
2300
0100
,
0000
0100
0200
3000
1000
2000
0300
0100
,
0100
3100
0200
0010
0320
0000
0230
0010
,
0000
0010
0020
0300
0100
0200
0030
0010
,
0010
0310
2000
0010
3020
0000
2030
0010
,
0000
0010
0020
3000
1000
2000
0030
0010
,
0010
0000
3010
0000
1000
0000
0001
0100
0001
0000
0000
0000
0010
0100
0010
0000
,
0000
0000
1000
0100
1000
0000
0000
0000
0001
0100
0001
0000
0000
0000
0010
0100
,
0010
0000
0100
0000
0000
0000
1000
0001
1000
0000
0000
0000
1000
0100
1000
0000
,
0000
0000
0001
0100
0001
0000
0000
0000
0010
0001
0010
0000
0000
0000
1000
0001
,
1000
0000
0001
0000
1000
0000
0100
1000
0100
0000
0000
0000
0001
0010
0001
0000
,
0000
0000
0100
0001
0100
0000
0000
0000
0010
0100
0010
0000
0000
0000
1000
0001
,
1000
0001
0100
0001
0010
0000
0010
0100
,
1000
0000
0000
0000
0001
0000
1000
0000
0100
0000
1000
0000
0001
0000
0100
0010
,
0100
1000
1001
0000
0000
0000
0000
0000
,
1000
0100
0010
0000
0000
0000
0000
0000
,
1000
0000
0100
0000
0010
0000
0000
0000
0000
0010
0001
0100
0001
0100
0010
1000
,
0000
0000
0010
0000
0100
0000
0001
0000
1000
0000
0000
0000
0001
0100
0001
0010
0001
0000
0000
0000
0000
0000
0001
1000
0100
0000
0010
0000
0001
0000
0010
0000
,
0100
0000
0010
0000
1000
0000
0000
0000
1100
0000
0000
0001
0100
0000
0010
0000
,
0100
0000
1000
0000
0100
1000
0000
1000
,
0000
0000
1000
0000
0100
0000
0000
0000
0010
0000
0000
0001
0100
0000
0010
0000
,
1000
0000
0010
0100
0001
1000
1001
0000
,
1001
0000
0000
0000
0101
0000
0000
0000
0010
0000
0000
0100
0010
0000
0010
0000
,
1010
0000
0100
1000
0100
0010
0001
0010
,
0100
0000
0000
0000
0001
0100
0001
0000
0100
0000
0010
0000
1000
0000
0100
0000
,
0010
0001
0011
0000
1100
0000
0110
0000
,
1100
2002
3003
0000
,
0000
0000
0000
0000
0001
0000
0100
0000
0010
0000
1000
0000
0010
0000
0000
0100
,
0000
0000
0010
0100
0000
1000
0100
0000
1000
0000
0001
0000
0100
0000
0000
0010
,
0000
0000
1000
0001
0000
0001
0100
0000
0010
0000
1000
0000
0001
0000
0100
0000
,
0010
1000
0000
1000
0010
0100
0010
1000
,
0001
0000
0010
0000
0001
0000
0100
0000
0010
0000
1000
0000
1000
0000
0000
0001
,
0000
0000
0001
0100
0000
0010
0100
0000
0010
0000
1000
0000
0100
0000
0010
0000
,
0001
0010
0000
1000
0001
0100
0010
0100
,
0001
0000
0010
0000
0000
0011
0000
0000
1100
0000
0000
1001
0000
0000
0110
0000
,
0120
0000
0100
0000
0130
0000
0001
0000
1000
0000
0100
0000
1000
0000
0000
0001
,
0000
0000
1000
0001
0000
0100
0001
0000
0100
0000
0001
0000
0010
0000
0000
1000
,
0000
0000
0100
0010
0000
0010
0001
0000
1000
0000
0100
0000
0010
0000
0001
0000
,
1000
0010
0000
0100
1000
0001
1000
0100
,
0010
1000
0010
0001
1000
0100
0000
0001
,
0010
0100
0010
0001
1000
0001
0000
0100
,
0010
1000
0001
0010
0100
0010
0001
1000
,
0001
0000
0100
0000
0000
0010
0100
0000
1000
0100
0000
0010
0001
0000
0001
0100
,
0001
0100
2002
0000
0000
0000
0000
0000
,
3003
0000
0000
0000
;

//---------------dance-single - ----------------
#NOTES:
     dance-single:
     :
     Medium:
     6:
     0.375,0.466,0.213,0.065,0.000: // measure 1
0000
0000
0000
0000
,  // measure 2
0000
0000
0000
0000
,  // measure 3
0000
0000
0000
0000
,  // measure 4
0000
0000
0000
0000
,  // measure 5
0000
0000
0000
0000
,  // measure 6
0000
0000
0000
0000
,  // measure 7
0000
0000
0000
0000
,  // measure 8
0000
0000
0000
0000
,  // measure 9
0000
0000
1000
0001
0000
0000
0100
0000
,  // measure 10
0000
0010
0000
0000
1000
0000
0000
0010
,  // measure 11
0000
1000
0001
0100
0000
0000
0100
0000
,  // measure 12
0000
0100
0000
0000
0100
0000
0000
0010
,  // measure 13
0000
1000
0001
0200
0000
0000
0001
0000
,  // measure 14
0000
0001
0000
0000
0001
0000
0000
0001
,  // measure 15
0000
0000
0000
0001
0000
0000
0001
0000
,  // measure 16
0000
0001
0000
0000
0001
0000
0000
0301
,  // measure 17
0000
2002
0000
3003
,  // measure 18
0000
0000
1000
0001
1000
0000
0001
0100
,  // measure 19
0000
0010
1000
0000
1000
0100
0000
0010
,  // measure 20
0001
0010
0000
0001
1000
0000
1000
0100
,  // measure 21
0000
0100
0010
0000
0010
0001
0000
1000
,  // measure 22
0001
1000
0000
0001
0100
0000
0100
0010
,  // measure 23
0000
0010
1000
0000
1000
0100
0000
1000
,  // measure 24
0100
1000
0000
0001
1000
0000
1000
0001
,  // measure 25
0000
0001
0100
0000
0100
0001
0000
1000
,  // measure 26
0001
1000
0000
1000
1000
0000
0001
0001
,  // measure 27
0000
1000
1000
0000
0001
0001
0000
1000
,  // measure 28
0001
1000
0000
0100
0100
0000
0010
0010
,  // measure 29
0000
0100
0100
0000
0010
0010
0000
1000
,  // measure 30
0001
0100
0000
1000
0100
0000
0010
0001
,  // measure 31
0000
0100
0001
0000
0010
1000
0000
1000
,  // measure 32
0100
0010
0000
0010
0001
0000
0001
0100
,  // measure 33
0000
0010
1000
0000
1000
0001
0000
1000
,  // measure 34
0100
0010
0001
0000
0000
0000
0000
0000
,  // measure 35
0001
1000
0001
0000
0000
0000
0000
0000
,  // measure 36
0001
0100
0010
0000
0000
0010
1000
0001
,  // measure 37
1000
1000
1000
0100
0010
0000
1000
0001
,  // measure 38
0100
0010
1010
0000
0000
0000
1000
0000
,  // measure 39
0001
0000
0100
0000
0010
1000
0000
1000
,  // measure 40
0000
1000
0001
0000
1000
0001
0000
0001
,  // measure 41
0000
0000
0001
0000
0100
0001
0000
0001
,  // measure 42
0000
0000
1001
0000
0000
0000
0001
1000
,  // measure 43
0100
0000
1100
0000
0010
0000
0001
1000
,  // measure 44
0001
0100
0010
1000
,  // measure 45
0100
0011
1100
1010
,  // measure 46
0101
2002
3003
0000
,  // measure 47
0000
0000
1000
0001
1000
0000
0001
0000
,  // measure 48
0101
0000
0001
0010
0001
0000
0011
0000
,  // measure 49
1100
0000
1000
0001
0100
0000
1000
0010
,  // measure 50
1000
0000
1000
0100
0010
0001
1000
0001
,  // measure 51
1000
0001
1000
0000
0101
0000
1000
0001
,  // measure 52
0010
0000
1000
0000
1010
0000
1000
0001
,  // measure 53
0100
0000
1000
0100
1000
0000
0001
0100
,  // measure 54
0001
1001
1100
0011
,  // measure 55
0101
0000
1000
0001
1000
0000
0101
0000
,  // measure 56
0101
0000
1000
0001
0010
0000
1010
0000
,  // measure 57
1010
0000
1000
0001
1000
0000
1000
0000
,  // measure 58
1000
0000
0001
1000
0001
0000
0100
0001
,  // measure 59
0100
0000
1000
0000
1000
0100
0000
0010
,  // measure 60
0000
0001
0100
0000
1000
0001
0000
1000
,  // measure 61
0000
0001
1000
0000
0001
0000
0100
0010
,  // measure 62
1000
0001
1000
0100
,  // measure 63
0010
0001
2002
0000
0000
0000
0000
0000
,  // measure 64
3003
0000
0000
0000
;

//---------------dance-single - ----------------
#NOTES:
     dance-single:
     :
     Easy:
     3:
     0.240,0.291,0.037,0.055,0.000: // measure 1
0000
0000
0000
0000
,  // measure 2
0000
0000
0000
0000
,  // measure 3
0000
0000
0000
0000
,  // measure 4
0000
0000
0000
0000
,  // measure 5
0000
0000
0000
0000
,  // measure 6
0000
0000
0000
0000
,  // measure 7
0000
0000
0000
0000
,  // measure 8
0000
0000
0000
0000
,  // measure 9
0000
2000
0000
0000
,  // measure 10
0000
0000
0000
0000
,  // measure 11
0000
0000
0000
0000
,  // measure 12
0000
0000
0000
0000
,  // measure 13
0000
0002
0000
0000
,  // measure 14
0000
0000
0000
0000
,  // measure 15
0000
3003
0000
0000
,  // measure 16
0000
0000
0000
0000
,  // measure 17
0000
0000
1000
0001
0100
0000
0000
0000
,  // measure 18
0000
0000
0010
0000
1000
0000
0000
1000
,  // measure 19
0000
0000
1000
0000
0000
1000
0000
0001
,  // measure 20
1000
0001
0000
0000
0001
0000
0000
0001
,  // measure 21
0000
0000
0001
0000
0000
0001
0000
0100
,  // measure 22
0001
0100
0000
0000
0010
0000
0000
1000
,  // measure 23
0000
0000
0010
0000
0000
1000
0000
0001
,  // measure 24
0100
0001
0000
0000
0010
0000
0000
0001
,  // measure 25
0000
0000
0010
0000
0000
0001
0000
1000
,  // measure 26
0100
1000
0000
0000
1000
0000
0000
0001
,  // measure 27
0000
0000
0100
0000
0000
0010
0000
1000
,  // measure 28
0001
1000
0000
0000
1000
0000
0000
0001
,  // measure 29
0000
0000
0100
0000
0000
0010
0000
1000
,  // measure 30
0010
1000
0000
0000
1000
0000
0000
0001
,  // measure 31
0000
0000
0010
0000
0000
0001
0000
0100
,  // measure 32
0001
0100
0000
0000
0001
0000
0000
0100
,  // measure 33
0000
0000
0010
0000
0000
1000
0000
0001
,  // measure 34
1000
0001
0100
0000
0000
0000
0000
0000
,  // measure 35
1000
1000
1000
0000
0000
0000
0000
0000
,  // measure 36
0001
0001
0001
0000
0000
0000
0001
0000
,  // measure 37
1000
0000
0010
0000
0100
0000
0010
1000
,  // measure 38
0001
1001
0000
1000
,  // measure 39
0001
0100
0010
1000
,  // measure 40
0010
0110
0000
0010
,  // measure 41
1000
0010
0100
0001
,  // measure 42
1000
2002
0000
0000
,  // measure 43
0000
3000
1000
0000
0000
0000
1000
0000
,  // measure 44
0000
1003
0001
0100
,  // measure 45
0010
1000
0001
0100
,  // measure 46
0010
1001
0000
0000
,  // measure 47
0000
1000
0001
0100
,  // measure 48
0010
1000
0010
0100
,  // measure 49
0010
1000
0001
0010
,  // measure 50
0001
0100
0001
0100
,  // measure 51
0010
1000
0001
1000
,  // measure 52
0100
0010
0001
0100
,  // measure 53
0001
1000
0010
0100
,  // measure 54
0010
1000
1000
1000
,  // measure 55
0010
1000
0010
0000
1000
0000
0010
0000
,  // measure 56
0100
0010
1000
0001
,  // measure 57
0100
0001
0010
0001
,  // measure 58
0100
0010
1000
0001
,  // measure 59
1000
0000
0001
0000
0001
0100
0000
0100
,  // measure 60
0000
0010
1000
0000
0010
1000
0000
0100
,  // measure 61
0000
0010
1000
0000
0001
1000
0000
0100
,  // measure 62
0010
0001
1000
0100
,  // measure 63
0010
2000
0002
0000
0000
0000
0000
0000
,  // measure 64
3003
0000
0000
0000
;

//---------------dance-single - ----------------
#NOTES:
     dance-single:
     :
     Beginner:
     1:
     0.075,0.115,0.065,0.000,0.000: // measure 1
0000
0000
0000
0000
,  // measure 2
0000
0000
0000
0000
,  // measure 3
0000
0000
0000
0000
,  // measure 4
0000
0000
0000
0000
,  // measure 5
0000
0000
0000
0000
,  // measure 6
0000
0000
0000
0000
,  // measure 7
0000
0000
0000
0000
,  // measure 8
0000
0000
0000
0000
,  // measure 9
0000
1000
0000
0000
,  // measure 10
0000
0000
0000
0000
,  // measure 11
0000
0000
0000
0000
,  // measure 12
0000
0000
0000
0000
,  // measure 13
0000
0001
0000
0000
,  // measure 14
0000
0000
0000
0000
,  // measure 15
0000
0010
0000
0000
,  // measure 16
0000
0000
0000
0000
,  // measure 17
0000
1001
0000
0000
,  // measure 18
0000
1000
0000
0000
,  // measure 19
0000
1000
0000
0000
,  // measure 20
0000
0001
0000
0000
,  // measure 21
0000
0001
0000
0000
,  // measure 22
0000
0010
0000
0000
,  // measure 23
0000
0010
0000
0000
,  // measure 24
0000
0100
0000
0000
,  // measure 25
0000
0100
0000
0100
,  // measure 26
0000
0110
0000
0000
,  // measure 27
0000
1000
0000
0000
,  // measure 28
0000
0001
0000
0000
,  // measure 29
0000
0010
0000
0000
,  // measure 30
0000
0110
0000
0000
,  // measure 31
0000
0100
0000
0000
,  // measure 32
0000
1000
0000
0000
,  // measure 33
0000
0001
0000
0000
,  // measure 34
0000
1001
0000
0000
,  // measure 35
0000
0000
0000
0000
,  // measure 36
0000
0000
0000
0000
,  // measure 37
0000
0000
0000
0000
,  // measure 38
0000
1000
0000
0000
,  // measure 39
0000
0000
0000
0000
,  // measure 40
0000
0001
0000
0000
,  // measure 41
0000
0000
0000
0000
,  // measure 42
0000
0100
0000
0000
,  // measure 43
0000
0000
0000
0000
,  // measure 44
0000
0010
0000
1000
,  // measure 45
0000
0001
0000
1000
,  // measure 46
0000
1001
0000
0000
,  // measure 47
0000
0010
0000
0000
,  // measure 48
0000
1000
0000
0000
,  // measure 49
0000
0001
0000
0000
,  // measure 50
0000
1000
0000
0000
,  // measure 51
0000
0001
0000
0000
,  // measure 52
0000
1000
0000
0000
,  // measure 53
0000
0010
0000
0000
,  // measure 54
0000
0100
0000
0100
,  // measure 55
0000
0110
0000
0000
,  // measure 56
0000
0010
0000
0000
,  // measure 57
0000
1000
0000
0000
,  // measure 58
0000
0001
0000
0000
,  // measure 59
0000
0001
0000
0001
,  // measure 60
0000
0001
0000
0000
,  // measure 61
0000
1000
0000
0010
,  // measure 62
0000
0100
0000
0000
,  // measure 63
0000
1001
0000
0000
;
