#TITLE:Pumpin Rabbit Express;
#SUBTITLE:;
#ARTIST:Ryu*;
#TITLETRANSLIT:;
#SUBTITLETRANSLIT:;
#ARTISTTRANSLIT:;
#CREDIT:;
#BANNER:bn.PNG;
#BACKGROUND:bg.PNG;
#LYRICSPATH:;
#CDTITLE:;
#MUSIC:Pumpin Rabbit Express.mp3;
#OFFSET:-0.100;
#SAMPLESTART:49.380;
#SAMPLELENGTH:12.000;
#SELECTABLE:YES;
#BPMS:0.000=180.020;
#STOPS:64.000=1.000
,143.000=0.333
;
#BGCHANGES:;

//---------------dance-single - ----------------
#NOTES:
     dance-single:
     :
     Hard:
     8:
     0.639,0.623,1.000,0.008,0.000:
0000
0000
0000
0000
,
0000
0000
0000
0000
,
0000
0000
0000
0000
,
0000
0000
0000
0000
,
0000
0000
0000
0000
,
0000
0000
0000
0000
,
0000
0000
0000
0000
,
0000
0000
0000
0000
,
1000
0001
1000
0001
0000
0010
0000
0010
,
0100
0001
1000
0001
0000
0010
0000
0010
,
1000
0100
1000
0100
0000
0001
0000
0001
,
0001
1000
0001
0100
0010
0100
0010
0100
,
0010
1000
0010
0100
0000
0100
0000
0010
,
0100
0001
0100
0001
0000
0001
0000
1000
,
0100
0010
0001
1000
0000
0100
0000
0001
,
1000
0100
0010
0001
1000
0100
0010
0001
,
0000
0000
0010
0110
0000
0110
0000
0110
,
0000
0110
0000
1001
0000
1001
0000
1001
,
0000
1001
0000
1100
0000
1100
0000
1100
,
0000
1100
0000
0101
0000
0101
0000
0101
,
0000
0101
0000
0011
0000
0011
0000
0011
,
0000
0011
0000
1010
0000
1010
0000
1010
,
0000
1010
0000
0110
0000
0110
0000
0110
,
0000
0010
0100
0000
0110
0000
1000
0000
,
1001
0000
1000
1100
0000
1100
0000
1100
,
0000
1100
0000
0101
0000
0101
0000
0101
,
0000
0101
0000
0011
0000
0011
0000
0011
,
0000
0011
0000
1010
0000
1010
0000
1010
,
0000
1010
0000
0110
0000
0110
0000
0110
,
0000
0110
0000
1001
0000
1001
0000
1001
,
0000
1001
0000
0101
0000
1001
0000
1100
,
0000
1001
0000
0011
0000
1010
0000
1001
,
0000
1001
0000
0101
0000
0101
0000
0101
,
0000
0000
0000
1100
0000
1100
0000
1100
,
0000
0000
0000
0110
0000
0110
0000
0110
,
0000
1001
0000
1100
0000
0010
0001
0000
,
1000
1000
0001
0001
,
1000
0001
1000
0001
1000
0001
1001
0000
,
0010
0010
0100
0100
,
0110
0000
0010
0100
0010
0000
0110
0000
,
1000
1000
0001
0001
,
1000
0001
1000
0001
1000
0001
1001
0000
,
0010
0010
0100
0100
,
0110
0000
0010
0010
0010
0000
0110
0000
,
1000
0001
0100
0010
,
0010
0100
0001
1000
0010
0100
0101
0000
,
0110
1010
0011
1100
,
1001
0000
0001
0001
0001
0000
1001
0000
,
0000
1000
0000
0001
0000
0100
0000
0010
,
0000
0100
0000
0010
0000
1000
0000
0001
,
1000
0100
1000
0000
0010
0001
0010
0000
,
0001
1000
0001
0100
0010
1000
0001
0100
,
0010
1000
0001
1000
0000
1000
0000
1000
,
0100
0010
0001
0010
0000
0010
0000
0010
,
0100
0001
0100
0001
0000
0100
0000
0010
,
1000
0100
0010
0001
0100
0010
0001
0010
,
0001
1000
0001
0000
0100
0000
0010
0000
,
0010
0100
0010
0000
0010
0100
0010
0000
,
1000
0000
0001
0000
0100
0001
1000
0000
,
1000
0100
0010
0001
,
0001
0100
0010
0000
1000
0000
0001
0000
,
1000
0100
0100
1000
0100
0100
1000
0100
,
0010
0001
0100
0010
,
1001
0000
0010
0000
0110
0000
0010
1000
,
0001
0101
1100
0010
,
0011
0100
1001
0100
,
0110
1100
0011
1010
,
0101
0000
0000
0000
,
1000
1100
0000
1100
0000
1100
0000
1100
,
0000
0110
0000
0110
0000
0110
0000
0110
,
0000
0011
0000
0011
0000
0011
0000
0011
,
0000
0101
0000
0101
0000
0101
0000
0101
,
0000
0110
0000
0110
0000
0110
0000
0110
,
0000
1100
0000
0011
0000
0101
0000
0110
,
0000
1010
0000
1100
0000
0110
0000
0001
,
0010
0000
0100
0000
1000
0000
0001
1000
,
0101
0000
1100
0000
0010
0100
0001
1000
,
0001
1000
1000
0001
1000
1000
0001
1000
,
0001
0000
0100
0000
0010
1000
0001
0000
,
1100
0101
0110
1001
,
1000
0001
1000
0010
1000
0001
0100
0010
,
1000
0100
0100
1000
0100
0100
0010
0001
,
0100
0010
1000
0001
0100
0100
0001
1000
,
0010
0000
1010
0000
0110
0000
0001
0010
,
0000
1100
0000
1100
0000
1100
0000
0000
,
0000
0101
0000
0101
0000
0101
0000
0000
,
0000
0011
0000
0011
0000
0011
0000
0011
,
0000
0011
0000
0011
0000
0000
0000
0000
,
0000
1010
0000
1010
0000
1010
0000
0000
,
0000
0110
0000
0110
0000
0110
0000
0000
,
0000
1001
0000
0110
0000
1100
0000
0110
,
0000
0011
0000
0010
0200
0000
0300
0000
;

//---------------dance-single - ----------------
#NOTES:
     dance-single:
     :
     Medium:
     6:
     0.502,0.584,0.807,0.016,0.000:
0000
0000
0000
0000
,
0000
0000
0000
0000
,
0000
0000
0000
0000
,
0000
0000
0000
0000
,
0000
0000
0000
0000
,
0000
0000
0000
0000
,
0000
0000
0000
0000
,
0000
0000
0000
0000
,
0101
0001
0100
0010
,
0100
0010
0100
0110
,
0110
0010
1000
0001
,
1000
0100
1000
0000
0001
0100
0001
0000
,
0110
0010
0100
1000
,
1100
0100
0010
0001
,
0011
0110
0110
0110
,
0010
1000
0010
0000
0001
0100
0001
0000
,
1001
0000
0001
0100
0000
0100
0000
0100
,
0000
0100
0000
0110
0000
0110
0000
0110
,
0000
0110
0000
0010
0000
0010
0000
0010
,
0000
0010
0000
0011
0000
0011
0000
0011
,
0000
0011
0000
0001
0000
0001
0000
0001
,
0000
0001
0000
0101
0000
0101
0000
0101
,
0000
0101
0000
0100
0000
0100
0000
0100
,
0000
0100
0000
0110
0000
0110
0000
0110
,
0000
0110
0000
1001
0000
1001
0000
1001
,
0000
1001
0000
1000
0000
0001
0000
0100
,
0000
0010
0000
1010
0000
1010
0000
1010
,
0000
1010
0000
0010
0000
1000
0000
0001
,
0000
0100
0000
0101
0000
0101
0000
0101
,
0000
0101
0000
0001
0000
1000
0000
0001
,
0000
0100
0000
0110
0000
0110
0000
0110
,
0000
0110
0000
0010
0000
1000
0000
0001
,
0000
0100
0000
1100
0000
1100
0000
1100
,
0000
0000
0000
0101
0000
0101
0000
0101
,
0000
0000
0000
0110
0000
0110
0000
0110
,
0000
0110
0000
0110
0000
0110
0000
0000
,
1000
1000
0001
0001
,
1000
0000
0001
0000
1000
0001
1000
0000
,
0010
0010
0100
0100
,
0110
0010
0110
0100
,
0110
0010
0010
0010
,
0010
0000
0010
0000
0010
0100
0010
0000
,
0001
1000
0100
0010
,
0001
0000
0001
1000
0001
0000
0101
0000
,
0001
0001
1000
1000
,
0001
0000
1000
0000
0001
1000
0100
0000
,
0001
0001
1000
0001
,
1000
0000
0010
0001
0010
0000
0001
0000
,
0000
1000
0000
1000
0000
1000
0000
1000
,
0000
0001
0000
0001
0000
0001
0000
0001
,
0000
0100
0000
0100
0000
0100
0000
0100
,
0010
0100
0010
0000
0001
1000
0001
0000
,
1000
0000
0000
0100
0000
1000
0000
0000
,
0100
0000
0000
0010
0000
0001
0000
0000
,
0100
0000
0000
0010
0000
0100
0000
0000
,
0001
1000
0001
0100
,
0110
0010
0010
0010
,
0100
0100
0100
0100
,
1000
1000
1000
2000
,
3100
0000
0010
0000
0001
0000
0010
0001
,
0100
0100
0100
0010
,
1000
0001
1000
0000
1000
0100
1000
0000
,
0100
0010
0001
0100
,
0020
0130
1000
0101
,
0101
0000
1100
0000
,
0110
0000
1001
0000
,
1100
0110
0011
0101
,
1001
0000
0000
0000
,
1000
0100
0000
0010
0000
0001
0000
0010
,
0000
0110
0000
0110
0000
0110
0000
0110
,
0000
0010
0000
1000
0000
0001
0000
1000
,
0000
1100
0000
1100
0000
1100
0000
1100
,
0000
0010
0000
1000
0000
0010
0000
0100
,
0000
0101
0000
0101
0000
0101
0000
0101
,
0000
0010
0000
0001
0000
0100
0000
0010
,
0000
0110
0000
0110
0000
0110
0000
0110
,
0000
1001
0000
1001
0000
1001
0000
1001
,
0000
0001
0000
1000
0000
0100
0000
0010
,
0000
0011
0000
0011
0000
0011
0000
0011
,
0000
0001
0000
0100
0000
0010
0000
1000
,
0000
1010
0000
1010
0000
1010
0000
1010
,
0000
0010
0000
0100
0000
1000
0000
0001
,
0000
1001
0000
1001
0000
1001
0000
1001
,
0000
0010
0000
0100
0000
1000
0000
0100
,
1000
0100
0000
0100
0000
0100
0000
0000
,
0001
0100
0000
0100
0000
0100
0000
0000
,
0010
0100
0000
0100
0000
0100
0000
0100
,
0000
0100
0000
0100
0000
0000
0000
0000
,
0001
1000
0000
1000
0000
1000
0000
0000
,
1000
0100
0000
0100
0000
0100
0000
0000
,
0010
0001
0000
0010
0000
0100
0000
1000
,
0000
0100
0000
0010
0000
0000
0000
0000
;

//---------------dance-single - ----------------
#NOTES:
     dance-single:
     :
     Easy:
     5:
     0.422,0.623,0.671,0.056,0.000:
0000
0000
0000
0000
,
0000
0000
0000
0000
,
0000
0000
0000
0000
,
0000
0000
0000
0000
,
0000
0000
0000
0000
,
0000
0000
0000
0000
,
0000
0000
0000
0000
,
0000
0000
0000
0000
,
1001
0000
0000
0000
,
0000
0000
0000
0001
,
0001
0000
0000
0000
,
1000
0000
0001
0000
,
0110
0000
0000
0000
,
0110
0000
0010
0000
,
0010
0100
0010
0100
,
0001
1000
0100
0010
,
0000
0000
1000
0100
0000
1000
0000
0100
,
0000
1000
0000
0001
0000
0100
0000
0001
,
0000
0100
0000
0010
0000
0100
0000
0010
,
0000
0100
0000
0010
0000
0100
0000
0010
,
0000
0100
0000
1000
0000
0100
0000
0010
,
0000
0001
0000
0010
0000
0100
0000
1000
,
0000
0001
0000
1000
0000
0001
0000
0100
,
0000
0010
0000
0100
0000
0010
0000
1000
,
0000
0001
1000
0001
0000
0001
0000
0001
,
0000
0001
0000
1001
0000
1001
0000
1001
,
0000
1001
0000
1000
0000
1000
0000
1000
,
0000
1000
0000
1001
0000
1001
0000
1001
,
0000
1001
0000
0010
0000
0010
0000
0010
,
0000
0010
0000
0110
0000
0110
0000
0110
,
0000
0110
0000
0100
0000
0100
0000
0100
,
0000
0100
0000
0110
0000
0110
0000
0110
,
0000
0000
0000
0001
0000
1000
0000
1001
,
0000
0000
0000
1000
0000
0100
0000
1100
,
0000
0000
0000
0001
0000
0010
0000
0100
,
0000
1000
0000
0100
0000
0010
0000
0000
,
0001
0001
1000
1000
,
1001
1001
1001
1001
,
0010
0010
0100
0100
,
0110
0100
0110
0010
,
0010
0010
0100
0100
,
0001
1000
1001
1001
,
0001
1000
0001
0100
,
0101
1000
1100
0010
,
0110
0110
1001
1001
,
0110
1001
0110
1001
,
0001
0001
1000
1000
,
0100
0010
0001
0100
,
0000
0010
0000
0010
0000
0010
0000
0010
,
0000
0100
0000
0100
0000
0100
0000
0100
,
0000
1000
0000
0100
0000
0010
0000
0001
,
0000
0010
0000
0100
0000
1000
0000
0100
,
2000
0000
0000
0000
,
3002
0000
0000
0000
,
0203
0000
0000
0000
,
0320
0000
2030
0000
,
3001
0000
0001
0000
,
1000
0000
1000
0000
,
1000
0000
0001
0000
,
0100
0010
1000
0001
,
1001
0000
0000
0000
,
0001
0000
0001
0000
,
0001
0000
0000
0000
,
1000
0000
0001
0000
,
0110
0000
0110
0000
,
0110
0000
0110
0000
,
0110
0110
0110
0110
,
0110
0000
0000
0000
,
1000
0100
0000
1000
0000
0100
0000
1000
,
0000
0001
0000
0100
0000
0001
0000
0100
,
0000
0001
0000
0010
0000
0001
0000
0010
,
0000
0100
0000
0001
0000
0100
0000
0010
,
0000
1000
0000
0001
0000
1000
0000
0001
,
0000
0100
0000
0010
0000
0100
0000
0010
,
0000
1000
0000
0100
0000
0010
0000
0001
,
0000
0010
0000
0100
0000
1000
0000
0001
,
1000
1001
0000
1001
0000
1001
0000
1001
,
0000
0110
0000
0110
0000
0110
0000
0110
,
0000
1001
0000
1001
0000
1001
0000
1001
,
0000
0110
0000
0110
0000
0110
0000
0110
,
0000
0010
0000
0010
0000
0010
0000
0010
,
0000
0110
0000
0110
0000
0110
0000
0110
,
0000
0100
0000
0100
0000
0100
0000
0100
,
0000
1001
0000
1001
0000
1001
0000
0001
,
1000
0001
0000
0001
0000
0001
0000
0000
,
0001
1000
0000
1000
0000
1000
0000
0000
,
0000
1100
0000
0100
0000
0010
0000
0001
,
0000
0010
0000
0100
0000
0000
0000
0000
,
0000
1001
0000
1001
0000
1001
0000
0000
,
0000
0110
0000
0110
0000
0110
0000
0000
,
0000
1100
0000
0011
0000
1010
0000
0011
,
0000
1100
0000
2002
0000
0000
3003
0000
;

//---------------dance-single - ----------------
#NOTES:
     dance-single:
     :
     Beginner:
     3:
     0.120,0.403,0.096,0.000,0.000:
0000
0000
0000
0000
,
0000
0000
0000
0000
,
0000
0000
0000
0000
,
0000
0000
0000
0000
,
0000
0000
0000
0000
,
0000
0000
0000
0000
,
0000
0000
0000
0000
,
0000
0000
0000
0000
,
0001
0000
0000
0000
,
0000
0000
0000
1000
,
1000
0000
0000
0000
,
0010
0000
0000
0000
,
0010
0000
0000
0000
,
0100
0000
0100
0000
,
0100
0000
0000
0000
,
0010
0000
1000
0000
,
0000
0001
0000
0000
,
0000
1000
0000
0000
,
0000
0100
0000
0000
,
0000
0010
0000
0000
,
0000
0100
0000
0000
,
0000
1000
0000
0000
,
0000
0001
0000
0000
,
0000
1000
0000
0001
,
0000
1001
0000
0000
,
0000
0100
0000
0000
,
0000
0010
0000
0000
,
0000
1000
0000
0000
,
0000
0001
0000
0000
,
0000
1000
0000
0000
,
0000
0001
0000
0000
,
0000
0100
0000
0100
,
0000
0000
0000
0000
,
0000
0010
0000
0000
,
0000
0010
0000
0000
,
0000
0000
0000
0000
,
1000
0000
0000
0000
,
0001
0000
0001
0000
,
0001
0000
0000
0000
,
1000
0000
1000
0000
,
1000
0000
0000
0000
,
0100
0000
0100
0000
,
0100
0000
0000
0000
,
0010
0000
0010
0000
,
0010
0000
0000
0000
,
1000
0000
0001
0000
,
1000
0000
0000
0000
,
0100
0000
0010
0000
,
0100
0000
0000
0000
,
0010
0000
1000
0000
,
0001
0000
0000
0000
,
1000
0000
1000
0000
,
1001
0000
0000
0000
,
0000
0000
0000
0000
,
0000
0000
0000
0000
,
0000
0000
0000
0000
,
0010
0000
0000
0000
,
0000
0000
0000
0000
,
0100
0000
0000
0000
,
0000
0000
0000
0000
,
1000
0000
0000
0000
,
0000
0000
0000
0000
,
0001
0000
0000
0000
,
0000
0000
0000
0000
,
1001
0000
1001
0000
,
1001
0000
1001
0000
,
1001
1001
1001
1001
,
1001
0000
0000
0000
,
0010
0000
0000
0000
,
0100
0000
0000
0000
,
1000
0000
0000
0000
,
0001
0000
0000
0000
,
1000
0000
0000
0000
,
0001
0000
0000
0000
,
0100
0000
0000
0000
,
0010
0000
0100
0000
,
0010
0000
0000
0000
,
1000
0000
0000
0000
,
0001
0000
0000
0000
,
1000
0000
0000
0000
,
0001
0000
0000
0000
,
0001
0000
0000
0000
,
1000
0000
0000
0000
,
1000
0000
0000
0000
,
1001
0000
0000
0000
,
0100
0000
0000
0000
,
0010
0000
0000
0000
,
0000
0000
0000
0000
,
1000
0000
0000
0000
,
0001
0000
0000
0000
,
0100
0000
0000
0000
,
0000
0000
0010
0010
;
