#TITLE:Programmed Sun;
#SUBTITLE:;
#ARTIST:kors k;
#TITLETRANSLIT:;
#SUBTITLETRANSLIT:;
#ARTISTTRANSLIT:;
#CREDIT:;
#BANNER:bn.png;
#BACKGROUND:pgram sun.png;
#LYRICSPATH:;
#CDTITLE:;
#MUSIC:02 - Programmed Sun.mp3;
#OFFSET:-0.360;
#SAMPLESTART:95.360;
#SAMPLELENGTH:12.000;
#SELECTABLE:YES;
#BPMS:0.000=144.000,100.000=72.000,132.000=144.000,192.000=72.000,194.000=144.000,254.000=72.000,256.000=144.000;
#STOPS:;
#BGCHANGES:;

//---------------dance-single - ----------------
#NOTES:
     dance-single:
     :
     Hard:
     7:
     0.313,0.374,0.132,0.171,0.062:
0000
0000
0000
0000
,
0000
0000
0000
0000
,
0000
0000
0000
0000
,
0000
0000
0000
0000
,
0000
0000
0000
0000
,
1000
0000
0001
0100
0000
0000
0000
0000
,
0001
0000
0010
0001
0000
0100
0000
0001
,
0100
0010
0000
0010
0000
0100
0000
0100
,
0020
0000
0030
0000
,
1001
0001
0100
0010
0000
0010
0000
0100
,
0000
0010
0000
1000
0000
0001
0000
0010
,
0000
0001
0000
1000
0000
0100
0000
1000
,
0100
0010
0100
1000
0001
0100
0010
1000
,
0100
1000
0000
1000
0000
0001
0000
0001
,
0000
1000
0000
0001
0000
0100
0000
0010
,
0000
1000
0000
0100
0000
0010
0000
0001
,
1000
0000
0001
0000
1000
0000
0000
0001
0000
0000
2000
0000
0020
0000
3000
0000
,
1030
0001
0010
0001
0000
0010
0000
0001
,
0000
0100
0000
0001
0000
0010
0000
0001
,
0000
0100
0000
0010
0000
1000
0000
0100
,
0000
1000
0000
0010
0000
0100
0000
0010
,
0010
0000
0100
0000
0000
0000
0000
1001
0000
0000
0101
0000
0000
0000
0001
0000
,
0000
0000
1000
0000
1000
0000
0000
0100
0000
0000
1000
0000
0001
0010
0001
0010
,
0001
0000
1000
0000
0001
0010
1000
0200
,
0020
0000
0000
0330
,
1002
0000
0000
0003
,
0020
0000
0200
0300
,
0032
0000
2000
3000
,
0200
0300
0020
0033
,
1000
0001
0100
0000
0000
0000
0000
0001
0000
0000
0000
0000
0000
0000
0000
0000
,
1000
0001
0100
0001
0000
0000
0000
0100
0000
0000
0000
0000
0000
0000
0000
0000
,
0010
0100
0010
0000
0000
0000
0000
1000
0000
0000
0000
0000
0000
0000
0010
0000
,
1000
0000
0000
0000
0000
0000
0000
0001
0000
0000
0000
0000
0000
0000
0000
0000
,
0001
1000
0001
0100
,
0001
1000
0010
1000
,
0110
0100
0010
1000
,
0110
0010
0101
0100
,
0101
0100
0010
1000
,
1100
1000
0100
0010
,
0011
0001
0101
0100
,
0010
0000
0000
0100
0000
0000
0010
0000
0000
0100
0000
0000
0010
0000
0100
0000
0010
0000
0100
0000
0000
0000
0000
0000
,
1000
0000
0001
0000
0010
0000
0001
0100
,
0001
0000
0010
0000
0001
0000
0100
0010
,
1000
0000
1000
0000
1000
0000
1000
0001
,
0100
0000
0010
0000
1000
0000
1000
0001
,
0100
0000
0100
0000
0010
0000
0010
1000
,
0001
0000
0001
0000
1000
0000
0001
0100
,
0010
0000
1000
0000
0010
0000
0100
0010
,
1010
0202
0000
0000
0000
0000
0303
0000
1000
0000
0100
0000
0010
0000
0000
0000
,
0000
0000
0000
0100
0000
0000
0000
0000
,
0000
0000
0000
0000
0100
1000
0001
2000
,
0000
0000
0000
0002
0000
0000
0000
0000
,
0000
3000
0003
0000
1000
0002
0010
0000
,
0000
0000
0000
0100
0000
0000
0000
0000
,
0000
0000
0000
0003
0002
0000
0000
0000
,
0000
0000
0000
2000
0000
0000
0000
0000
,
0000
0003
3000
0000
1000
0001
0100
0010
,
0000
0010
0000
0110
0000
0100
0000
0010
,
0000
1000
0000
0001
0010
0001
1000
0100
,
0000
1000
0000
0001
0100
0000
0010
0000
,
0100
0010
1001
0000
1000
0001
0010
0001
,
0000
0010
0000
0011
0000
0001
0000
0100
,
0000
0010
0100
0001
2000
0000
0000
0000
,
0000
0000
0000
3010
0100
0010
1000
0100
,
0022
0033
0000
0000
;

//---------------dance-single - ----------------
#NOTES:
     dance-single:
     :
     Medium:
     4:
     0.234,0.298,0.132,0.163,0.019:
0000
0000
0000
0000
,
0000
0000
0000
0000
,
0000
0000
0000
0000
,
0000
0000
0000
0000
,
0000
0000
0000
0000
,
0101
0000
0000
1000
0000
0000
0000
0000
,
1010
0000
0000
0100
0000
1000
0000
0000
,
1100
0000
0000
0010
0000
0000
0000
0000
,
2002
0000
3003
0000
,
0001
1000
0001
0100
0000
0100
0000
0100
,
0000
0010
0000
0010
0000
0010
0000
0010
,
0000
1000
0000
0001
0000
1000
0000
0001
,
2000
0000
3200
0000
,
1300
0001
0000
1000
0000
0001
0000
0100
,
0000
0001
0000
0010
0000
0001
0000
0100
,
0000
0010
0000
1000
0000
0010
0000
1000
,
0001
0000
1000
0000
0001
0000
0000
1000
0000
0000
0001
0000
1000
0000
0000
0000
,
1000
0000
0100
2000
0000
3100
0000
0100
,
0000
1000
0000
0100
0000
0010
0000
0001
,
0000
0100
0000
0010
0000
1000
0000
0010
,
0000
1000
0000
0001
0000
0100
0000
0010
,
1010
0000
0000
0101
0000
0000
0001
0000
,
0000
0000
0001
0000
0010
0000
0001
0010
,
0001
0001
1000
1000
,
2002
0000
0000
3003
,
2020
0000
0000
3000
,
2000
0000
0000
0030
0020
0000
0000
3000
,
0200
0000
0000
0030
0002
0000
0000
0300
,
0020
0000
0000
0003
0002
0000
0033
0000
,
0001
0000
0100
0000
0000
0000
0000
0010
0000
0000
0000
0000
0000
0000
0000
0000
,
0010
0000
1000
0000
0000
0000
0000
0001
0000
0000
0000
0000
0000
0000
0000
0000
,
1000
0000
1000
0000
0000
0000
0000
0001
0000
0000
0000
0000
0000
0000
0001
0000
,
0100
0000
0000
0000
0000
0000
0000
0010
0000
0000
0000
0000
0000
0000
0000
0000
,
1000
0000
1000
0000
,
0001
0000
0001
0000
,
0100
0000
0010
0000
,
1000
0000
1000
0000
,
1001
0001
1000
1000
,
0001
0100
0010
1000
,
0010
1000
0010
0100
,
2020
0000
0000
3030
,
1000
0001
1000
0000
,
0001
0100
0010
0000
,
0010
1000
0100
0000
,
1000
0001
0100
0000
,
0001
0010
0001
0000
,
1000
0001
0100
0000
,
0010
1000
0010
0000
,
2002
0000
3003
0000
1000
0001
1000
0000
,
0000
0000
0000
0100
0000
0000
0000
0000
,
0000
0000
0000
0000
0010
1000
0001
0100
,
0000
0000
0000
0001
0000
0000
0000
0000
,
0000
1000
1001
0000
0001
0100
0010
0000
,
0000
0000
0000
0010
0000
0000
0000
0000
,
0000
1000
1100
0000
,
0000
0000
0000
1001
0000
0000
0000
0000
,
0000
0001
0101
0000
0001
0010
0001
0000
,
0000
0000
0000
0101
0000
0000
0000
0000
,
0000
0000
0000
0000
0010
1000
0010
1000
,
0000
0000
0000
0100
0000
0000
0000
0000
,
0000
1000
0011
0000
0001
0100
0020
0000
,
0000
0000
0000
1030
0000
0000
0000
0000
,
0000
1000
0002
0000
,
0000
0000
0100
0000
,
1003
0000
0000
0000
;

//---------------dance-single - ----------------
#NOTES:
     dance-single:
     :
     Easy:
     2:
     0.153,0.224,0.062,0.070,0.000:
0000
0000
0000
0000
,
0000
0000
0000
0000
,
0000
0000
0000
0000
,
0000
0000
0000
0000
,
0000
0000
0000
0000
,
0001
0000
0000
0000
,
1000
0000
0000
0000
,
0001
0000
0000
0000
,
0220
0000
0000
0330
,
0010
0100
0000
0010
,
0000
0010
0000
1000
,
0000
0010
0000
1000
,
0002
0000
2003
0000
,
3100
1000
0100
1000
,
0000
0100
1000
0010
,
1000
0001
0100
0010
,
1000
0010
1000
0000
0010
0000
1001
0000
,
0001
1000
0000
1000
,
0000
0001
0000
0100
,
0000
0100
0000
0010
,
1000
0010
0100
0010
,
1000
0000
0001
0000
,
0000
0000
1000
0000
0000
0000
0010
0100
,
0010
0010
0010
0010
,
1001
0000
0000
0000
,
0110
0000
0000
0000
,
0010
0000
1000
0000
,
0001
0000
1000
0000
,
0100
0000
1000
0000
,
0001
0000
0000
0000
,
0100
0000
0000
0000
,
0010
0000
0000
0000
0000
0000
0000
1000
,
0100
0000
0000
0000
,
1000
0000
0000
0000
,
0001
0000
0000
0000
,
0011
0000
0001
0000
,
0001
0000
1000
0000
,
1001
0000
0000
0000
,
0010
0000
0000
0000
,
0100
0000
0010
0000
,
2002
0000
0000
3003
,
1000
0001
1000
0000
,
0001
0100
0001
0000
,
0010
1000
0010
0000
,
0100
1000
0100
0000
,
0010
0001
0010
0000
,
0001
1000
0100
0000
,
0100
1000
0010
0100
,
2002
3003
0001
1000
,
0000
0000
0000
0001
0000
0000
0000
0000
,
0000
0000
0001
0100
,
0000
0000
0000
0010
0000
0000
0000
0000
,
0000
0000
0010
1000
,
0000
0000
0000
1000
0000
0000
0000
0000
,
0000
0000
1000
0000
,
0000
0000
0000
0001
0000
0000
0000
0000
,
0000
0000
0100
0010
,
0000
0000
0000
1000
0000
0000
0000
0000
,
0000
0000
1000
0100
,
0000
0000
0000
1000
0000
0000
0000
0000
,
0000
0000
0001
1000
,
0000
0000
0000
0010
0000
0000
0000
0000
,
0000
0100
0010
0000
,
0000
0000
0000
1000
0002
0000
0000
0003
,
0100
0000
0000
0000
;

//---------------dance-single - ----------------
#NOTES:
     dance-single:
     :
     Beginner:
     1:
     0.072,0.099,0.031,0.000,0.000: // measure 1
0000
0000
0000
0000
,  // measure 2
0000
0000
0000
0000
,  // measure 3
0000
0000
0000
0000
,  // measure 4
0000
0000
0000
0000
,  // measure 5
0000
0000
0000
0000
,  // measure 6
0001
0000
0000
0000
,  // measure 7
0001
0000
0000
0000
,  // measure 8
0001
0000
0000
0000
,  // measure 9
0000
0000
0000
0000
,  // measure 10
0100
0000
0000
0000
,  // measure 11
0100
0000
0000
0000
,  // measure 12
0100
0000
0000
0000
,  // measure 13
0010
0000
0010
0000
,  // measure 14
1000
0000
0000
0000
,  // measure 15
1000
0000
0000
0000
,  // measure 16
1000
0000
1000
0000
,  // measure 17
1000
0000
0000
0000
,  // measure 18
1001
0000
0000
0000
,  // measure 19
0010
0000
0000
0000
,  // measure 20
0100
0000
0000
0000
,  // measure 21
0010
0000
0000
0000
,  // measure 22
1000
0000
0000
0000
,  // measure 23
1000
0000
0000
0000
,  // measure 24
0001
0000
0001
0000
,  // measure 25
0001
0000
0000
0000
,  // measure 26
0110
0000
0000
0000
,  // measure 27
0000
0000
0000
0000
,  // measure 28
0000
0000
0000
0000
,  // measure 29
0000
0000
0000
0000
,  // measure 30
1000
0000
0000
0000
,  // measure 31
0010
0000
0000
0000
,  // measure 32
0100
0000
0000
0000
,  // measure 33
0001
0000
1000
0000
,  // measure 34
0010
0000
0000
0000
,  // measure 35
0000
0000
0000
0000
,  // measure 36
0100
0000
0000
0000
,  // measure 37
1000
0000
0001
0000
,  // measure 38
0100
0000
0000
0000
,  // measure 39
0010
0000
0000
0000
,  // measure 40
0001
0000
0000
0000
,  // measure 41
1001
0000
0000
0000
,  // measure 42
1000
0000
0000
0000
,  // measure 43
0010
0000
0000
0000
,  // measure 44
0100
0000
0000
0000
,  // measure 45
0001
0000
0000
0000
,  // measure 46
0001
0000
0000
0000
,  // measure 47
1000
0000
0000
0000
,  // measure 48
0010
0000
0000
0000
,  // measure 49
0110
0000
0100
0000
,  // measure 50
0000
0000
0000
0000
,  // measure 51
0000
0000
0010
0000
,  // measure 52
0000
0000
0000
0000
,  // measure 53
0000
1000
0001
0000
,  // measure 54
0000
0000
0000
0000
,  // measure 55
0000
0000
0100
0000
,  // measure 56
0000
0000
0010
0000
,  // measure 57
0000
0000
1000
0001
,  // measure 58
0000
0000
0001
0000
,  // measure 59
0000
0000
0100
0100
,  // measure 60
0000
0000
0010
0000
,  // measure 61
0000
0000
1000
1000
,  // measure 62
0000
0000
0000
0000
,  // measure 63
0000
0000
0001
0000
,  // measure 64
0000
0000
1000
0000
,  // measure 65
0010
0000
0000
0000
;
