#TITLE:Programmed Sun;
#SUBTITLE:(xac Antarctic Ocean mix);
#ARTIST:kors k;
#TITLETRANSLIT:;
#SUBTITLETRANSLIT:;
#ARTISTTRANSLIT:;
#CREDIT:;
#BANNER:bn.png;
#BACKGROUND:pgram sun.png;
#LYRICSPATH:;
#CDTITLE:;
#MUSIC:Programmed Sun (xac Antarctic Ocean mix).mp3;
#OFFSET:-0.020;
#SAMPLESTART:21.020;
#SAMPLELENGTH:12.000;
#SELECTABLE:YES;
#BPMS:0.000=140.000,98.000=70.000,130.000=140.000;
#STOPS:;
#BGCHANGES:;

//---------------dance-single - ----------------
#NOTES:
     dance-single:
     :
     Hard:
     8:
     0.401,0.532,0.101,0.195,0.355: // measure 1
0000
0000
0000
0000
,  // measure 2
0000
0000
0000
0000
,  // measure 3
0000
0000
0000
0000
,  // measure 4
0000
0000
0000
0000
,  // measure 5
0000
0000
1000
0001
,  // measure 6
0010
0000
0001
0100
0010
0000
0100
0000
,  // measure 7
0010
0000
0010
1000
0001
0000
1000
0000
,  // measure 8
0001
0000
1000
0001
0100
0000
0001
0000
,  // measure 9
0010
0000
0001
0100
0010
0000
1000
0000
,  // measure 10
0010
0000
1000
0100
1000
0000
0001
0000
,  // measure 11
0100
0000
0010
1000
0001
0000
1000
0000
,  // measure 12
0001
0000
0001
0100
0010
0000
0100
0000
,  // measure 13
0010
0000
0000
0000
0010
0000
1000
0000
0100
0000
1000
0000
0000
0100
0000
0000
,  // measure 14
0010
0000
0000
0001
0000
0000
1000
0000
0000
0000
0001
0000
0000
1000
0000
0000
,  // measure 15
0001
0000
0000
1000
0000
0000
0001
0000
0000
0000
0100
0000
0000
0010
0000
0000
,  // measure 16
0100
0000
0000
0001
0000
0000
1000
0000
0000
0000
0100
0000
0000
0010
0000
0000
,  // measure 17
0100
0000
0000
0001
0000
0000
1000
0000
0100
0000
0010
0000
0001
0000
0010
0000
,  // measure 18
0001
1000
0001
0100
0001
0010
0001
1000
,  // measure 19
0100
0000
0010
0000
0100
0000
0001
0000
1000
0000
0001
0000
0010
0001
0010
0000
,  // measure 20
1000
0000
0001
0010
0001
0000
1000
0000
0001
0000
0001
0100
0000
0010
1000
0000
,  // measure 21
1001
0000
1000
0000
0001
0100
0010
0100
0001
0000
0000
0000
0000
0000
0000
0000
,  // measure 22
0000
0000
0000
0000
,  // measure 23
0000
0000
0000
0000
,  // measure 24
0000
0000
0000
0000
,  // measure 25
0000
0000
0000
0000
0000
0000
0000
0000
0001
0010
0200
0000
0000
0000
0000
0310
,  // measure 26
0000
0000
0000
0000
0000
0000
0000
0000
1000
1000
0001
0020
0000
0000
0000
0031
,  // measure 27
0000
0000
0000
0000
0000
0000
0000
0000
0001
1000
0200
0000
0000
0000
0000
0310
,  // measure 28
0000
0000
0000
0000
0000
0000
0010
0000
0120
0000
0000
0000
0000
0000
0000
1000
,  // measure 29
0000
0000
0000
0000
0000
0000
0000
0000
0030
0000
0000
0000
0000
0000
0000
0000
0000
0000
1000
0000
0000
0001
0000
0000
0100
0000
0000
0001
0000
0000
0010
0000
,  // measure 30
0000
0000
0001
0000
0000
1000
0000
0000
0001
0000
0000
1000
0000
0000
0001
0000
0000
0000
1000
0000
0000
1000
0000
0000
0001
0000
0000
1000
0000
0000
0001
0000
,  // measure 31
0000
0000
0001
0000
0000
0100
0000
0000
0010
0000
0000
1000
0000
0000
0100
0000
0000
0000
1000
0000
0000
0100
0000
0000
1000
0000
0000
0010
0000
0000
1000
0000
,  // measure 32
0000
0000
0001
0000
0000
1000
0000
0000
0001
0000
0000
0100
0000
0000
0001
0000
0000
0000
0001
0000
0000
0010
0000
0000
0001
0000
0000
0100
0000
0000
0010
0000
,  // measure 33
0000
0000
0010
0000
0000
1000
0000
0000
0100
0000
0000
0010
0000
0000
0001
0000
1002
0000
0000
0000
0000
0000
0000
0000
1000
0000
0000
0000
0000
0000
0000
0000
,  // measure 34
0100
1003
2001
0100
,  // measure 35
0001
3100
1020
1000
,  // measure 36
0100
1030
0210
0010
,  // measure 37
0001
0000
0310
0000
0001
0100
0010
1000
,  // measure 38
0100
1000
0010
0001
0100
0001
0010
0001
,  // measure 39
0010
0100
1000
0001
0020
0000
0032
0000
,  // measure 40
0023
0000
0000
0000
0230
0000
0000
0000
0310
0000
0001
0010
0000
1000
0100
0000
,  // measure 41
1001
0000
0110
0000
0010
1000
0100
0010
0001
1000
0000
0000
0010
0000
0000
0010
,  // measure 42
0000
0000
1000
0000
0001
0000
0100
0010
0000
0010
0000
0000
1000
0000
0000
0001
,  // measure 43
0000
0000
0100
0000
0010
0000
1000
0010
0000
0100
0000
0000
0001
0000
0000
1000
,  // measure 44
0000
0000
1000
0000
0000
0010
0000
0010
0000
1000
0000
0000
0001
0000
0000
0010
,  // measure 45
0000
0000
0001
0000
0010
0000
0001
0100
0000
0010
0000
0000
1000
0000
0000
0001
,  // measure 46
0000
0000
0010
0000
0001
0000
1000
0010
0000
0100
0000
0000
0010
0000
0000
1000
,  // measure 47
0000
0000
0001
0000
0100
0000
0100
0010
0000
0100
0000
0000
0010
0000
0000
1000
,  // measure 48
0000
0000
0001
0000
0100
0000
0010
0100
0001
0000
0000
0001
0000
0000
1100
0000
,  // measure 49
0012
0000
0000
0000
0013
0001
0010
1000
0100
0000
1000
0000
0020
0000
0000
0000
,  // measure 50
0000
0000
0000
0100
0000
0000
0000
0000
,  // measure 51
0000
0000
0030
0000
0010
1000
0001
0020
,  // measure 52
0000
0000
0000
0200
0000
0000
0000
0000
,  // measure 53
0000
0000
0330
0000
0001
0010
0200
0000
,  // measure 54
0000
0000
0000
1000
0000
0000
0000
0000
,  // measure 55
0000
2300
0020
0000
,  // measure 56
3000
0000
0000
0001
0000
0000
0000
0000
,  // measure 57
0000
0000
0030
0000
1000
0100
0010
0200
,  // measure 58
0000
0000
0000
0020
0000
0000
0000
0000
,  // measure 59
0000
0000
0330
0000
1001
0001
0100
0020
,  // measure 60
0000
0000
0000
0200
0000
0000
0000
0000
,  // measure 61
0000
0000
0330
0000
1000
0001
1000
0001
,  // measure 62
0100
0001
0100
0001
0010
0001
0010
0001
,  // measure 63
0100
0000
1000
0000
0100
0000
0010
0000
0001
0000
1000
0000
0000
0100
0000
0000
,  // measure 64
1001
0000
1000
0001
0100
0001
0100
0010
1000
0000
0100
0010
0000
0010
1000
0000
,  // measure 65
0100
0010
0000
1000
0001
0000
0100
0000
2020
0000
0000
0000
0000
0000
0000
0000
,  // measure 66
3030
0000
0000
0000
;

//---------------dance-single - ----------------
#NOTES:
     dance-single:
     :
     Medium:
     5:
     0.254,0.380,0.171,0.234,0.051:
0000
0000
0000
0000
,
0000
0000
0000
0000
,
0000
0000
0000
0000
,
0000
0000
0000
0000
,
0000
0000
0010
1000
,
0010
0100
0000
0010
,
1000
0001
0000
0001
,
1000
0100
0000
0010
,
1000
0100
0000
1000
,
0001
0100
0000
0001
,
1000
0010
0000
0010
,
0100
0010
0000
0010
,
1000
0200
1300
0001
,
0100
0010
1000
0100
,
1000
0010
0100
0010
,
1000
0001
0010
0001
,
0100
0001
1000
1000
,
0001
0001
1000
0001
,
0100
0010
1010
0110
,
1001
0011
0002
2003
,
3200
0000
1300
0020
0200
0000
0000
0000
,
0000
0000
0000
0000
,
0000
0000
0000
0000
,
0000
0000
0330
0000
,
0000
0000
0000
0000
0000
0000
0000
0000
1000
0000
0001
0000
0000
0000
0000
0010
,
0000
0000
0000
0000
0000
0000
0000
0000
0001
0000
0100
0000
0000
0000
0000
0010
,
0000
0000
0000
0000
0000
0000
0000
0000
1000
0000
0100
0000
0000
0000
0000
1000
,
0000
0000
0000
0000
0000
0000
0010
0000
1010
0000
0000
0000
0000
0000
0000
1000
,
0000
0000
0000
0000
0000
0000
0000
0000
1000
0001
1000
0000
0000
0000
0000
0001
,
0000
0000
0000
0000
0000
0000
0000
0000
0001
0100
0010
1000
0000
0000
0000
0001
,
0000
0000
0000
0000
0000
0000
0000
0000
0010
1000
0010
0000
0000
0000
0000
0001
,
0000
0000
0000
0000
0000
0000
0001
0000
1000
0000
0000
0000
0000
0000
0000
0100
,
0000
0000
1000
0000
,
0000
0000
0001
0000
,
0000
0000
0000
0000
0100
0000
0000
0010
,
0000
0010
0000
0010
,
0000
0010
1000
0001
,
1000
0100
1000
0010
,
1000
0100
0010
0100
,
0001
0010
0011
1100
,
1010
0101
1002
1000
,
2000
3003
2001
0001
,
0002
3003
1020
1000
,
2000
3030
2010
0010
,
0020
3030
1002
0100
,
0020
0033
0012
0100
,
2000
3003
2001
0001
,
0020
3030
1010
0101
,
1100
0000
0001
0000
1000
0001
0200
0000
,
0000
0000
0000
0301
0000
0000
0000
0000
,
0000
0000
0000
0000
0001
1000
0001
0200
,
0000
0000
0000
0310
0000
0000
0000
0000
,
0000
0000
0000
0000
0010
1000
0200
0000
,
0000
0000
0000
1300
0000
0000
0000
0000
,
0000
1000
0202
0000
,
0300
0000
0000
0020
0000
0000
0000
0000
,
0000
0000
0033
0000
0001
1000
0002
0000
,
0000
0000
0000
0100
0000
0000
0000
0000
,
0000
0000
0003
0000
0010
0001
0100
0020
,
0000
0000
0000
1000
0000
0000
0000
0000
,
0000
0000
0030
0000
1000
0001
0200
0000
,
0000
0000
0000
0001
0000
0000
0000
0000
,
0000
0301
1000
0001
,
0100
0000
0000
0000
0010
0000
0000
0000
1000
0000
0000
0011
0000
0000
1000
0000
,
0110
0000
0001
1000
0200
0000
0000
0000
,
0300
0000
0000
0000
;

//---------------dance-single - ----------------
#NOTES:
     dance-single:
     :
     Easy:
     3:
     0.192,0.277,0.047,0.320,0.000:
0000
0000
0000
0000
,
0000
0000
0000
0000
,
0000
0000
0000
0000
,
0000
0000
0000
0000
,
0000
0000
1000
0001
,
0200
0301
0001
1000
,
0020
1030
0001
1000
,
0002
0103
0001
1000
,
0002
0013
1000
0001
,
2000
3100
0001
1000
,
0002
0013
1000
0001
,
2000
3100
0001
0100
,
0010
2000
3010
0000
,
0010
0000
1000
0001
,
0200
0300
0001
0000
,
0001
0000
0001
1000
,
0200
0300
1000
0000
,
1000
0000
0001
1000
,
0020
0030
1010
0000
,
0101
0000
1000
0001
,
0100
0000
0010
2000
0002
0000
0000
0000
,
0000
0000
0000
0000
,
0000
0000
3003
0000
,
0000
0000
0000
0000
,
0000
0000
0010
0000
,
0000
0000
1000
0000
,
0000
0000
0000
0000
0001
0000
0000
1000
,
0000
0000
0010
0000
,
0000
0000
0000
0000
0010
1000
0000
0000
,
0000
0000
0000
0000
0001
0010
0000
0000
,
0000
0000
0000
0000
1000
1000
0000
0000
,
0000
0000
0000
0001
0010
0000
0000
0000
,
0000
0000
2000
0000
,
0000
3000
0002
0000
,
0000
0003
0020
0000
,
0000
0030
0200
0000
,
0000
0300
2000
0000
,
0000
3000
0002
0000
,
0000
0003
2000
0000
,
0000
0000
0200
0000
,
0000
3300
2000
0100
,
0200
3300
0002
0010
,
0020
0033
0002
0100
,
0200
0303
2000
0001
,
0002
3003
2000
0010
,
0200
3300
0002
0010
,
0200
0303
2000
0010
,
0002
3003
1001
0000
,
0110
0000
0010
1000
,
0000
0000
0000
0100
0000
0000
0000
0000
,
0000
0000
0000
0000
1000
0000
0001
1000
,
0000
0000
0000
0001
0000
0000
0000
0000
,
0000
0000
0001
0100
,
0000
0000
0000
0010
0000
0000
0000
0000
,
0000
0010
0101
0000
,
0000
0000
0000
1100
0000
0000
0000
0000
,
0000
0000
0000
0000
1000
0002
0200
0000
,
0000
0300
0000
0100
0000
0000
0000
0000
,
0000
0000
0003
0000
1000
0000
0000
0002
,
0000
0000
0000
0013
0000
0000
0000
0000
,
0000
0000
1000
0020
,
0000
0000
0000
1030
0000
0000
0000
0000
,
0000
1000
0002
0000
,
0000
0000
0000
0020
0000
0000
0000
0000
,
0000
0000
0033
0000
;

//---------------dance-single - ----------------
#NOTES:
     dance-single:
     :
     Beginner:
     1:
     0.082,0.126,0.039,0.000,0.000:
0000
0000
0000
0000
,
0000
0000
0000
0000
,
0000
0000
0000
0000
,
0000
0000
0000
0000
,
0000
0000
0010
0000
,
0000
0000
0010
0000
,
0000
0000
1000
0000
,
0000
0000
1000
0000
,
0000
0000
0001
0000
,
0000
0000
0001
0000
,
0000
0000
0100
0000
,
0000
0000
0100
0000
,
0000
0010
0010
0000
,
0000
0000
1000
0000
,
0000
0000
0001
0000
,
0000
0000
0100
0000
,
0000
0000
0010
0000
,
0000
0000
0010
0000
,
0000
0000
1000
0000
,
0001
0000
1001
0000
,
0000
0010
0010
0000
,
0000
0000
0000
0000
,
0000
0000
0000
0000
,
0000
0000
0000
0000
,
0000
0000
0001
0000
,
0000
0000
1000
0000
,
0000
0000
0100
0000
,
0000
0000
0010
0000
,
0000
0000
1000
0000
,
0001
0000
0100
0000
,
0010
0000
1000
0000
,
0001
0000
0100
0000
,
0010
0000
1000
0000
,
0000
0000
1000
0000
,
0000
0000
0001
0000
,
0000
0000
0001
0000
,
0000
0000
0100
0000
,
0000
0000
0100
0000
,
0000
0000
0010
0000
,
0010
0000
1001
0000
,
0100
0000
1001
0000
,
0000
0000
0010
0000
,
0000
0000
1000
0000
,
0000
0000
0001
0000
,
0000
0000
0100
0000
,
0000
0000
0010
0000
,
0000
0000
1000
0000
,
0001
0000
1001
0000
,
0000
0000
0010
0010
,
0000
0000
0000
0000
,
0000
0000
0001
0100
,
0000
0000
0000
0000
,
0000
0000
0010
1000
,
0000
0000
0000
0000
,
0000
0100
0100
0000
,
0000
0000
0000
0000
,
0000
0000
0001
1000
,
0000
0000
0000
0000
,
0000
0000
0100
0010
,
0000
0000
0000
0000
,
0000
0000
0001
1000
,
0000
0000
0000
0000
,
0000
1000
0100
0000
,
0000
0000
1000
0000
,
0000
0000
1001
0000
;
