#TITLE:Prelude;
#SUBTITLE:;
#ARTIST:NAOKI Underground;
#TITLETRANSLIT:;
#SUBTITLETRANSLIT:;
#ARTISTTRANSLIT:;
#CREDIT:;
#BANNER:bn.PNG;
#BACKGROUND:bg.PNG;
#LYRICSPATH:;
#CDTITLE:Beatmania IIDX.png;
#MUSIC:103_-_[trance]_-_prelude.mp3;
#OFFSET:0.080;
#SAMPLESTART:69.360;
#SAMPLELENGTH:12.000;
#SELECTABLE:YES;
#BPMS:0.000=139.820,97.000=69.910,111.500=34.955,112.000=139.815,112.003=139.910,112.250=139.820,241.000=34.960;
#STOPS:112.000=0.349
;
#BGCHANGES:;

//---------------dance-single - ----------------
#NOTES:
     dance-single:
     :
     Hard:
     8:
     0.472,0.454,0.100,0.033,0.661:
0000
0000
0000
0000
,
0000
0000
0000
0000
,
0000
0000
0000
0000
,
0000
0000
0000
0000
,
0000
0000
0000
0000
1000
0000
0001
0000
0000
0000
0001
0100
0000
0000
0010
0000
,
0000
0000
0000
0100
0001
0000
0010
0000
0000
0000
0000
1000
0100
0000
0001
0000
,
0000
0000
1000
0000
0001
0000
0100
0000
0000
0000
0000
0010
0100
0000
0010
0000
,
0000
0000
0000
1000
0100
0000
1000
0000
0000
0000
0001
0100
0000
0000
0002
0000
,
0000
0000
0000
0000
1003
0000
0100
0000
0010
0000
0001
0010
0000
0100
0000
1000
,
0000
0001
0000
0100
0000
0010
0100
0000
0010
0000
1000
0100
0000
1000
0000
0001
,
0000
0100
0000
0010
0000
0100
0010
0000
0100
0000
0001
1000
0000
0001
0000
0100
,
0000
0010
0000
1000
0000
0001
1000
0000
0001
0000
1000
0100
0000
0001
0000
0100
,
0000
0010
0000
1000
0000
0000
0001
0000
0100
0000
0001
0010
0000
1000
0000
0100
,
0000
0001
0000
0100
0000
0010
0100
0000
0010
0000
1000
0001
0000
1000
0000
0001
,
0000
1000
0000
0010
0000
0100
0010
0000
0100
0000
0001
1000
0000
0001
0000
0100
,
0000
0010
0000
1000
0000
0001
1000
0000
0001
0000
1000
0001
0000
0001
0000
0001
,
0000
0001
0000
1000
0001
0000
0010
0000
0100
0000
1000
0100
0000
0010
0000
0001
,
0000
1000
0000
0010
0000
0100
0010
0000
0100
0000
0001
0010
0000
0001
0000
1000
,
0000
0010
0000
0100
0000
0010
0100
0000
0010
0000
1000
0001
0000
1000
0000
0010
,
0000
0100
0000
0001
0000
1000
0001
0000
1000
0000
0001
0010
0000
1000
0000
0010
,
0000
0100
0000
0001
0000
0000
1000
0000
0010
0000
1000
0100
0000
0001
0000
0010
,
0000
1000
0000
0010
0000
0100
0010
0000
0100
0000
0001
1000
0000
0001
0000
1000
,
0000
0001
0000
0100
0000
0010
0100
0000
0010
0000
1000
0001
0000
1000
0000
0010
,
0000
0100
0000
0001
0000
1000
0001
0000
1000
0000
0001
1000
0000
1000
0000
1000
,
0000
0000
1000
0000
0000
0000
0001
0000
1000
0000
0000
0001
0000
0000
0100
0000
0010
0000
0000
0000
0000
0000
0000
0000
0000
0000
0000
0000
0000
0000
0000
0000
,
0000
0000
0000
1000
0000
0000
1000
0000
0000
1000
0000
0000
1000
0000
0000
1000
0000
0001
0000
0000
0000
0000
0000
0000
0000
0000
0000
0000
0000
0000
0000
0000
,
0000
0000
0000
0000
0000
0000
0000
0000
0001
0000
0000
0000
0100
0000
0000
0000
0001
0000
0000
0000
0100
0000
0000
0000
0000
0000
0000
0000
0000
0000
0000
0000
0000
0010
0000
0000
0000
0000
0000
0000
0000
0010
0000
0000
0000
0000
0000
0000
0000
0010
0000
0000
0000
0000
0000
0000
0000
0000
0000
0000
0000
0000
0000
0000
,
0000
0000
0000
0000
0000
1000
0000
0000
0001
0000
0000
0100
0000
0000
0010
0000
0000
1000
0000
0000
0000
0000
0000
0002
0000
0000
0000
0200
0000
0000
0000
0000
,
0303
1000
0001
0010
,
0100
1000
0100
0010
,
0001
0010
0100
1000
,
0001
1000
0100
0001
,
0100
0110
0010
1010
,
1000
1100
0100
0110
,
0001
0000
0000
1000
0000
1001
0000
0000
0000
0001
0000
0101
0000
0000
0000
0000
,
0000
0100
0000
0100
0000
0000
0000
0000
0010
0100
0000
0010
0000
0000
0000
0000
,
0001
0000
0010
0001
0010
0001
0100
1000
,
0100
1000
0010
1000
0010
1000
0001
0100
,
0001
0100
0001
0100
0100
0000
0010
0010
,
0000
0100
0100
0000
0010
0010
0000
0100
,
0100
0100
0010
1000
0010
1000
0010
1000
,
0010
1000
0001
0100
0001
0100
0001
0100
,
0001
0100
0002
0100
0103
0000
1000
0100
,
0000
0010
0001
0000
0100
0010
0000
0100
,
1000
0000
0100
0000
0000
0000
1000
0000
0000
0001
0000
0100
0000
0000
0010
0000
,
0000
1000
0000
0001
0000
0000
0100
0000
0000
1000
0000
0100
0000
0000
0001
0000
,
0000
0010
0000
0001
0000
0000
0100
0000
0000
0010
0000
0100
0000
0000
1000
0000
,
0000
0001
0000
0100
0000
0000
0010
0000
0000
1000
0000
0010
0000
0000
0001
0000
,
0000
1000
0000
1000
0000
0000
0001
0000
0000
0100
0000
0010
0000
0000
1000
0000
,
0000
0100
0000
1000
0000
0000
0001
0000
0000
0010
0000
0001
0000
0000
0100
0000
,
0000
0010
0000
0100
0000
0000
1000
0000
0000
0001
0000
0100
0000
0000
0010
0000
,
0000
0100
0000
0010
0000
0000
1000
0000
0000
0001
0000
0100
0000
0000
0010
0000
,
0000
1000
0000
0100
0001
0000
0010
0000
0100
0000
0000
0000
0010
0000
1000
0000
,
0001
0000
0010
1000
0001
0000
0010
1000
,
0001
0100
0010
0100
0001
0000
0010
0100
,
0001
0000
0010
0100
0001
0000
0001
0100
,
0010
1000
0010
0100
1000
0000
1000
0100
,
1000
0000
0100
1000
0100
0000
0010
1000
,
0001
0100
0110
0000
0010
1000
1010
0000
,
1000
0100
1100
0000
0110
0000
0011
0000
,
0110
0000
0000
0000
0000
0000
0000
0000
0000
0000
0000
0000
0000
0000
0000
0000
1000
0001
0000
1000
0000
0000
0000
0000
0000
0000
0000
0000
0000
0000
0000
0000
0000
0000
0000
0000
0000
0000
0000
0000
0000
0000
0000
0000
0000
0000
0000
0000
0000
0000
0000
0000
0000
0000
0000
0000
0000
0000
0000
0000
0000
0000
0000
0000
;

//---------------dance-single - ----------------
#NOTES:
     dance-single:
     :
     Medium:
     5:
     0.348,0.379,0.117,0.092,0.059:
0000
0000
0000
0000
,
0000
0000
0000
0000
,
0000
0000
0000
0000
,
0000
0000
0000
0000
,
0000
1000
0000
0001
,
0000
0100
0000
0010
,
0000
0000
0010
0100
0000
0000
0010
0000
,
0000
0100
0000
1000
,
0000
0000
0001
1000
0001
0000
0100
0000
,
0010
0000
1000
0100
1000
0000
0100
0000
,
0010
0000
0001
0100
0001
0000
0100
0000
,
0010
0000
1000
0001
1000
0000
1000
0000
,
1000
0000
0001
0100
0001
0000
0100
0000
,
0010
0000
1000
0010
1000
0000
0100
0000
,
1000
0000
0100
1000
0100
0000
1000
0000
,
0100
0000
0010
0001
0010
0000
0100
0000
,
0010
0000
1000
0001
1000
0000
0001
0000
,
1000
0001
0010
0100
,
1000
0000
0010
1000
0010
0000
0100
0000
,
0010
1000
0001
0100
,
0010
0000
1000
0100
1000
0000
0100
0000
,
0010
0001
0010
0100
,
1000
0000
0001
1000
0001
0000
0100
0010
,
0100
0000
1000
0100
1000
0000
0001
0100
,
0001
2002
3003
0000
,
0000
0000
1000
0000
0000
0001
0000
0000
0100
0010
0000
0000
0000
0000
0000
0000
,
0000
0000
0100
0010
0100
0010
0000
0000
1000
0000
0001
0000
0100
0000
0000
0000
,
0000
0000
0000
0000
0000
0000
0010
0000
0000
0100
0000
0000
1000
0000
0001
0000
,
0000
0001
0001
0001
,
0001
0001
0001
0001
,
0001
1000
1000
1000
,
1000
0000
0000
0000
1000
0000
0000
0000
1000
0000
0000
1000
0000
0000
0000
0000
,
1000
1001
0010
0110
,
0010
1010
0001
0101
,
1000
0000
0000
0001
0000
1000
0000
0000
0000
0010
0000
0100
0000
0000
0000
0000
,
0000
0010
0000
0100
0000
0000
0000
0000
1000
0001
0000
0010
0000
0000
1000
0000
,
0001
0100
0010
0100
0010
0000
0010
0100
,
0010
0000
0010
1000
0010
1000
0000
0010
,
0000
0100
0000
1000
0100
0000
1000
0100
,
0000
0001
0100
0000
0001
0100
0000
0001
,
0100
0000
0010
0100
0000
0110
0000
1001
,
0000
1100
0000
1000
0100
0001
0000
0100
,
0000
0100
0000
0001
0100
0000
1000
0100
,
0000
0001
0100
0000
1000
0100
0000
0001
,
0010
0000
0001
0100
0001
0000
0010
0000
,
0100
0000
0010
1000
0010
0000
1000
0000
,
0100
0000
1000
0100
1000
0000
0010
0000
,
0100
0000
0010
0100
0010
0000
1000
0000
,
0001
0000
0100
0001
0100
0000
0010
0000
,
1000
0000
0100
1000
0100
0000
1000
0000
,
0100
0000
0010
0001
0010
0000
0100
0010
,
0100
0000
0010
1000
0010
0000
0002
0000
,
0103
0000
0010
0100
0010
0100
0020
0000
,
0130
0000
1000
0100
1000
0100
2000
0000
,
3100
0000
0001
0100
0001
0100
0002
0000
,
0103
0000
0010
0001
0010
0001
0020
0000
,
0031
0000
0010
0100
0001
1000
0020
0000
,
1030
0000
1000
0100
0010
0001
0200
0000
,
0310
0010
0000
0110
,
0000
1100
0011
1010
,
0101
0000
0000
0000
0000
0000
0000
0000
0000
0000
0000
0000
0000
0000
0000
0000
0000
0000
0000
0000
0000
0000
0000
0000
0000
0000
0000
0000
0000
0000
0000
0000
0000
0000
0000
0000
0000
0000
0000
0000
0000
0000
0000
0000
0000
0000
0000
0000
2002
0000
0000
0000
0000
0000
0000
0000
0000
0000
0000
0000
0000
0000
0000
0000
0000
0000
0000
0000
0000
0000
0000
0000
0000
0000
0000
0000
0000
0000
0000
0000
0000
0000
0000
0000
0000
3003
0000
0000
0000
0000
0000
0000
0000
0000
0000
0000
0000
0000
0000
0000
0000
0000
0000
0000
0000
0000
0000
0000
0000
0000
0000
0000
0000
0000
0000
0000
0000
0000
0000
0000
0000
0000
0000
0000
0000
0000
0000
0000
0000
0000
0000
0000
0000
0000
0000
0000
0000
0000
0000
0000
0000
0000
0000
0000
0000
0000
0000
0000
0000
0000
0000
0000
0000
0000
0000
0000
0000
0000
0000
0000
0000
0000
0000
0000
0000
0000
0000
0000
0000
0000
0000
0000
0000
0000
0000
0000
0000
0000
0000
0000
0000
0000
0000
0000
0000
0000
0000
0000
0000
0000
0000
0000
;

//---------------dance-single - ----------------
#NOTES:
     dance-single:
     :
     Easy:
     3:
     0.200,0.227,0.067,0.092,0.000:
0000
0000
0000
0000
,
0000
0000
0000
0000
,
0000
0000
0000
0000
,
0000
0000
0000
0000
,
0000
1000
0000
1000
,
0000
1000
0000
1000
,
0000
0001
0000
0001
,
0000
0001
0000
0002
,
0003
0100
0010
0200
,
0300
0010
1000
0020
,
0030
0001
0100
0002
,
0003
1000
0001
2000
,
3000
0001
0100
0020
,
0030
0010
0100
0002
,
0003
1000
0001
0200
,
0300
0001
1000
0020
,
0030
1000
1000
0001
,
1000
0001
0100
0001
,
0100
0001
1000
0010
,
1000
0001
0100
0001
,
1000
0001
0010
1000
,
0010
0001
0010
1000
,
0010
0001
0100
1000
,
0100
0001
0100
1000
,
0100
0002
0003
0000
,
0000
0000
0000
0000
,
0000
1001
0000
0000
,
0000
0000
0000
0010
,
0000
0100
0000
0100
,
0000
0100
0000
0100
,
0000
0010
0000
0010
,
0000
0010
0000
0010
,
0000
1001
0000
1100
,
0000
0101
0000
0110
,
0000
0010
0000
0010
,
0000
0010
0000
0010
,
0000
0100
0100
0100
,
0100
0100
0100
0100
,
0100
0100
0000
0100
,
0000
0100
0000
0100
,
0000
0001
0001
0001
,
0001
0001
0001
0001
,
0001
0001
0000
0001
,
0000
0001
0000
0001
,
0000
1000
0000
0001
,
0000
1000
0000
0001
,
0000
0100
0000
0010
,
0000
0100
0000
0010
,
0000
0100
0000
0010
,
0000
1000
0000
0001
,
0000
1000
0000
0100
,
0000
0010
0000
0001
,
0000
1000
1000
1000
,
0000
0001
0100
0010
,
0000
0010
0010
0010
,
0000
0100
0100
0100
,
0000
1000
0001
1000
,
0000
1000
0001
0100
,
0000
1010
0000
0101
,
0000
1100
0010
0001
,
0100
0000
2000
3000
0000
0000
0000
0000
;

//---------------dance-single - ----------------
#NOTES:
     dance-single:
     :
     Beginner:
     1:
     0.057,0.100,0.000,0.000,0.000: // measure 1
0000
0000
0000
0000
,  // measure 2
0000
0000
0000
0000
,  // measure 3
0000
0000
0000
0000
,  // measure 4
0000
0000
0000
0000
,  // measure 5
0000
0001
0000
0000
,  // measure 6
0000
0000
0000
0000
,  // measure 7
0000
1000
0000
0000
,  // measure 8
0000
0000
0000
0000
,  // measure 9
0000
0010
0000
0000
,  // measure 10
0000
0010
0000
0000
,  // measure 11
0000
0100
0000
0000
,  // measure 12
0000
0100
0000
0000
,  // measure 13
0000
1000
0000
0000
,  // measure 14
0000
0001
0000
0000
,  // measure 15
0000
0010
0000
0000
,  // measure 16
0000
0100
0000
0000
,  // measure 17
0000
1000
0000
0000
,  // measure 18
0000
1000
0000
0000
,  // measure 19
0000
0001
0000
0000
,  // measure 20
0000
0100
0000
0000
,  // measure 21
0000
0010
0000
0000
,  // measure 22
0000
0001
0000
0000
,  // measure 23
0000
1000
0000
0000
,  // measure 24
0000
0001
0000
0000
,  // measure 25
0000
0100
0000
0000
,  // measure 26
0000
0000
0000
0000
,  // measure 27
0000
0000
0000
0000
,  // measure 28
0000
0000
0000
0000
,  // measure 29
0000
0100
0000
0000
,  // measure 30
0000
0000
0000
0000
,  // measure 31
0000
0010
0000
0000
,  // measure 32
0000
0000
0000
0000
,  // measure 33
0000
1000
0000
1000
,  // measure 34
0000
1000
0000
1000
,  // measure 35
0000
0001
0000
0000
,  // measure 36
0000
0000
0000
0000
,  // measure 37
0000
0001
0000
0000
,  // measure 38
0000
0000
0000
0000
,  // measure 39
0000
0001
0000
0001
,  // measure 40
0000
1000
0000
0001
,  // measure 41
0000
0100
0000
0000
,  // measure 42
0000
0100
0000
0000
,  // measure 43
0000
0010
0000
0010
,  // measure 44
0000
0010
0000
0010
,  // measure 45
0000
0100
0000
0000
,  // measure 46
0000
0000
0000
0000
,  // measure 47
0000
1000
0000
0000
,  // measure 48
0000
0000
0000
0000
,  // measure 49
0000
0001
0000
0000
,  // measure 50
0000
0000
0000
0000
,  // measure 51
0000
0100
0000
0000
,  // measure 52
0000
0000
0000
0000
,  // measure 53
0000
0010
0000
0000
,  // measure 54
0000
0000
0000
0000
,  // measure 55
0000
1000
0000
0000
,  // measure 56
0000
0000
0000
0000
,  // measure 57
0000
0001
0000
0000
,  // measure 58
0000
0000
0000
0000
,  // measure 59
0000
1000
0000
1000
,  // measure 60
0000
0001
0000
0001
;
