#TITLE:Power Dream;
#SUBTITLE:;
#ARTIST:Pink Pong;
#TITLETRANSLIT:;
#SUBTITLETRANSLIT:;
#ARTISTTRANSLIT:;
#CREDIT:;
#BANNER:bn.PNG;
#BACKGROUND:bg.PNG;
#LYRICSPATH:;
#CDTITLE:Beatmania IIDX.png;
#MUSIC:powerdream.mp3;
#OFFSET:-1.220;
#SAMPLESTART:62.374;
#SAMPLELENGTH:15.000;
#SELECTABLE:YES;
#BPMS:0.000=142.000,112.000=71.000,127.000=142.000;
#STOPS:127.000=0.420
,158.000=0.420
,200.000=0.840
;
#BGCHANGES:;

//---------------dance-single - ----------------
#NOTES:
     dance-single:
     :
     Hard:
     9:
     0.579,0.567,0.097,0.071,1.000:
0000
0000
0000
0000
,
0000
0000
0000
0000
,
0000
0000
0000
0000
,
0000
0000
0000
0000
,
1000
0000
0001
0000
0100
0000
0000
0010
0000
0000
1000
0000
0000
0001
0000
0000
,
1000
0000
0100
0000
0001
0000
0000
0100
0000
0000
0010
0000
0000
1000
0000
0000
,
0001
0000
1000
0000
0100
0000
0000
0010
0000
0000
0100
0000
0000
1000
0000
0000
,
2002
0000
0000
3003
,
1000
0000
0000
0001
0000
0010
0000
0001
1000
0000
0000
0100
0000
0010
0000
0001
,
1000
0000
0000
1000
0000
0100
0000
1000
0100
0000
0000
0001
0000
0100
0000
0001
,
0100
0000
0000
0001
0000
1000
0000
0010
0100
0000
0000
0010
0000
0100
0000
0001
,
1000
0000
0000
0001
0000
0100
0000
0010
1000
0010
1000
0010
0000
0000
0000
0000
,
1001
0000
0000
0001
0000
0010
0000
1000
0100
0000
0000
0001
0000
1000
0000
0001
,
0100
0000
0000
0010
0000
0100
0000
0001
1000
0000
0000
1000
0000
0100
0000
1000
,
0100
0000
0000
0001
0000
0010
0000
1000
0001
0000
0000
1000
0000
0001
0000
0100
,
0010
0000
1001
0000
,
1000
0000
0001
0000
0010
0100
0000
0010
0000
0000
1000
0000
0000
0001
0000
0000
,
0100
0000
0010
0000
1000
0001
0000
0100
0000
0000
0001
0000
0000
1000
0000
0000
,
1000
0000
0100
1000
0000
0100
0000
1000
0000
0000
0001
0000
0000
1000
0000
0000
,
0010
0000
0100
0010
0000
0100
0000
0000
0001
0000
0000
1000
0000
0000
0100
0000
,
0010
0000
0000
0001
0000
0000
0100
0000
0010
0000
0000
1000
0000
0000
0100
0000
,
0010
0000
0000
0001
0000
0000
1000
0000
0001
0000
0000
1000
0000
0000
0010
0000
,
0100
0000
0010
0100
0000
0010
0000
0010
1000
0000
0001
0100
0000
1000
0000
1000
,
0100
0000
0100
0010
0000
0001
0000
1000
0001
0000
1000
0001
0000
1000
0000
0001
,
1000
0001
0100
0010
,
1010
0000
0000
0000
0101
0000
0000
0000
1000
0000
0000
0100
0000
0000
0001
0000
,
0101
0000
0000
0000
1010
0000
0000
0000
1100
0000
0000
0011
0000
0000
0100
0000
,
0020
0000
0000
0000
0000
0000
0000
0000
1030
0001
1000
0001
0100
0010
0100
0010
,
0100
0010
1000
0001
,
0100
0000
0000
0000
0020
0000
0000
0000
1030
0000
0000
0000
0000
1000
0100
0010
,
0001
0000
0000
0000
0010
0000
0000
0000
0100
0000
0000
0010
0000
0010
0100
1000
,
0001
0001
1100
0010
,
1000
0000
0001
0100
0000
0010
0000
1000
0100
0000
0001
0100
0000
0010
0000
0100
,
0010
0000
1000
0001
0000
0100
0000
0010
0100
0000
0010
0100
0000
0010
0000
1000
,
0001
0000
1000
0001
0000
0100
0000
0010
0100
0000
1000
0100
0000
0001
0000
0001
,
0100
0000
0010
0100
0000
1000
0000
0001
0100
0000
0010
0100
0000
1000
0000
0001
,
0100
0000
1000
0100
0000
1000
0000
0001
0100
0000
0001
0100
0000
0001
0000
0010
,
0100
0000
0010
0100
0000
0010
0000
1000
0001
0000
1000
0001
0000
1000
0000
1000
,
0100
0000
0100
0010
0000
0001
0000
0001
0100
0000
0010
0100
0000
0100
0000
0010
,
1000
0000
0010
0100
0000
0001
0000
1000
1010
0000
0000
0000
0100
0000
0010
0001
,
0000
1000
0000
0100
0001
0000
0010
0001
0000
1000
0000
0001
1000
0000
0100
0010
,
0000
0001
0000
1000
0001
0000
1000
0001
0000
1000
0000
0100
0010
0000
0100
0010
,
0000
0001
0000
1000
0001
0000
0100
0001
0000
0010
0000
0010
0001
0000
1000
0001
,
0000
0100
0000
0010
0001
0000
1000
0001
0000
0100
0000
0010
0001
0000
0100
0001
,
0000
0100
0000
0010
0001
0000
0010
0001
0000
0010
0000
1000
0001
0000
1000
0001
,
0000
1000
0000
0100
0010
0000
0100
0010
0000
0100
0000
0100
0010
0000
0001
0100
,
0000
0010
0000
0010
0001
0000
1000
0001
0000
0001
0000
1000
0100
0000
1000
0001
,
0000
0010
0000
0100
0010
0000
0100
0010
0000
0001
0000
1000
0001
0000
0000
0000
,
1000
0100
1000
0000
0001
0100
0001
0000
0010
0001
0010
0000
1000
0100
1000
0000
,
0100
0001
0100
0000
1000
0000
0000
0002
0000
0000
0200
0000
0000
0000
0000
0000
,
0303
0000
0000
0000
1000
0000
0001
0010
0000
0100
0000
1000
0100
0000
1000
0100
,
0000
1000
0000
0001
0100
0000
0001
0100
0000
0001
0000
0001
0010
0000
0001
0010
,
0000
1000
0001
1000
0001
0000
1000
0001
0000
0100
0000
0010
0100
0000
0001
1000
,
0000
0001
0000
0001
0010
0000
0100
1000
0000
0001
0000
1000
0100
0000
0010
0000
,
0001
0000
0010
0100
0010
0000
0100
0010
0000
0100
0000
0001
1000
0000
0001
1000
,
0000
0001
0100
0001
0100
0000
0001
1000
0000
0001
0000
1000
0100
0000
0001
0010
,
0000
1000
0100
0010
0001
0000
0001
0100
0000
0001
0000
0001
0100
0000
0010
1000
,
0000
0001
0000
0010
1000
0000
0001
1000
0000
0010
0000
1000
0010
0000
1000
0001
,
0000
0200
0000
0020
0330
0000
0000
0000
0000
0000
0000
0000
0000
0000
0000
0000
;

//---------------dance-single - ----------------
#NOTES:
     dance-single:
     :
     Medium:
     6:
     0.427,0.413,0.142,0.584,0.434:
0000
0000
0000
0000
,
0000
0000
0000
0000
,
0000
0000
0000
0000
,
0000
0000
0000
0000
,
0001
1000
0001
0000
0100
0000
0010
0000
,
1000
0100
1000
0000
0100
0000
1000
0000
,
0010
0100
0010
0000
0100
0000
1000
0000
,
2002
0000
0000
3003
,
0002
0000
0000
0103
0020
0000
0000
0130
,
0020
0000
0000
0130
0020
0000
0000
0130
,
0020
0000
0000
0130
0020
0000
0000
0130
,
0020
0000
0200
0330
,
0002
0000
0000
1003
0002
0000
0000
1003
,
0002
0000
0000
1003
0002
0000
0000
1003
,
0002
0000
0000
1003
0002
0000
0000
1003
,
0001
0000
1001
0000
,
0010
0200
0010
0310
,
0020
1000
1000
1030
,
2000
0100
0100
3100
,
0002
0100
0100
0103
,
0020
0031
0200
1300
,
0020
0130
2000
3100
,
0002
0100
0100
0100
,
0023
0032
0023
0032
,
0203
0020
0000
0330
,
1001
1100
0011
0110
,
1020
0000
1000
1000
,
0200
0000
0030
0302
,
1003
0100
1000
0100
,
0010
0000
0002
0000
0103
0000
0000
0010
,
0100
0000
0000
0000
0010
0000
0000
0000
1000
0000
0000
0001
0000
0000
1000
0000
,
0100
0010
0001
1000
,
0001
0000
0000
0100
0000
0100
0000
0000
0010
0000
0000
1000
0000
0001
0000
0000
,
1000
0000
0000
1000
0000
0100
0000
0000
0010
0000
0000
0001
0000
0100
0000
0000
,
0010
0000
0000
0001
0000
1000
0000
0000
0010
0000
0000
0100
0000
0010
0000
0000
,
1000
0000
0000
0001
0000
0100
0000
0000
1000
0000
0000
0100
0000
1000
0000
0000
,
1000
0000
0000
0001
0000
0100
0000
0000
0010
0000
0000
0100
0000
0010
0000
0000
,
1000
0000
0000
0001
0000
0100
0000
0000
1000
0000
0000
0001
0000
0100
0000
0000
,
1000
0000
0000
0100
0000
1000
0000
0000
1000
0000
0000
0001
0000
0100
0000
0000
,
0010
0000
0000
0100
0000
0010
0000
1000
0001
0000
0000
0000
2000
0000
0000
0100
,
0000
3100
0000
0000
0002
0000
0000
0100
0000
0103
0000
0000
0020
0000
0000
0100
,
0000
0130
0000
0000
2000
0000
0000
0100
0000
3100
0000
0000
0002
0000
0000
0010
,
0000
0013
0000
0000
2000
0000
0000
0001
0000
3001
0000
0000
0002
0000
0000
0100
,
0000
0103
0000
0000
0020
0000
0000
0100
0000
0130
0000
0000
0200
0000
0000
0010
,
0000
0310
0000
0000
2000
0000
0000
0001
0000
3001
0000
0000
0002
0000
0000
0100
,
0000
0103
0000
0000
0020
0000
0000
0100
0000
0130
0000
0000
2000
0000
0000
0100
,
0000
3100
0000
0000
0002
0000
0000
0010
0000
0013
0000
0000
0002
0000
0000
1000
,
0000
1003
0000
0000
2000
0000
0000
0001
0000
3001
0000
0000
0000
0000
0000
0000
,
1100
0110
0011
0110
,
1010
0000
0000
0000
0001
0000
0000
0010
0000
0000
2000
0000
0000
0000
0000
0000
,
3000
0000
0000
0000
0200
0000
0000
0001
0000
0301
0000
0000
0020
0000
0000
0001
,
0000
0031
0000
0000
2000
0000
0000
0001
0000
3001
0000
0000
0200
0000
0000
0001
,
0000
0301
0000
0000
0020
0000
0000
1000
0000
1030
0000
0000
0200
0000
0000
0010
,
0000
0310
0000
0000
2000
0000
0000
0010
0000
3010
0000
0000
0200
0000
0000
0010
,
0000
0310
0000
0000
0020
0000
0000
0100
0000
0130
0000
0000
0002
0000
0000
1000
,
0000
1003
0000
0000
2000
0000
0000
0010
0000
3010
0000
0000
0200
0000
0000
0010
,
0000
0310
0000
0000
0101
0000
0000
1000
0000
1000
0000
0000
1001
0000
0000
0100
,
0000
0100
0000
0000
1001
0000
0000
1000
0000
0100
0000
0000
0011
0000
0000
0001
,
0000
2000
0000
0002
3003
0000
0000
0000
0000
0000
0000
0000
0000
0000
0000
0000
;

//---------------dance-single - ----------------
#NOTES:
     dance-single:
     :
     Easy:
     3:
     0.229,0.309,0.071,0.584,0.000:
0000
0000
0000
0000
,
0000
0000
0000
0000
,
0000
0000
0000
0000
,
0000
0000
0000
0000
,
1000
0001
1000
0000
,
0001
0100
0001
0000
,
0010
0100
0010
0000
,
2002
0000
0000
3003
,
1000
0000
1000
0000
,
1000
0000
1000
0000
,
0001
0000
0001
0000
,
0001
0000
0002
0003
,
0100
0000
0100
0000
,
0100
0000
0100
0000
,
0010
0000
0010
0000
,
0110
0000
0110
0000
,
2000
0000
0000
3000
,
0002
0000
0000
0003
,
0200
0000
0000
0300
,
0020
0000
0000
0030
,
2000
0000
3200
0000
,
2300
0000
3200
0300
,
0002
0000
0203
0000
,
0302
0000
0203
0020
,
0330
0000
0000
0000
,
0000
0000
2000
3002
,
0200
0003
0010
0010
,
0020
0000
0000
0330
,
2002
0000
0000
0000
,
0000
0000
3000
0000
0003
0000
0000
0002
,
0200
0003
0320
0000
,
2030
3002
0200
0303
,
2000
0000
3002
0000
,
0203
0000
0320
0000
,
0230
0000
0320
0000
,
0230
0000
0320
0000
,
2030
0000
3020
0000
,
2030
0000
3002
0000
,
2003
0000
3002
0000
,
0203
0000
0300
0020
,
0000
0100
0000
0100
,
0000
0100
0000
2030
,
0000
0001
0000
0001
,
0000
0001
0000
3002
,
0000
0100
0000
0100
,
0000
0100
0000
0203
,
0000
0010
0000
0010
,
0000
0010
0000
0310
,
2000
3002
2003
3002
,
2003
3002
0000
0003
,
0000
0002
0000
0203
,
0000
0320
0000
2030
,
0000
3200
0000
2300
,
0000
3020
0000
0130
,
0010
0200
0000
0320
,
0000
2030
0000
3002
,
0000
0003
1001
0000
0000
0000
0110
0000
,
0000
1010
0000
2002
,
0000
3003
0000
0000
;

//---------------dance-single - ----------------
#NOTES:
     dance-single:
     :
     Beginner:
     1:
     0.081,0.205,0.044,0.000,0.000: // measure 1
0000
0000
0000
0000
,  // measure 2
0000
0000
0000
0000
,  // measure 3
0000
0000
0000
0000
,  // measure 4
0000
0000
0000
0000
,  // measure 5
0010
0000
0000
0000
,  // measure 6
0010
0000
0000
0000
,  // measure 7
0010
0000
0000
0000
,  // measure 8
0000
0000
0000
0000
,  // measure 9
0100
0000
0000
0000
,  // measure 10
0000
0000
0000
0000
,  // measure 11
0100
0000
0000
0000
,  // measure 12
0000
0000
0000
0000
,  // measure 13
1000
0000
0000
0000
,  // measure 14
0000
0000
0000
0000
,  // measure 15
0001
0000
0000
0000
,  // measure 16
0100
0000
0100
0000
,  // measure 17
0100
0000
0000
0000
,  // measure 18
0010
0000
0000
0000
,  // measure 19
1000
0000
0000
0000
,  // measure 20
0001
0000
0000
0000
,  // measure 21
1000
0000
0000
0000
,  // measure 22
0001
0000
0000
0000
,  // measure 23
0100
0000
0000
0000
,  // measure 24
0010
0000
0000
0000
,  // measure 25
0110
0000
0000
0000
,  // measure 26
1000
0000
0000
0000
,  // measure 27
0000
0000
0001
0001
,  // measure 28
0001
0000
0000
0000
,  // measure 29
0100
0000
0000
0000
,  // measure 30
0000
0010
0010
0000
,  // measure 31
0100
0000
0000
0000
,  // measure 32
1000
0000
0001
0000
,  // measure 33
0100
0000
0000
0000
,  // measure 34
0010
0000
0000
0000
,  // measure 35
1000
0000
0000
0000
,  // measure 36
0001
0000
0000
0000
,  // measure 37
1000
0000
0000
0000
,  // measure 38
0001
0000
0000
0000
,  // measure 39
0100
0000
0000
0000
,  // measure 40
0010
0000
0000
0010
,  // measure 41
0000
0000
0000
0100
,  // measure 42
0000
0000
0000
1000
,  // measure 43
0000
0000
0000
0001
,  // measure 44
0000
0000
0000
1000
,  // measure 45
0000
0000
0000
0001
,  // measure 46
0000
0000
0000
0100
,  // measure 47
0000
0010
0000
0100
,  // measure 48
0000
0010
0000
0000
,  // measure 49
0100
0000
0000
0100
,  // measure 50
0000
0100
0000
0000
,  // measure 51
0000
0001
0000
0000
,  // measure 52
0000
0000
0000
0000
,  // measure 53
0000
1000
0000
0000
,  // measure 54
0000
0000
0000
0100
,  // measure 55
0100
0100
0000
0000
,  // measure 56
0000
0010
0000
0000
,  // measure 57
0000
1001
0000
1001
,  // measure 58
0000
1001
0000
1001
;
