#TITLE:PollinosiS;
#SUBTITLE:;
#ARTIST:dj REMO-CON;
#TITLETRANSLIT:;
#SUBTITLETRANSLIT:;
#ARTISTTRANSLIT:;
#CREDIT:;
#BANNER:bn.PNG;
#BACKGROUND:bg.PNG;
#LYRICSPATH:;
#CDTITLE:12 happy.png;
#MUSIC:Pollinosis.ogg;
#OFFSET:-10.310;
#SAMPLESTART:74.849;
#SAMPLELENGTH:16.360;
#SELECTABLE:YES;
#BPMS:0.000=145.000,152.000=290.000,160.000=145.000;
#STOPS:188.000=0.207
,188.500=0.207
,189.000=0.207
,189.500=0.207
,220.000=0.207
,220.500=0.207
;
#BGCHANGES:;

//---------------dance-single - ----------------
#NOTES:
     dance-single:
     :
     Hard:
     7:
     0.414,0.600,0.735,0.371,0.149:
0000
0000
0000
0000
,
0000
0000
0000
0000
,
0000
0000
0000
0000
,
0000
0000
0000
0000
,
1100
1100
0101
0101
,
0011
0011
1010
1010
,
0110
0110
1001
1001
,
1100
0000
0000
0000
0011
0000
0000
0000
0101
0000
0001
0000
0000
0001
0000
0100
,
0001
1100
0110
1001
,
1100
0011
0110
1001
,
1100
0011
0110
1010
,
0101
0000
0000
0001
1000
0000
0001
0000
1000
0000
0001
0000
0000
0000
0100
0000
,
0020
0200
0000
0000
,
0330
0002
0000
0000
,
0003
2000
0000
0000
,
3000
0200
0000
0300
,
2200
0000
0000
3000
,
0300
0220
0000
0300
,
0030
0202
0000
0300
,
0003
0220
0000
0300
,
0030
2200
0000
0300
,
3000
0202
0000
0300
,
0003
0220
0000
0030
,
0300
2002
0000
3000
,
0003
2200
0000
0300
,
3000
0220
0000
0300
,
0030
0202
0000
0003
,
0300
0022
0000
0003
,
0030
0002
0000
0000
,
0000
2000
0000
0000
,
3000
0200
0000
0000
,
0300
0020
0000
0030
,
0200
0300
0020
0030
,
2000
3000
0020
0033
,
0000
1001
0000
0000
0011
0000
0011
0000
0000
0101
0000
0000
1100
0000
1100
0000
,
0000
0010
0000
0001
0000
1000
0000
0010
0000
0100
0000
0001
1000
0100
0010
0001
,
2000
0000
0000
0000
,
3000
0002
0000
0000
,
0000
0000
0000
0000
,
0000
0000
0000
0000
0000
0000
2000
3003
,
1100
0110
0011
0101
,
1001
1010
1100
0011
,
0101
1001
1010
0110
,
1001
0000
1100
0000
1100
0100
0000
0100
,
1100
1100
0110
0011
,
0101
1100
0011
1010
,
0101
1100
0011
1010
,
0002
2003
3020
0230
0310
0000
0110
0000
,
1100
0011
0110
1010
,
0110
0000
0000
0001
0100
0001
0100
0000
0000
0110
0000
0000
,
1100
0011
0110
1001
,
0001
1000
0001
1000
0000
0000
1100
0000
0000
1100
0000
0000
,
0010
0100
0010
0100
0000
1000
0001
0000
0000
1100
0000
0000
,
0001
0100
0001
0100
0000
0000
0010
0100
0001
1000
0010
0100
,
0010
1000
0100
0010
0001
0010
0011
0000
1100
0000
0010
0000
,
0001
1000
0100
1000
0100
0000
0010
0100
,
0010
0000
0001
0100
0001
0000
1000
0100
,
1000
0000
0010
0100
0010
0000
0001
1000
,
0001
0000
0010
0100
0010
0100
0000
0010
,
0010
0000
0010
0100
0010
0000
0001
1000
,
0001
0000
1000
0100
1000
0000
0010
0001
,
0010
0000
0000
0100
0000
0010
0000
0000
0001
0000
1000
0000
0001
0200
0000
0000
,
0300
0010
0100
0000
0001
0000
0100
0000
1000
0000
0100
0000
0010
0000
0001
0000
,
0010
0100
1001
0000
0000
0000
0000
0000
;

//---------------dance-single - ----------------
#NOTES:
     dance-single:
     :
     Medium:
     5:
     0.375,0.470,0.759,0.256,0.058:
0000
0000
0000
0000
,
0000
0000
0000
0000
,
0000
0000
0000
0000
,
0000
0000
0000
0000
,
1001
1001
1001
1001
,
0101
0101
0101
0101
,
0011
0011
0011
0011
,
0110
0110
0110
0000
,
1010
1010
1010
1010
,
1100
1100
1100
1100
,
1001
1001
1001
1001
,
1001
0110
1001
0000
,
0002
0200
0000
0303
,
0000
0020
0000
0000
,
0030
0200
0000
0000
,
0300
0002
0000
0000
,
2003
0200
0000
0000
,
3300
0020
0000
0000
,
0030
0202
0000
0000
,
0303
0020
0000
0000
,
0030
2000
0000
0100
,
0200
3000
0000
0000
0000
0000
1000
0000
,
2000
0300
0000
0100
,
3200
0000
0000
0001
,
0302
0200
0000
0003
,
0300
0020
0000
0100
,
0200
0030
0000
0010
,
0320
2030
0000
3001
,
1002
0200
0000
0303
,
0002
2000
0000
3003
,
2001
0200
0000
3300
,
1001
0202
0000
0303
,
0110
0000
1100
0000
,
0011
0000
0110
0000
,
0000
1000
0000
0000
0010
0000
0001
0000
0000
0100
0000
0000
1000
0000
0100
0000
,
0000
0010
0000
0001
0000
1000
0000
0010
0000
0100
0000
0001
0000
0100
0000
0001
,
2000
0000
0000
0000
,
3000
0002
0000
0000
,
0000
0000
0000
0000
,
0000
0000
0000
0003
,
1001
1001
0101
0101
,
1010
1010
1100
1100
,
0011
0011
0110
0110
,
1001
0000
1001
0000
0001
1000
0000
1000
,
1100
1100
0110
0110
,
0011
0011
0101
0101
,
1100
1100
1010
1010
,
0001
1000
0100
0010
0011
0000
1100
0000
,
0110
1001
1100
0110
,
0101
0000
0000
0101
0000
0010
0100
0000
0000
0110
0000
0000
,
0110
1001
1100
0110
,
0101
0000
0001
0100
0000
0000
0110
0000
0000
1001
0000
0000
,
1100
0011
0110
1100
,
0011
0110
1001
1001
,
1001
0000
0000
1010
0000
0000
0001
0000
0010
0000
0100
0000
,
1000
0001
1000
0100
0000
0000
0010
0001
,
0000
0000
0100
0010
0000
0000
1000
0100
,
0000
0000
0010
0001
0000
0000
0100
0010
,
0000
0000
1000
0100
0000
0000
0010
0100
,
0010
0000
0010
0100
0010
0000
1000
0100
,
1000
0000
0010
0001
0010
0000
0100
0001
,
0100
0010
0100
1000
,
0100
0000
1000
0100
0010
0001
0010
0100
,
0010
1000
1001
0000
0000
0000
0000
0000
;

//---------------dance-single - ----------------
#NOTES:
     dance-single:
     :
     Easy:
     4:
     0.244,0.470,0.314,0.239,0.000:
0000
0000
0000
0000
,
0000
0000
0000
0000
,
0000
0000
0000
0000
,
0000
0000
0000
0000
,
1000
1000
1000
1000
,
0001
0001
0001
0001
,
0100
0100
0100
0100
,
0010
0010
0010
0000
,
0010
0010
0010
0010
,
0100
0100
0100
0100
,
0010
1000
0001
0100
,
0010
1000
0100
0000
,
0002
0200
0303
0000
,
0000
0020
0000
0000
,
0030
0200
0000
0000
,
0300
0020
0000
0000
,
0030
0002
0000
0000
,
0003
2000
0000
0000
,
3000
0002
0000
0000
,
0003
0200
0000
0000
,
0300
0020
0000
0000
,
0030
0200
0000
0000
,
0300
0020
0000
0000
,
0030
0200
0000
0000
,
0300
0020
0000
0000
,
0030
0200
0000
0000
,
0300
0020
0000
0000
,
0030
0200
0000
0000
,
0300
0002
0000
0000
,
0003
2000
0000
0000
,
3000
0002
0000
0000
,
0003
2000
0000
0000
,
3200
0000
2300
0000
,
3200
0000
2300
0000
,
3100
0000
0001
0000
,
0100
0010
1000
0200
,
2000
0000
0000
0000
,
3300
0000
0000
0000
,
0000
0000
0000
0000
,
0000
0000
0000
0000
,
1001
0001
1000
0001
,
0101
1000
0100
1000
,
1100
0100
0010
0001
,
0011
0110
1100
0000
,
1001
1001
1001
1001
,
1001
1001
1001
1001
,
1001
1001
1001
1001
,
2002
0000
0000
3003
0001
0000
0001
0000
,
1000
1000
0100
0010
,
0001
0100
0101
0010
,
0100
1000
0001
1000
,
1100
0110
0011
0011
,
0001
0001
1100
1100
,
1000
1000
1100
0110
,
0011
0110
1100
0000
,
0001
1000
0001
0000
0000
0000
0001
0000
,
0000
1000
0000
0100
,
0000
0010
0000
0001
,
0000
0100
0000
0010
,
0000
1010
0000
0110
,
0000
0011
0000
0101
,
0000
1001
0000
1100
,
0000
0010
0001
0010
,
0100
1001
0000
0000
;

//---------------dance-single - ----------------
#NOTES:
     dance-single:
     :
     Beginner:
     1:
     0.079,0.131,0.041,0.000,0.000: // measure 1
0000
0000
0000
0000
,  // measure 2
0000
0000
0000
0000
,  // measure 3
0000
0000
0000
0000
,  // measure 4
0000
0000
0000
0000
,  // measure 5
0010
0000
0000
0000
,  // measure 6
0010
0000
0000
0000
,  // measure 7
0010
0000
0000
0000
,  // measure 8
0100
0000
0000
0000
,  // measure 9
1000
0000
0000
0000
,  // measure 10
0001
0000
0000
0000
,  // measure 11
1000
0000
0000
0000
,  // measure 12
0001
0000
1000
0000
,  // measure 13
0001
0000
0000
0000
,  // measure 14
0000
0000
0000
0000
,  // measure 15
0000
0000
0000
0000
,  // measure 16
0000
0000
0000
0000
,  // measure 17
0000
0010
0000
0000
,  // measure 18
0000
0010
0000
0000
,  // measure 19
0000
0100
0000
0000
,  // measure 20
0000
0100
0000
0000
,  // measure 21
1000
1000
0000
0000
,  // measure 22
0000
0001
0000
0000
,  // measure 23
0000
1000
0000
0000
,  // measure 24
0000
0001
0000
0000
,  // measure 25
0000
0100
0000
0000
,  // measure 26
0000
0010
0000
0000
,  // measure 27
0000
0010
0000
0000
,  // measure 28
0000
0100
0000
0000
,  // measure 29
1000
1000
0000
0000
,  // measure 30
0000
0001
0000
0000
,  // measure 31
0000
0100
0000
0000
,  // measure 32
0000
0010
0000
0000
,  // measure 33
0010
0000
0010
0000
,  // measure 34
0010
0000
0010
0000
,  // measure 35
0010
0000
0000
0000
,  // measure 36
0000
0000
0000
0000
,  // measure 37
1000
0000
0000
0000
,  // measure 38
0001
0000
0000
0000
,  // measure 39
0000
0000
0000
0000
,  // measure 40
0000
0000
0000
0000
,  // measure 41
1001
0000
0000
0000
,  // measure 42
0001
0000
0000
0000
,  // measure 43
1000
0000
0000
0000
,  // measure 44
0001
0000
0000
0000
,  // measure 45
0110
0000
0000
0000
,  // measure 46
0010
0000
0000
0000
,  // measure 47
0100
0000
0000
0000
,  // measure 48
1001
0000
1000
0000
,  // measure 49
0000
0000
0000
0000
,  // measure 50
0000
0001
0001
0000
,  // measure 51
0000
0000
0000
0000
,  // measure 52
0010
0010
0010
0000
,  // measure 53
0000
0000
0100
0000
,  // measure 54
0000
0000
1000
0000
,  // measure 55
0001
0000
1001
0000
,  // measure 56
0000
0100
0000
0000
,  // measure 57
0000
0100
0000
0000
,  // measure 58
0000
0010
0000
0000
,  // measure 59
0000
0010
0000
0000
,  // measure 60
0000
1000
0000
0000
,  // measure 61
0000
0001
0000
0000
,  // measure 62
0000
0100
0000
0000
,  // measure 63
0010
0000
0000
0000
,  // measure 64
0000
1001
0000
0000
;
