#TITLE:Plasma;
#SUBTITLE:;
#ARTIST:Sota Fujimori;
#TITLETRANSLIT:;
#SUBTITLETRANSLIT:;
#ARTISTTRANSLIT:;
#CREDIT:;
#BANNER:bn.PNG;
#BACKGROUND:bg.PNG;
#LYRICSPATH:;
#CDTITLE:12 happy.png;
#MUSIC:Plasma.mp3;
#OFFSET:-0.060;
#SAMPLESTART:38.960;
#SAMPLELENGTH:12.000;
#SELECTABLE:YES;
#BPMS:0.000=148.000;
#STOPS:;
#BGCHANGES:;

//---------------dance-single - ----------------
#NOTES:
     dance-single:
     :
     Hard:
     7:
     0.442,0.630,0.178,0.324,0.045:
0000
0000
0000
0000
,
0000
0000
0000
0000
,
0000
0000
0000
0000
,
0000
0000
0000
0000
,
0001
1000
0001
0000
0100
0000
0010
0000
,
0100
1000
0100
0010
,
0001
0100
0001
0000
1000
0000
0010
0000
,
2002
0000
0000
0000
0000
3000
0003
0000
,
0010
0110
1000
1100
,
0010
0011
0200
0320
,
2030
0000
0000
0002
3003
0000
0101
0000
,
0010
0110
0010
1010
,
1000
1100
0100
0110
,
0010
0011
0001
0100
,
0020
0000
0000
0200
0000
0000
0330
0000
,
0001
1000
0001
1000
0001
1000
0001
1000
0001
1000
0001
1000
0001
1000
0001
1000
,
0001
0001
1000
1000
,
0001
0001
1000
1000
,
0001
1000
0001
0000
1000
0000
1000
0000
,
0001
0100
0010
0000
,
0010
0010
0100
0100
,
0010
1000
0001
0100
,
0001
0100
0001
0000
0100
0000
0010
0000
,
1000
0000
0001
0000
1000
0200
0000
0000
,
1300
1000
0100
0100
,
0010
0010
0001
0001
,
1000
0001
0100
0000
0001
0000
1000
0000
,
0010
0100
0110
0000
,
0010
0010
0100
0100
,
1000
1000
0001
0001
,
1000
0100
0001
0000
0001
0000
0100
0000
,
1000
0020
0200
0330
,
0002
0000
0103
0000
1000
0100
1000
0000
,
0020
0000
0130
0000
1000
0001
2000
0000
,
3100
0000
0020
0000
0130
0001
2000
0000
,
3002
0000
0103
0000
0010
1000
0002
0000
,
1003
0000
0200
0000
1300
0100
2000
0000
,
3010
0100
0020
0000
0000
0000
0000
0000
,
0130
0010
2000
0000
0000
0000
0000
0000
,
3002
0203
0320
2030
,
3001
1000
1001
0000
0002
0000
0103
0000
,
0010
1000
1010
0000
2000
0000
3100
0000
,
0010
1000
0002
0000
0100
0000
0013
0000
,
0001
1000
0002
0000
0100
0000
0013
0000
,
2000
3200
2300
3010
,
0010
0100
0020
0000
0100
0000
0130
0000
,
1000
0001
0200
0000
0010
0000
0310
0000
,
0002
0000
1003
0000
1000
0100
0010
0000
,
2002
0000
0000
3003
,
0001
0100
0010
1000
0001
0100
1000
0001
,
0000
0000
0000
0000
,
0001
1000
0100
0010
0001
0100
0001
1000
,
0000
0000
0000
0000
,
0010
0100
0001
1000
0001
0100
0001
0100
,
0000
0000
0000
0000
,
1000
0100
0001
0010
0100
1000
0100
1000
,
0000
0000
0000
0000
,
0010
1000
0001
0010
0100
1000
0001
1000
,
0001
0001
1000
1000
,
0001
1000
0010
0100
0001
1000
0010
1000
,
0100
0100
0010
0010
,
0001
0100
0010
1000
0100
0010
0001
0100
,
0001
0001
1000
1000
,
0001
0100
0010
1000
0100
0010
0001
0010
,
0100
0001
0010
1000
0100
0010
0001
0010
,
1000
1000
0001
0001
,
0100
0100
0010
0010
,
0010
0100
0010
0000
1000
0000
0001
0000
,
0100
0010
1000
0000
,
1000
0001
0100
0010
,
1000
0100
0010
0001
,
0101
0101
0101
0000
1100
0000
0011
0000
,
1010
0110
0102
0000
,
2000
0000
0000
0000
0000
0000
0000
0000
3003
0000
0010
0100
1000
0001
1000
0100
,
1000
0000
0000
0000
;

//---------------dance-single - ----------------
#NOTES:
     dance-single:
     :
     Medium:
     5:
     0.314,0.330,0.024,0.178,0.000:
0000
0000
0000
0000
,
0000
0000
0000
0000
,
0000
0000
0000
0000
,
0000
0000
0000
0000
,
0000
0000
0000
0000
,
0000
0000
0000
0000
,
0000
0000
0000
0000
,
2002
0000
0000
3003
,
0001
0001
1000
1000
,
0001
1000
0002
0203
,
0020
0000
0000
0330
,
0010
0100
1000
0100
,
0010
0001
0010
0100
,
1000
0001
2000
3200
,
2000
0000
0000
3300
,
0220
0000
0000
0330
,
0001
0001
1000
1000
,
0001
0001
1000
1000
,
0001
1000
0001
0000
1000
0000
0001
0000
,
1000
0001
1000
0000
,
0010
0100
0010
0100
,
0010
0100
0010
0100
,
0010
0100
0010
0000
0100
0000
0010
0000
,
0100
0010
0200
0000
,
0301
1000
0100
0010
,
0001
0010
0100
1000
,
0010
1000
0001
0000
1000
0000
0001
0000
,
0100
0010
1000
0000
,
1000
0100
1000
0100
,
0001
0100
0001
0100
,
0001
0010
0001
0000
0001
0000
0010
0000
,
0100
2000
0200
3300
,
0010
0100
1000
0100
,
0010
0001
0100
0010
,
1000
0001
1000
0100
,
0010
0001
0010
0100
,
1000
0200
0000
0300
,
0000
0020
0000
0030
,
0000
0200
0000
0300
,
0002
0000
2000
3003
,
0001
0001
1000
0100
,
0010
0001
0010
0100
,
1000
0001
1000
0001
,
0100
0010
1000
0010
,
2000
0100
0100
3100
,
1000
0100
0010
0001
,
0010
0001
0100
0010
,
0100
0010
1000
0001
,
2002
0000
0000
3003
,
0001
0100
0001
0000
1000
0100
1000
0000
,
0000
0000
0000
0000
,
0010
0100
0010
0000
0001
1000
0001
0000
,
0000
0000
0000
0000
,
1000
0100
1000
0000
0001
0100
0001
0000
,
0000
0000
0000
0000
,
0010
0100
0010
0000
0001
1000
0001
0000
,
0000
0000
0000
0000
,
1000
0001
1000
0000
0001
0100
0001
0000
,
0001
0001
1000
1000
,
0010
0100
0010
0000
0001
1000
0001
0000
,
1000
1000
0001
0001
,
0010
0100
0010
0000
1000
0100
1000
0000
,
1000
1000
0001
0001
,
0100
0010
0100
0000
0010
0100
0010
0000
,
1000
0100
1000
0000
0001
0100
0001
0000
,
0001
1000
0001
0100
,
0001
0010
1000
0010
,
1000
0100
1000
0000
1000
0000
0100
0000
,
0010
1000
0001
0000
,
0001
1000
0100
0010
,
0100
1000
0100
0010
,
0001
0001
0001
0000
0001
0000
0001
0000
,
0001
0001
0001
0000
,
2000
0000
0000
0000
0000
3001
0100
0010
,
1000
0000
0000
0000
;

//---------------dance-single - ----------------
#NOTES:
     dance-single:
     :
     Easy:
     4:
     0.272,0.330,0.057,0.178,0.000:
0000
0000
0000
0000
,
0000
0000
0000
0000
,
0000
0000
0000
0000
,
0000
0000
0000
0000
,
0000
0000
0000
0000
,
0000
0000
0000
0000
,
0000
0000
0000
0000
,
2002
0000
0000
3003
,
0000
1000
0000
1000
,
0000
1000
2000
3200
,
2000
0000
0000
3300
0000
0000
0001
0000
,
0000
0001
0000
0001
,
0000
0001
0000
0001
,
0000
0001
0001
0100
,
0020
0000
0000
0000
,
0200
0000
0000
0330
,
1000
1000
0001
0001
,
1000
1000
0001
0001
,
1000
1000
0001
0001
,
1000
1000
1000
0000
,
0001
0001
0100
0100
,
0001
0001
0100
0100
,
0001
0001
0100
0100
,
0001
0100
0001
0000
,
0010
0010
1000
1000
,
0010
0010
1000
1000
,
0010
1000
0010
1000
,
0010
1000
0010
0000
,
1000
1000
0100
0100
,
1000
1000
0100
0100
,
1000
0100
1000
0100
,
1000
0100
1000
0000
,
0001
0001
0000
1000
,
0000
0001
0000
0100
,
0000
0010
0000
1000
,
0000
0001
0000
1000
,
0000
0100
0000
0100
,
0000
0010
0000
0010
,
0000
0001
0000
0001
,
2000
0000
0000
3000
,
0001
0001
1000
0001
,
0100
0010
1000
0010
,
1000
0100
0010
0001
,
0010
0100
1000
0001
,
1000
0100
0010
0001
,
0010
0100
1000
0001
,
0100
0001
0100
0010
,
1000
0001
0100
0010
,
0002
0000
0000
0003
,
1002
1000
1000
2000
,
3003
0000
0000
0000
,
2001
0001
0001
0002
,
3003
0000
0000
0000
,
0120
0100
0100
0200
,
0330
0000
0000
0000
,
0210
0010
0010
0020
,
0330
0000
0000
0000
,
1002
1000
1000
1000
,
1003
0001
0100
0010
,
1020
1000
1000
1000
,
1030
0001
1000
0001
,
0200
0010
0010
0310
,
0001
1000
0001
0100
,
0002
0100
0100
0100
,
0010
0010
0010
0013
,
0001
0001
1000
1000
,
0100
0100
0010
0010
,
0001
1000
0001
0100
,
0001
0010
0100
0000
,
1000
1000
0001
0001
,
0100
0100
0010
0010
,
1000
0001
1000
0000
1000
0000
0001
0000
,
1000
0100
0010
0000
,
0000
0000
0000
0000
0000
0002
0000
0000
,
0003
0000
0000
0000
;

//---------------dance-single - ----------------
#NOTES:
     dance-single:
     :
     Beginner:
     1:
     0.063,0.150,0.008,0.000,0.000: // measure 1
0000
0000
0000
0000
,  // measure 2
0000
0000
0000
0000
,  // measure 3
0000
0000
0000
0000
,  // measure 4
0000
0000
0000
0000
,  // measure 5
0000
0000
0000
0000
,  // measure 6
0000
0000
0000
0000
,  // measure 7
0000
0000
0000
0000
,  // measure 8
0000
0000
0000
0000
,  // measure 9
0010
0000
0000
0000
,  // measure 10
0000
0000
0010
0000
,  // measure 11
0000
0000
0000
0000
,  // measure 12
0000
0000
0000
0000
,  // measure 13
1000
0000
0000
0000
,  // measure 14
0000
0000
0001
0000
,  // measure 15
0000
0000
0000
0000
,  // measure 16
0100
0000
0000
0000
,  // measure 17
0010
0000
0000
0000
,  // measure 18
0000
0000
0000
0000
,  // measure 19
0010
0000
0000
0000
,  // measure 20
0000
0000
0000
0000
,  // measure 21
1000
0000
0000
0000
,  // measure 22
0000
0000
0000
0000
,  // measure 23
0001
0000
0000
0000
,  // measure 24
0000
0000
0000
0000
,  // measure 25
0100
0000
0000
0000
,  // measure 26
0000
0000
0000
0000
,  // measure 27
0010
0000
0000
0000
,  // measure 28
0000
0000
0000
0000
,  // measure 29
1000
0000
0000
0000
,  // measure 30
0000
0000
0000
0000
,  // measure 31
0001
0000
0000
0000
,  // measure 32
0000
0000
0000
0000
,  // measure 33
0100
0000
0000
0000
,  // measure 34
0100
0000
0000
0000
,  // measure 35
0100
0000
0000
0000
,  // measure 36
0100
0000
0000
0000
,  // measure 37
0010
0000
0000
0000
,  // measure 38
0010
0000
0000
0000
,  // measure 39
0010
0000
0000
0000
,  // measure 40
0010
0000
0000
0000
,  // measure 41
1000
0000
0000
0000
,  // measure 42
0001
0000
0000
0000
,  // measure 43
1000
0000
0000
0000
,  // measure 44
0001
0000
0000
0000
,  // measure 45
0100
0000
0000
0000
,  // measure 46
0010
0000
0000
0000
,  // measure 47
1000
0000
0000
0000
,  // measure 48
0001
0000
0000
0000
,  // measure 49
0000
0000
0000
0000
,  // measure 50
0100
0000
0000
0000
,  // measure 51
0000
0000
0000
0000
,  // measure 52
0010
0000
0000
0000
,  // measure 53
0000
0000
0000
0000
,  // measure 54
1000
0000
0000
0000
,  // measure 55
0000
0000
0000
0000
,  // measure 56
0001
0000
0000
0000
,  // measure 57
0000
0000
0000
0000
,  // measure 58
0100
0000
0000
0000
,  // measure 59
0010
0000
0000
0000
,  // measure 60
1000
0000
0000
0000
,  // measure 61
0001
0000
0000
0000
,  // measure 62
1000
0000
0000
0000
,  // measure 63
0001
0000
0000
0000
,  // measure 64
0100
0000
0000
0000
,  // measure 65
0010
0000
0000
0000
,  // measure 66
1000
0000
0000
0000
,  // measure 67
0001
0000
0000
0000
,  // measure 68
1000
0000
0000
0000
,  // measure 69
0100
0000
0000
0000
,  // measure 70
0001
0000
0000
0000
,  // measure 71
1000
0000
0000
0000
,  // measure 72
0010
0000
0010
0000
,  // measure 73
0010
0010
0010
0000
,  // measure 74
0000
0000
0000
0000
,  // measure 75
1001
0000
0000
0000
;
