#TITLE:Piano Concerto No. 1 "Scorpion Fire";
#SUBTITLE:;
#ARTIST:virkato;
#TITLETRANSLIT:;
#SUBTITLETRANSLIT:;
#ARTISTTRANSLIT:;
#CREDIT:;
#BANNER:bn.png;
#BACKGROUND:bg.png;
#LYRICSPATH:;
#CDTITLE:;
#MUSIC:Piano concerto no. 1 'Scorpion Fire' [DIRGE].ogg;
#OFFSET:0.256;
#SAMPLESTART:16.600;
#SAMPLELENGTH:11.000;
#SELECTABLE:YES;
#BPMS:0.000=184.800,156.000=185.030,194.000=182.150,196.000=174.100,199.000=177.000,202.000=184.000,230.000=180.000,232.000=178.000,234.000=168.000,234.500=170.440,235.000=161.200,236.000=176.200,238.000=175.880,246.000=177.000,248.000=178.000,250.000=184.000,268.000=186.000,286.000=188.000,292.000=178.000,294.000=179.000,314.000=182.000,318.000=188.000,342.000=180.000,356.000=173.000,358.000=170.000,359.000=138.600,364.000=123.000,366.000=85.000,367.000=75.000,368.000=68.300,369.000=57.700,369.500=49.000;
#STOPS:89.500=1.259
;
#BGCHANGES:;

//---------------dance-single - ----------------
#NOTES:
     dance-single:
     :
     Hard:
     11:
     0.737,1.000,0.292,0.192,0.817:
0000
0000
0000
0000
0000
0000
0000
0000
2002
3003
0000
0000
0000
0000
0000
0000
,
0000
0000
0000
0000
,
0000
0000
0000
0000
,
0000
0000
0000
0000
,
1000
0000
0000
0000
,
0001
0000
0000
0010
,
0100
0000
0000
0000
,
0000
0000
0000
0000
0000
0000
0000
0000
0000
0000
0000
1000
0000
0000
0000
0000
,
0000
0000
0000
1000
0001
0010
0100
1000
0001
0100
0000
0000
,
0000
0000
0000
1000
0100
0001
0100
0010
1000
0001
1000
0001
,
0100
0000
0000
0000
0000
0000
0000
0000
0000
0010
0000
0000
0000
0000
0000
0000
,
0000
0000
0000
1001
0000
0000
0000
0000
0000
0000
0000
0000
0000
0000
0000
0000
,
0000
0000
0002
0000
,
1003
0000
0100
0000
0001
0000
0010
0100
1000
0001
1000
0001
1000
0000
0001
0000
,
0100
0000
0010
0000
0100
0010
0100
0000
1000
0100
0001
1000
0001
0100
0001
0000
,
1000
0000
0100
1000
0100
0000
0010
0000
0001
0000
1000
0000
0001
0000
0100
0000
,
0010
0100
0010
0000
1000
0100
0010
0001
1000
0001
1000
0000
0001
0000
1000
0000
,
0100
0000
0010
0100
0010
0000
1000
0100
1000
0000
0001
0010
0100
1000
0001
0000
,
1000
0000
0001
0000
0100
0000
0010
0100
1000
0001
0010
0100
1000
0001
1000
0100
,
1000
0000
0000
0001
1000
0000
0100
0000
1000
0100
0010
0001
2000
0000
0000
0000
,
3001
0000
0000
1001
0000
0000
1001
0000
0000
0110
0000
0000
0110
0000
0000
1000
0000
0001
0000
0010
0000
0100
0000
1000
,
0000
0001
0000
2200
0000
0000
0000
0000
,
0000
0000
0000
3300
0000
0000
0001
1000
,
0100
0010
0100
0010
,
1000
0001
0010
0100
,
1000
1000
0001
0001
,
0100
0100
0010
1000
,
0010
1000
0010
0000
0001
0100
0001
0000
,
1000
0100
0001
0100
0001
1000
0001
0000
,
0010
0000
0000
0000
0000
0000
0001
0000
1000
0000
0001
0000
0100
0000
0000
0000
0000
0000
0010
0000
0000
0100
0000
0000
,
0010
1000
0001
0100
0010
0001
0010
0000
,
2000
0000
0000
0001
,
3002
0000
0000
0000
0000
0000
0100
0003
,
0200
0000
0310
1000
,
0020
0000
0000
0130
0110
0000
0010
0000
,
0200
0000
0000
0310
0000
0000
1000
0000
,
0002
0000
0100
0000
0100
0000
0100
0003
,
0200
0000
0000
0310
0000
0000
0010
1000
,
0020
0000
0230
0000
,
0301
1000
0001
0000
0000
0100
0010
0000
0000
0100
0001
0000
0000
0100
0010
0000
,
0000
0100
0001
0000
0000
0001
0010
0000
0000
0010
0100
0000
0000
1000
0100
0000
,
0000
0000
0000
0001
0000
0000
1000
0000
0000
0000
0000
0000
0000
0000
0000
0100
0000
0000
0010
0000
0000
0000
0000
0000
0000
0000
0000
1000
0000
0000
0100
0000
0000
0000
0000
0000
0000
0000
0000
0001
0000
0000
0100
0000
0000
0000
0010
0000
,
0000
1000
0000
0001
0000
0010
0000
0100
0000
1000
0000
0001
0000
1000
0000
0001
0000
0100
0000
0010
0000
0100
0000
0000
,
1000
0001
0010
0100
0000
0000
1000
0001
0100
0001
1000
0001
,
0000
0010
0100
0000
0000
1000
0010
0000
0000
0100
0010
0000
1000
0001
1000
0001
,
1000
0100
0010
0001
1000
0001
0100
0010
1000
0100
1000
0100
,
0010
0001
0010
0001
0100
0001
0010
0100
1000
0001
0100
0001
,
2000
0000
0000
0000
,
3001
0000
0000
0000
0000
0000
0000
0000
0000
0000
0000
0000
0000
0000
0000
0000
2000
0000
0000
0000
0000
0000
0000
0000
3000
0000
0000
0000
0000
0000
0000
0100
,
0001
0000
0000
0000
0000
0000
0000
0000
0000
0000
0000
0000
0000
0001
0000
0000
0000
1000
0000
0000
0000
0000
1000
0000
0100
0000
0010
0000
0000
0000
0000
0000
,
0000
0000
1000
0000
0001
0000
0100
0000
1001
0000
1000
0001
1000
0000
0100
0001
,
0100
0001
0100
0001
0100
0000
0010
0000
1000
0000
0001
0000
1000
0000
0000
1000
,
0100
0010
0001
1000
0001
0100
0001
1000
0001
0000
1000
0100
1000
0000
1000
0100
,
0010
0001
1000
0001
0100
0001
0100
0000
2000
0000
0000
0000
0000
3000
0001
1000
,
0001
0000
0000
0000
1100
0000
0000
0000
0101
0000
0000
0000
0010
0100
0010
0000
,
1000
0100
1000
0000
0001
0000
1000
0000
1001
0000
0000
1000
0001
1000
0001
0100
,
0001
0000
0010
0000
0100
0000
1000
0000
0001
1000
0001
1000
0001
1000
0100
0001
,
1000
0100
0010
0001
1000
0001
1000
0001
0100
0010
1000
0100
0010
0001
1000
0001
,
0100
0001
0010
0100
1000
0001
1000
0001
0200
0000
0000
0000
0000
0000
0000
0000
,
0300
0000
0101
0000
1100
0000
0101
0000
1001
0000
1000
0000
0101
0000
0100
0010
,
0100
0000
1000
0000
0001
0000
1000
0000
0001
0000
0101
0000
1100
0000
0000
0001
,
1000
0001
0010
0100
1000
0100
1000
0100
1000
0000
0001
0100
0001
0000
0010
0100
,
1000
0001
0100
0001
0100
0010
0100
0001
1000
0000
0000
0000
0000
0000
0001
1000
,
0001
0000
0000
0000
1000
0000
0000
0000
0101
0000
0000
0000
0000
0100
0010
0100
,
0000
0010
0100
0010
1000
0000
0001
0000
1001
0000
0000
0000
1000
0100
0010
0001
,
0100
0000
0000
0000
0010
0100
1000
0001
1000
0000
0000
0000
1000
0001
0100
0010
,
1000
0000
0000
0000
1000
0100
0010
0001
0100
0010
0000
0110
0000
1001
0000
1100
,
0000
0000
0000
1000
0100
0010
0001
0010
1000
0000
0001
0000
1000
0000
0001
1000
,
0001
0000
0010
0000
0100
0000
1000
0100
1000
0000
0100
0000
0010
0000
0001
0100
,
0001
0000
1000
0000
0001
0000
0010
0100
0010
0000
0010
0000
1000
0000
1000
0100
,
1000
0000
0100
0000
0010
0000
0010
0001
0010
0000
0001
0000
1000
0000
0001
0100
,
0001
0000
0010
0000
1000
0000
0001
0000
1100
0000
0101
0000
0001
0010
0100
1000
,
0001
0000
1010
0000
0001
1000
0001
0100
0010
0000
1001
0000
1000
0001
1000
0001
,
0100
0000
0110
0000
1000
0001
1000
0001
0100
0000
0000
0000
0010
0000
0000
0000
,
1000
0001
2000
0000
,
0000
3000
0001
1000
,
0010
1000
0020
0000
,
0000
0030
2000
0000
,
0000
0000
0200
0000
,
0000
0000
3300
0000
0000
0000
0000
0000
0101
0000
0000
0000
0010
0001
1000
0001
,
1000
0000
0000
0000
1000
0100
1000
0100
1000
0000
0000
0000
0100
0001
0100
0001
,
0100
0000
0000
0000
0010
0100
0010
0100
0010
0000
0000
0000
1000
0100
1000
0100
,
1000
0000
0000
0000
0010
0001
0010
0001
0010
0000
0000
0000
0001
1000
0010
1000
,
0001
0010
0100
1000
0001
1000
0001
0100
0001
0101
0001
0100
,
0110
0010
1000
1010
1000
0100
1100
0100
0010
0011
0001
0010
,
0110
0100
0001
1001
1000
0010
1020
0000
0000
0002
0000
0000
,
0000
0000
0000
0000
,
0000
0000
0033
0000
,
1000
0000
0000
0000
,
0001
0000
0000
1000
,
0100
0000
0000
0000
,
0000
0000
0000
0000
0000
0000
0010
0000
0000
0001
0010
0100
,
1000
0000
1000
0001
0100
0000
0000
0000
;

//---------------dance-single - ----------------
#NOTES:
     dance-single:
     :
     Medium:
     8:
     0.463,0.639,0.353,0.169,0.081:
0000
0000
1001
0000
,
0000
0000
0000
0000
,
0000
0000
0000
0000
,
0000
0000
0000
0000
,
0001
0000
0000
0000
,
1000
0000
0000
0001
,
0100
0000
0000
0000
,
0000
0000
0000
0000
0000
0000
0000
0000
0000
0000
0000
1000
0000
0000
0000
0000
,
0000
0000
0000
0000
1000
0001
1000
0001
1000
0001
0000
0000
,
0000
0000
0000
1000
0100
0001
0100
0010
1000
0001
1000
0001
,
0100
0000
0000
0000
0000
0000
0000
0000
0000
0010
0000
0000
0000
0000
0000
0000
,
0000
0000
0000
0101
0000
0000
0000
0000
0000
0000
0000
0000
0000
0000
0000
0000
,
0000
0000
1100
0000
,
0010
0000
0100
0000
0010
1000
0010
1000
,
0010
0000
0100
0000
0010
1000
0001
0001
,
1000
0000
0001
0000
0100
0001
0100
0010
,
0100
0000
0010
0000
1000
0001
1000
1000
,
0001
0000
1000
0000
0010
1000
0010
0000
,
0100
0000
0010
0000
0001
1000
0010
0000
,
1010
0000
0011
0000
0001
1000
0010
0000
,
1000
0000
0000
0100
0000
0000
0010
0000
0000
0001
0000
0000
0010
0000
0000
0100
0000
0000
1000
0000
0001
0000
1000
0000
,
0001
2000
0000
0200
0000
0000
0000
0000
,
0000
0000
0000
3300
0000
0000
0000
0000
,
1000
0100
0010
0001
,
0010
0100
1000
0010
,
1000
1000
0001
0001
,
1000
0001
0010
0100
,
1000
0100
1000
0000
0001
0100
0001
0000
,
1000
0100
1000
0000
0001
0000
0100
0000
,
0010
0200
0000
0010
,
0010
0010
0010
0310
,
2000
0000
0000
0010
,
3020
0000
0000
0100
,
0230
0000
0310
1000
,
0020
0000
0000
1030
0000
0000
1000
0000
,
0200
0000
0000
1300
0000
0000
1000
0000
,
0100
0010
0001
0010
,
0002
0000
0000
0103
0000
0000
0010
1000
,
0002
0000
0000
0000
0203
0000
0000
0300
,
0000
1001
0000
0001
0000
1000
0000
0001
,
0000
0100
0000
0010
0000
1000
0000
0010
,
0000
0100
0000
0010
0000
1000
0000
1000
,
0001
0000
0010
0000
0100
0000
0010
0100
,
0110
0010
1000
0100
,
1100
0000
0011
0000
0110
0000
0010
0100
,
0010
0110
0010
1000
,
1001
0010
1000
0010
,
0200
0000
0000
0000
,
0010
0000
0301
0000
,
1100
0000
0000
0000
,
0000
0001
0010
0100
1000
0000
0000
0000
,
0000
0000
0010
0100
0010
0100
0000
0000
,
0010
1000
0001
1000
0010
1000
0001
0000
,
1000
0100
0010
0001
0010
0000
0000
0001
,
0200
0000
0010
0000
0310
0000
0000
0010
,
0100
0010
0100
0000
0010
0000
1000
0001
,
1000
0000
0001
0100
0001
0000
0010
1000
,
0010
0000
1000
0100
0010
0000
0001
1000
,
0010
0100
0010
2000
0002
0000
0000
3003
,
0000
0001
1000
0001
1000
0000
0100
0000
,
1000
0100
0010
0001
0010
0010
0010
0000
,
0001
0100
0010
1000
0001
0001
0001
0000
,
0001
1000
0010
1000
0010
0000
0000
0000
,
2000
0000
0100
0000
3010
0000
0000
0001
,
0100
0001
0100
0010
1000
0000
0010
0100
,
0010
0000
0001
1000
1001
0000
0001
0100
,
0101
0000
0000
0000
0000
0000
1000
0000
0010
1000
0000
1000
0000
1000
0000
1000
,
0000
0000
0010
0100
0110
0000
0010
0000
,
1010
0010
0011
0100
,
1100
0010
0110
0001
,
1100
0001
0110
1001
,
1100
0000
0011
0000
1010
1010
0000
0000
,
0110
0110
0000
0000
1001
1001
0000
0000
,
1100
1100
0000
0000
0001
0000
1000
0000
,
0001
1000
0002
0000
,
0000
0003
0010
0100
,
0010
0100
0020
0000
,
0000
0030
2000
0000
,
0000
0000
0200
0000
,
0000
3300
0000
0000
1100
0000
0010
0100
,
0110
0000
0001
0100
0101
0000
1000
0100
,
1100
0000
0010
0100
0110
0000
0010
1000
,
1010
0000
0010
0100
0110
0000
0010
0100
,
0110
0110
1100
0011
,
0110
0000
1010
0000
0001
0010
0100
1000
,
0100
0010
0001
0010
2000
0000
0200
0000
,
0000
0000
0000
0000
,
0000
3300
0000
0000
,
0001
0000
0000
0000
,
1000
0000
0000
0001
,
0100
0000
0000
0000
,
0000
0000
0000
0000
0000
0000
0010
0000
0000
0001
1000
0001
,
1000
0000
0001
1000
0100
0000
0000
0000
;

//---------------dance-single - ----------------
#NOTES:
     dance-single:
     :
     Easy:
     5:
     0.340,0.532,0.338,0.192,0.000: // measure 1
0000
0000
0001
0000
,  // measure 2
0000
0000
0000
0000
,  // measure 3
0000
0000
0000
0000
,  // measure 4
0000
0000
0000
0000
,  // measure 5
1000
0000
0000
0000
,  // measure 6
0001
0000
0000
0100
,  // measure 7
0100
0000
0000
0000
,  // measure 8
0000
0000
0000
0010
,  // measure 9
0000
0000
0000
2000
0000
0000
3000
0000
,  // measure 10
0000
0002
0000
0000
,  // measure 11
1003
0000
0000
0000
0000
0001
0000
0000
,  // measure 12
0000
1001
0000
0000
,  // measure 13
0000
0000
0020
0000
,  // measure 14
0130
0010
1000
0010
,  // measure 15
0100
0000
0010
0000
1000
0000
0001
1000
,  // measure 16
0001
1000
0001
0100
,  // measure 17
0010
0000
1000
0000
0010
0000
0100
0010
,  // measure 18
0100
0010
1000
0001
,  // measure 19
1000
0001
0100
1000
,  // measure 20
0101
0100
1100
0010
,  // measure 21
0001
1000
0001
1000
0002
0000
0000
0000
,  // measure 22
0203
0000
0000
0020
0000
0000
0000
0000
,  // measure 23
0000
0000
0000
0330
0000
0000
0000
0000
,  // measure 24
1000
0000
1000
0000
,  // measure 25
0001
1000
0001
0010
,  // measure 26
0100
0000
0100
0000
,  // measure 27
0010
1000
0010
1000
,  // measure 28
0001
0000
0001
0000
,  // measure 29
1000
0001
0010
0100
,  // measure 30
1000
0000
0100
1000
0100
0000
1000
0000
,  // measure 31
0100
0010
0001
0100
,  // measure 32
0002
0000
0000
0000
,  // measure 33
2003
0000
0000
0000
,  // measure 34
3020
0000
0000
0000
,  // measure 35
0230
0000
0320
0000
,  // measure 36
2030
0000
0000
0000
,  // measure 37
3002
0000
0000
0000
,  // measure 38
2003
0000
0000
0000
,  // measure 39
3020
0000
0230
0000
,  // measure 40
0310
0010
0010
0010
,  // measure 41
0100
0010
1000
0001
,  // measure 42
1000
0001
0010
0100
,  // measure 43
1000
0000
0100
0000
0010
0000
0001
0010
,  // measure 44
0001
0010
0100
1000
,  // measure 45
0001
1000
0001
0100
,  // measure 46
0101
1000
1100
0010
,  // measure 47
0110
0001
1001
0010
,  // measure 48
2000
0000
0000
0000
,  // measure 49
3020
0000
0130
0000
,  // measure 50
0101
0000
0000
0000
,  // measure 51
0000
0000
1000
0001
1000
0000
0010
0000
,  // measure 52
0001
0010
0100
1000
,  // measure 53
0100
1000
0100
1000
0100
0000
1000
0000
,  // measure 54
0100
0010
0001
0000
,  // measure 55
0100
0010
1010
0000
,  // measure 56
0010
0100
0010
0000
,  // measure 57
1000
0000
0001
0000
,  // measure 58
1000
0000
0001
0010
,  // measure 59
0100
0000
0001
1000
0010
0000
0000
0000
,  // measure 60
0000
1000
0100
0010
0001
0000
1000
0000
,  // measure 61
0001
0000
0100
0000
0010
0100
0010
0000
,  // measure 62
1000
0000
0100
0000
1000
0100
1000
0000
,  // measure 63
0100
0010
0011
0000
,  // measure 64
0001
0100
0110
0000
,  // measure 65
0010
0100
0110
0000
,  // measure 66
1010
0000
0110
0000
,  // measure 67
1001
0000
1000
0001
,  // measure 68
1000
0000
1001
0001
,  // measure 69
0101
0001
0101
0010
,  // measure 70
0110
0010
1010
0010
,  // measure 71
0110
1001
1100
0011
,  // measure 72
0110
0000
1010
0000
0001
1000
0000
0000
,  // measure 73
0001
1000
0000
0000
0100
0010
0000
0000
,  // measure 74
0010
0100
0000
0000
2000
0000
0000
0000
,  // measure 75
0000
0000
0000
0000
,  // measure 76
0000
0000
0002
0000
,  // measure 77
0000
0000
0000
0000
,  // measure 78
3003
0000
0020
0000
,  // measure 79
0000
0000
0200
0000
,  // measure 80
0330
0000
0110
0000
,  // measure 81
1001
0000
1100
0000
,  // measure 82
0101
0000
0011
0000
,  // measure 83
1010
0000
0110
0000
,  // measure 84
1010
0110
0011
0110
,  // measure 85
1100
0110
1001
1100
,  // measure 86
0011
1010
0102
0200
,  // measure 87
0000
0000
0000
0000
,  // measure 88
0000
0303
0000
0000
,  // measure 89
0001
0000
0000
0000
,  // measure 90
1000
0000
0000
0001
,  // measure 91
1000
0000
0000
0000
,  // measure 92
0000
0000
0010
2000
,  // measure 93
3000
0000
0001
1000
0100
0000
0000
0000
;

//---------------dance-single - ----------------
#NOTES:
     dance-single:
     :
     Beginner:
     3:
     0.151,0.497,0.184,0.000,0.000: // measure 1
0000
0000
0001
0000
,  // measure 2
0000
0000
0000
0000
,  // measure 3
0000
0000
0000
0000
,  // measure 4
0000
0000
0000
0000
,  // measure 5
1000
0000
0000
0000
,  // measure 6
0000
0000
0000
0000
,  // measure 7
0000
0000
0000
0000
,  // measure 8
0000
0000
0000
0010
,  // measure 9
0000
0000
0000
0000
,  // measure 10
0000
0010
0000
0000
,  // measure 11
0100
0000
0000
0000
0000
0100
0000
0000
,  // measure 12
0000
0100
0000
0000
,  // measure 13
0000
0000
1000
0000
,  // measure 14
1000
0000
0000
0000
,  // measure 15
0001
0000
0000
0000
,  // measure 16
0100
0000
0000
0000
,  // measure 17
0010
0000
0000
0000
,  // measure 18
1000
0000
0000
0000
,  // measure 19
0001
0000
0000
0000
,  // measure 20
1000
0000
0001
0000
,  // measure 21
1001
1001
1001
0000
,  // measure 22
0000
0000
0000
0000
,  // measure 23
0000
0000
0000
0000
,  // measure 24
0010
0000
0000
0000
,  // measure 25
0000
0000
0000
0000
,  // measure 26
0100
0000
0000
0000
,  // measure 27
0100
0000
0000
0000
,  // measure 28
0010
0000
0000
0000
,  // measure 29
0000
0000
0000
0000
,  // measure 30
1000
0000
0000
0000
,  // measure 31
0000
0000
0000
0000
,  // measure 32
0001
0000
0000
0000
,  // measure 33
0001
0000
0000
0000
,  // measure 34
1000
0000
0000
0000
,  // measure 35
1000
0000
1000
0000
,  // measure 36
1000
0000
0000
0000
,  // measure 37
0100
0000
0000
0000
,  // measure 38
0010
0000
0000
0000
,  // measure 39
0100
0000
0100
0000
,  // measure 40
0110
0000
0000
0000
,  // measure 41
0010
0000
0000
0000
,  // measure 42
1000
0000
0000
0000
,  // measure 43
0001
0000
1000
0000
,  // measure 44
1001
0000
0000
0000
,  // measure 45
0010
0000
0000
0000
,  // measure 46
0100
0000
0100
0000
,  // measure 47
0100
0000
0010
0000
,  // measure 48
1000
0000
0000
0000
,  // measure 49
0001
0000
1000
0000
,  // measure 50
1001
0000
0000
0000
,  // measure 51
0000
0000
1000
0000
,  // measure 52
0000
0000
0001
0000
,  // measure 53
0100
0100
0100
0000
,  // measure 54
0000
0000
0010
0000
,  // measure 55
0100
0000
0010
0000
,  // measure 56
0000
1000
1000
0000
,  // measure 57
0001
0000
1000
0000
,  // measure 58
0000
0000
0001
0000
,  // measure 59
0100
0000
0010
0000
,  // measure 60
0000
0000
0100
0000
,  // measure 61
0000
0000
0010
0000
,  // measure 62
0000
0000
1000
0000
,  // measure 63
0000
0000
0001
0000
,  // measure 64
1000
0000
1001
0000
,  // measure 65
0000
0000
0010
0000
,  // measure 66
0000
0000
0110
0000
,  // measure 67
0110
0000
0110
0000
,  // measure 68
0000
0000
0010
0000
,  // measure 69
0010
0000
0100
0000
,  // measure 70
0100
0000
1000
0000
,  // measure 71
1000
0000
0001
0000
,  // measure 72
0001
0000
1001
0000
,  // measure 73
0110
0000
1001
0000
,  // measure 74
0110
0000
0001
0000
,  // measure 75
0000
0000
0000
0000
,  // measure 76
0000
0000
1000
0000
,  // measure 77
0000
0000
0000
0000
,  // measure 78
0000
0000
0100
0000
,  // measure 79
0000
0000
0000
0000
,  // measure 80
0000
0000
0010
0000
,  // measure 81
0010
0000
0010
0000
,  // measure 82
0010
0000
0010
0000
,  // measure 83
0010
0000
0010
0000
,  // measure 84
0110
0110
0110
0110
,  // measure 85
1001
1001
1001
1001
,  // measure 86
1001
1001
0010
0100
,  // measure 87
0000
0000
0000
0000
,  // measure 88
0000
0000
0000
0000
,  // measure 89
1000
0000
0000
0000
,  // measure 90
0001
0000
0000
0000
,  // measure 91
1000
0000
0000
0000
,  // measure 92
0000
0000
0100
0000
,  // measure 93
0000
0010
0100
0000
;
