#TITLE:Peach Dream;
#SUBTITLE:;
#ARTIST:Pink Pong;
#TITLETRANSLIT:;
#SUBTITLETRANSLIT:;
#ARTISTTRANSLIT:;
#CREDIT:;
#BANNER:bn.PNG;
#BACKGROUND:bg.PNG;
#LYRICSPATH:;
#CDTITLE:;
#MUSIC:Peach Dream.mp3;
#OFFSET:0.020;
#SAMPLESTART:26.700;
#SAMPLELENGTH:12.000;
#SELECTABLE:YES;
#BPMS:0.000=148.040;
#STOPS:;
#BGCHANGES:;

//---------------dance-single - ----------------
#NOTES:
     dance-single:
     :
     Hard:
     8:
     0.546,0.679,0.320,0.391,0.540:
0000
0000
0000
0000
,
0000
0000
0000
0000
,
0000
0000
0000
0000
1000
0000
0000
0100
,
0000
0000
0010
0000
0000
0001
0000
0000
,
1000
0000
0000
0000
0000
0000
0010
0001
0010
0000
0000
0000
0100
0000
0000
0000
,
1000
0010
0100
0001
,
1000
0100
1000
0100
0010
0000
0000
0001
,
0000
0000
0000
0000
1000
0000
1000
0100
1000
0100
1000
0100
1000
0100
1000
0100
,
0010
0001
0010
0001
0010
0001
0010
0001
0010
0000
0100
0000
0000
0000
1000
0000
,
0100
0000
0010
0100
0000
0001
0010
0000
,
0100
1000
0200
0000
0310
0100
0000
0001
,
0100
0000
1000
0100
0000
0010
0001
0000
,
0010
0100
2000
0000
3001
0100
0000
0010
,
1000
0000
0100
1000
0000
0010
0001
0000
,
0100
0010
0200
0000
0310
0100
0000
0010
,
0001
0000
0010
0100
0000
1000
0001
0000
,
2002
0000
0000
0000
0000
0000
3003
0000
0010
0000
0100
0000
0000
1000
0000
0000
,
0100
0000
0000
0010
0000
0000
0001
0000
0010
0100
0000
0000
0001
0000
0000
1000
,
0000
0000
0100
0000
0000
0001
0000
0000
0100
0010
0000
0000
1000
0000
0000
0100
,
0000
0000
1000
0000
0000
0100
0000
0000
0100
0001
0000
0000
0010
0000
0000
1000
,
0000
0000
0100
0000
0000
0010
0000
0000
0001
0100
0000
0000
0010
0000
0000
0100
,
0000
0000
1000
0000
0000
0100
0000
0000
0010
1000
0000
0000
0001
0000
0000
0100
,
0000
0000
1000
0000
0000
0100
0000
0000
0001
1000
0000
0000
0010
0000
0000
0100
,
0000
0000
1000
0000
0000
0100
0000
0000
0000
0000
1001
0000
0000
0000
1001
0000
,
0000
0000
1001
0000
0000
0000
1000
0001
0200
0000
0000
0001
0000
0000
0001
0000
,
0000
0001
0000
0000
0001
0000
0000
0001
0000
0000
0001
0000
0000
0001
0000
0000
,
0001
0000
0000
0001
0000
0300
0001
0000
0002
0000
0000
1000
0000
0000
1000
0000
,
0000
1000
0000
0000
1000
0000
0000
1000
0000
0000
1000
0000
0000
1000
0000
0000
,
1000
0000
0000
1000
0000
0003
1000
0000
2000
0000
0000
0100
0000
0000
0100
0000
,
0000
0100
0000
0000
0100
0000
0000
0100
0000
0000
0100
0000
0000
0100
0000
0000
,
0100
0000
0000
0100
0000
3000
0100
0000
1100
0000
0000
0000
0000
0000
0010
0000
,
0011
0000
0000
0001
1000
0200
0000
0010
,
0000
0000
0001
0000
0000
0000
0310
0000
1001
0000
0000
1000
0000
0000
0100
0000
,
0000
0010
0000
0000
0001
0000
0000
0100
0000
0000
1000
0000
0000
0100
0000
0000
,
0010
0000
0000
0100
0000
0000
0001
0000
0000
1000
0000
0000
0100
0000
0000
0010
,
0000
0000
0010
0100
0000
0001
0000
0000
1000
0000
0000
0100
0000
0000
0010
0000
,
0000
0001
0000
0000
0100
0000
0000
0001
1000
0000
0000
0010
0000
0000
0100
0000
,
0000
1000
0000
0000
0001
0000
0000
0100
1000
0000
0000
0100
0000
0000
0010
0000
,
0000
0100
0000
0000
0001
0000
0000
0100
0000
0000
1000
0000
0000
0100
0000
0000
,
0010
0000
0000
0001
0000
0000
0100
0000
0000
1000
0000
0000
0100
0000
0000
0010
,
0001
0000
0010
0000
0000
0000
0100
0000
1001
0000
0000
0110
0000
0000
1010
0000
,
0000
0011
0000
0000
0101
0000
0000
1100
0000
0000
0110
0000
0000
0011
0000
0000
,
1100
0000
0000
0011
0000
0000
0101
0000
0000
1010
0000
0000
0101
0000
0000
1010
,
0000
0000
0001
0100
0000
0011
0000
0000
0110
0000
0000
1100
0000
0000
1100
0000
,
0000
0110
0000
0000
1001
0000
0000
0010
0002
0000
0000
0023
0000
0000
0230
0000
,
0000
2300
0000
0000
3200
0000
0000
2300
3200
0000
0000
0320
0000
0000
0230
0000
,
0000
0320
0000
0000
0230
0000
0000
0302
2003
0000
0000
3020
0000
0000
0230
0000
,
0000
0320
0000
0000
0230
0000
0000
0320
0000
0000
2030
0000
0000
3020
0000
0000
,
2030
0000
0000
3002
0000
0003
0002
0000
2000
0000
0000
0000
0000
0000
0000
0000
,
0000
0000
0000
3003
;

//---------------dance-single - ----------------
#NOTES:
     dance-single:
     :
     Medium:
     5:
     0.305,0.354,0.154,0.273,0.000:
0000
0000
0000
0000
,
0000
0000
0000
0000
,
0000
0000
0000
0000
1000
0000
0000
0100
,
0000
0000
0010
0000
0000
0001
0000
0000
,
0100
0000
0000
1000
0100
0000
0010
0000
,
1000
0001
0010
0100
,
1000
0001
0100
0000
0010
0000
0000
0100
,
0000
1000
2002
0000
,
0000
0000
3003
0000
0010
0000
0000
0100
,
0000
0000
1000
0000
0000
0010
0000
0000
,
0011
0000
0000
0100
1000
0000
0000
0110
,
0000
0000
0011
0000
0000
0110
0000
0000
,
2200
0000
3300
0000
0010
0000
0000
0100
,
0000
0000
1000
0000
0000
0001
0000
0000
,
0011
0000
0000
0100
0010
0000
0000
1010
,
0000
0000
0101
0000
0000
1100
0000
0000
,
0022
0000
0033
0000
0210
0000
0000
1000
,
0000
0000
0010
0000
0000
0001
0000
0000
,
0310
0000
0000
0000
0020
0000
0000
1000
,
0000
0000
0100
0000
0000
0001
0000
0000
,
0130
0000
0000
0001
2000
0000
0000
0100
,
0000
0000
0010
0000
0000
0100
0000
0000
,
3001
0000
0000
0010
0002
0000
0000
0100
,
0000
0000
0010
0000
0000
0100
0000
0100
,
0000
0103
0000
1000
0002
0000
0000
0000
,
0000
0000
0000
0000
,
0000
0000
0000
0013
0200
0000
0000
0000
,
0000
0000
0000
0000
,
0000
0000
0000
1300
0020
0000
0000
0000
,
0000
0000
0000
0000
,
0000
0000
0000
0130
0200
0000
0000
0310
,
0020
0000
0000
0130
0010
1000
0000
2002
,
0000
3003
2000
0100
,
0010
0001
0010
0100
,
0010
0001
0100
0010
,
0001
0100
0010
0001
,
0100
3010
0002
0100
,
0010
1000
0010
0100
,
1000
0010
0100
0010
,
1000
0100
0010
1000
,
0010
0103
0200
1000
,
0010
0001
0001
0010
,
1000
0001
0010
0001
,
0010
1000
0010
1000
,
0001
0310
0020
1000
,
0001
0100
1000
0001
,
0100
1000
0001
1000
,
0100
0001
0100
1000
,
0100
0000
0031
2000
0002
0000
0000
0000
,
0000
0000
0000
3003
;

//---------------dance-single - ----------------
#NOTES:
     dance-single:
     :
     Easy:
     1:
     0.115,0.148,0.024,0.308,0.000:
0000
0000
0000
0000
,
0000
0000
0000
0000
,
0000
0000
0000
0000
,
0000
0000
0000
0000
,
0000
0000
2002
0000
,
0000
3003
0000
0000
,
0000
0010
2000
0000
,
0000
0000
0002
0000
,
3003
0000
0100
0000
,
0000
0000
0000
0000
,
0000
0000
0020
0000
,
0000
0000
0000
0000
,
0030
0000
2002
0000
,
0000
0000
0000
0000
,
3003
0000
2000
0000
,
0000
0000
0002
0000
,
3003
0000
0010
0000
,
0001
0000
0100
0000
,
1000
0000
0010
0000
,
0100
0000
1000
0000
,
0001
0000
0100
0000
,
0010
0000
1000
0000
,
0001
0000
0100
0000
,
0010
0000
2000
0000
,
0000
3000
0002
0000
,
0000
0000
0000
0000
,
0000
0000
2003
0000
,
0000
0000
0000
0000
,
0000
0000
3200
0000
,
0000
0000
0000
0000
,
0000
0000
0320
0000
,
2030
0000
0002
0000
,
0000
3003
2000
0000
,
0000
0000
0000
0000
,
0002
0000
0000
0000
,
0000
0000
0000
0000
,
0000
3003
0020
0000
,
0000
0000
0000
0000
,
0000
0200
0000
0000
,
0000
0000
0000
0000
,
0000
0330
2000
0000
,
0000
0000
0000
0000
,
0000
0000
0200
0000
,
0000
0000
0000
0000
,
0000
3300
0020
0000
,
0000
0000
0000
0000
,
0000
0000
0002
0003
,
0000
0000
0032
0000
,
0000
0000
2000
0000
,
0000
0000
0000
3003
;

//---------------dance-single - ----------------
#NOTES:
     dance-single:
     :
     Beginner:
     1:
     0.071,0.144,0.024,0.000,0.000: // measure 1
0000
0000
0000
0000
,  // measure 2
0000
0000
0000
0000
,  // measure 3
0000
0000
0000
0000
,  // measure 4
0000
0000
0000
0000
,  // measure 5
0000
0000
1001
0000
,  // measure 6
0000
0000
0000
0000
,  // measure 7
0000
0100
0001
0000
,  // measure 8
0000
0000
1000
0000
,  // measure 9
0000
0000
0010
0000
,  // measure 10
0000
0000
0000
0000
,  // measure 11
0000
0000
0100
0000
,  // measure 12
0000
0000
0000
0000
,  // measure 13
0000
0000
1001
0000
,  // measure 14
0000
0000
0000
0000
,  // measure 15
0000
0000
0001
0000
,  // measure 16
0000
0000
1000
0000
,  // measure 17
0000
0000
0100
0000
,  // measure 18
1000
0000
0010
0000
,  // measure 19
0001
0000
0100
0000
,  // measure 20
0010
0000
0001
0000
,  // measure 21
1000
0000
0010
0000
,  // measure 22
0100
0000
0001
0000
,  // measure 23
1000
0000
0010
0000
,  // measure 24
0100
0000
0001
0000
,  // measure 25
0000
0000
1000
0000
,  // measure 26
0000
0000
0000
0000
,  // measure 27
0000
0000
0001
0000
,  // measure 28
0000
0000
0000
0000
,  // measure 29
0000
0000
0010
0000
,  // measure 30
0000
0000
0000
0000
,  // measure 31
0000
0000
0100
0000
,  // measure 32
0001
0000
1000
0000
,  // measure 33
0000
0000
0001
0000
,  // measure 34
0000
0000
0000
0000
,  // measure 35
1000
0000
0000
0000
,  // measure 36
0000
0000
0000
0000
,  // measure 37
0000
0000
0100
0000
,  // measure 38
0000
0000
0000
0000
,  // measure 39
0000
0010
0000
0000
,  // measure 40
0000
0000
0000
0000
,  // measure 41
0000
0000
0001
0000
,  // measure 42
0000
0000
0000
0000
,  // measure 43
0000
0000
0010
0000
,  // measure 44
0000
0000
0000
0000
,  // measure 45
0000
0000
0100
0000
,  // measure 46
0000
0000
0000
0000
,  // measure 47
0000
0000
1000
0000
,  // measure 48
0000
0000
1000
0000
,  // measure 49
0000
0000
0001
0000
;
