#TITLE:Parasite World;
#SUBTITLE:;
#ARTIST:Terra Underground;
#TITLETRANSLIT:;
#SUBTITLETRANSLIT:;
#ARTISTTRANSLIT:;
#CREDIT:;
#BANNER:bn.PNG;
#BACKGROUND:bg.PNG;
#LYRICSPATH:;
#CDTITLE:13 dd.png;
#MUSIC:09. Parasite World.mp3;
#OFFSET:0.000;
#SAMPLESTART:17.120;
#SAMPLELENGTH:12.000;
#SELECTABLE:YES;
#BPMS:0.000=134.980;
#STOPS:33.000=1.334
,114.000=1.334
,193.000=0.445
;
#BGCHANGES:;

//---------------dance-single - ----------------
#NOTES:
     dance-single:
     :
     Hard:
     7:
     0.416,0.479,0.122,0.165,0.135:
0000
0000
0000
0000
,
0000
0000
0000
0000
,
0000
0000
0000
0000
,
0000
0000
0000
0000
,
0000
0000
0000
0000
,
0000
0000
0000
0000
0001
0000
1000
0000
0001
0000
0001
0100
0000
0001
0100
0000
,
0001
0000
0010
0000
1000
0000
0100
0000
1000
0000
1000
0100
0000
1000
0100
0000
,
1000
0000
0100
0000
0010
0000
0001
0000
0010
0000
0001
0100
0000
0010
1000
0000
,
0010
1000
0000
0000
0101
0000
0010
1000
,
0001
0000
1000
0100
0001
0010
0100
1000
,
0100
0000
1001
0000
0001
0100
0001
0000
,
1000
0100
1000
0000
0001
1000
0010
1000
,
0001
0000
1000
0000
1000
0100
1000
0000
,
0100
0010
0100
0000
0001
0100
0001
1000
,
0010
0001
0011
0200
,
1300
0000
0000
0000
1000
0000
0100
0000
0010
0000
0000
0002
0000
0000
0200
0000
,
0000
0000
0000
0000
0303
0000
0000
0000
0001
0000
1000
0000
0010
0000
0010
0100
,
0000
0010
0100
0000
0010
0000
1000
0000
0100
0000
0010
0000
0001
0000
0001
0100
,
0000
0010
1000
0000
0001
0000
0100
0000
1000
0000
0100
0000
0010
0000
0001
0010
,
0000
0001
0010
0000
0001
0000
0010
0000
0200
0000
0000
0000
0000
0000
0000
0000
,
0000
1000
0000
1000
0000
1300
0000
0000
1000
0000
1000
0000
0100
0000
0010
0000
,
0010
0001
0010
0010
0100
0100
1000
0100
,
0010
0000
1001
0000
0001
0001
0100
0010
,
1000
1000
0010
0100
0001
0001
0100
0010
,
1000
0000
0000
0000
0010
0000
0000
0000
1000
0000
0000
1000
0100
0000
0000
0000
,
0010
0000
0000
0010
0100
0000
0000
0000
0001
0000
1000
0000
0001
0000
0100
0000
,
0010
0100
2100
0100
,
0010
0000
0000
0000
3001
0000
1000
0000
0001
0000
0000
0100
0000
0000
0010
0000
,
0000
0000
0000
0000
0000
0000
0000
0000
0000
0000
0000
0000
0000
0000
0000
0000
0000
0000
0000
0000
0000
0000
0000
0000
0000
0000
0000
0000
0000
0000
0000
0000
2002
3003
0000
0000
0000
0000
0000
0000
0000
0000
0000
0000
0000
0000
0000
0000
0101
0000
0000
0000
0000
0000
0000
0000
0000
0000
0000
0000
0000
0000
0000
0000
,
0020
0130
1000
0200
,
1300
0100
0000
1000
0100
0010
0001
0000
,
0100
0000
0010
0100
0000
0010
0000
0100
,
0010
1000
0000
0001
1000
0001
0200
0000
,
0310
2000
3100
1000
,
1000
0100
0000
0010
0000
0002
0000
0000
,
0103
0000
0010
0100
0010
0000
1000
0000
,
0001
0000
0100
0000
0000
0000
0010
0000
1000
0000
0010
0000
1000
0000
0000
0100
,
0000
0000
0010
0000
0000
0000
0001
0000
0100
0000
0001
0000
1000
0000
0000
0001
,
0000
1000
0000
1000
0100
0010
0011
0000
,
1100
0000
0000
0000
0010
0000
0000
0100
0000
0000
0010
0000
0000
0000
1000
0000
,
0100
0000
0010
0000
0001
0000
0000
0010
0000
0000
0001
0000
0000
0000
0100
0000
,
0001
0000
0100
0000
0010
0000
0000
0000
0010
0000
0000
0000
0010
0000
0000
1000
,
0000
0000
0001
0000
0000
0000
1000
0000
0100
0000
0010
0000
0001
0000
0000
0100
,
0000
1000
0000
0001
0100
0010
0011
0000
,
0110
0000
0000
0000
0010
0000
0000
0100
0000
0000
1000
0000
0000
0000
0001
0000
,
1000
0000
0001
0000
0100
0000
0000
0010
0000
0000
0100
0000
0000
0000
1000
0000
,
0100
0010
0001
0000
0010
0000
0000
1100
,
0000
0100
0000
0000
0010
0000
0000
1000
0000
0000
0001
0000
0000
0000
0100
0000
,
0000
1000
0000
0100
0000
0000
0000
0000
0110
0000
0000
0000
0020
0000
0000
0000
,
0130
0000
1000
0100
0001
0000
1000
0100
,
0000
1000
0100
0010
0001
0000
0100
0001
,
1000
0010
0100
0010
1000
0000
0001
0100
,
0000
0000
0010
0000
0110
0000
0010
1000
,
0001
0000
0100
0000
1000
0000
1000
0200
,
0000
1000
2000
3300
,
0010
1000
0001
0000
0010
0100
0001
1000
,
0000
0010
0100
1000
0100
0000
2000
0000
,
3002
0203
0020
0000
,
0330
0000
0000
0000
;

//---------------dance-single - ----------------
#NOTES:
     dance-single:
     :
     Medium:
     5:
     0.319,0.410,0.113,0.235,0.030:
0000
0000
0000
0000
,
0000
0000
0000
0000
,
0000
0000
0000
0000
,
0000
0000
0000
0000
,
0000
0000
0000
0000
,
0000
0000
0001
1000
0001
0000
0200
0000
,
0310
0000
0010
0100
0010
0000
2000
0000
,
3001
0000
0001
0100
0001
0000
0020
0000
,
1030
0000
0000
0001
0100
0000
0010
0100
,
0010
0000
1000
0000
0100
0000
0010
0001
,
0010
0000
0001
1000
,
0001
0000
0100
0000
0010
1000
0010
0000
,
0100
1000
1100
0110
,
0001
0100
0001
0000
1000
0000
1001
0000
,
0001
1000
0001
0000
0100
0000
0010
0000
,
0100
0000
1000
0100
1000
0000
0100
0000
,
0010
0001
0200
0000
,
0000
0010
0020
0000
,
0300
0100
0200
0000
,
0000
0000
0330
0000
,
0000
0001
0000
1000
0000
1001
0000
0000
1000
0000
0100
0000
0000
0000
0010
0000
,
0001
0010
0000
0100
0001
0100
0000
0010
,
0000
0000
0000
0000
1000
0100
0000
0010
,
0001
0010
0000
0010
0100
0010
0000
1000
,
0100
0000
0011
0101
,
0100
0001
0100
0000
0001
0000
1000
0000
,
0001
1000
0001
0000
1002
0000
2003
0000
,
3002
0000
0103
0010
2000
0000
0100
0000
,
3100
0010
0011
1001
,
0001
0100
0020
0130
,
0000
2000
0000
0000
0100
0000
3100
0000
,
0000
0010
0100
0010
0000
0100
0000
0000
,
0000
0020
0000
0000
1000
0000
1030
0000
,
0000
1000
0100
0010
,
0001
0100
0000
0020
0000
0130
0000
0000
,
0000
1000
0100
1000
0000
0100
0000
0000
,
0010
0001
0000
0000
0100
0000
0020
0000
,
0000
0000
0000
0130
0010
1000
0002
0000
,
0000
0000
0000
1003
0001
1000
0001
0000
,
0001
0000
0200
0000
0000
0000
0000
0310
,
1000
0001
2000
0000
0000
0000
0000
3100
,
1000
0100
2000
0000
0100
0000
3020
0000
,
0130
0000
0001
1000
0001
0000
0100
0000
,
0101
0000
0010
0100
0001
0000
1100
0000
,
1100
0000
2000
0000
3001
0000
0100
0010
,
1000
0001
0101
1000
,
0100
1000
0100
0000
0010
0000
0000
0001
,
0000
1000
0000
0000
0001
0000
0000
1000
0000
0000
0001
0000
0000
0000
1000
0000
,
0000
0001
0000
1000
0000
0000
0000
0000
1000
0000
0000
0000
0100
0000
0000
0000
,
0010
0000
0001
0100
0010
0000
0000
0020
,
0000
0000
0100
0000
0130
0000
0000
0010
,
0100
0010
0000
0200
0000
0000
0000
0310
,
0000
0010
0010
1000
,
0001
1000
0001
0000
0100
0000
0010
1000
,
0000
0000
0200
0000
1300
0000
0000
0010
,
0100
0010
0000
0010
0000
0000
1000
0100
,
0000
0010
0001
0000
0002
0000
0000
0000
,
2003
0000
0200
0000
,
0000
0000
0000
0000
,
3300
0000
0000
0000
;

//---------------dance-single - ----------------
#NOTES:
     dance-single:
     :
     Easy:
     3:
     0.233,0.329,0.139,0.200,0.000:
0000
0000
0000
0000
,
0000
0000
0000
0000
,
0000
0000
0000
0000
,
0000
0000
0000
0000
,
0000
0000
0000
0000
,
0000
0002
0000
0000
,
0000
2003
0000
0000
,
0000
3002
0000
0000
,
0000
0003
0010
0000
,
0010
0000
0100
0010
,
1000
0000
0001
0000
,
1000
0000
0001
1000
,
0100
0000
0010
0010
,
0100
0100
0001
1000
,
0001
0100
0002
0203
,
0320
0130
0020
0000
,
0030
0000
2000
0000
,
0000
3000
0002
0000
,
0000
0003
0200
0000
,
0000
0300
0010
0000
,
0000
0000
1000
0000
,
1001
0000
0101
0000
,
0110
0010
0110
0000
,
1100
0000
0011
0001
,
0101
1010
0020
0130
,
2000
3100
0010
0001
,
0100
0000
1100
0101
,
1100
0001
0200
0000
,
0300
0000
1001
0001
,
1000
0100
0010
0001
,
0010
0100
1000
0001
,
1000
0001
0100
0010
,
1000
0200
2300
3010
,
0000
0010
0100
1000
,
0001
1000
0100
0010
,
0001
0010
0100
1000
,
0100
0010
0001
2000
,
0000
0000
0001
3002
,
0000
0000
0100
0203
,
0010
0000
0020
0000
0000
0300
0000
0000
,
0100
0000
0200
0000
0000
0030
0000
0000
,
0010
0010
0010
0301
,
1000
0001
0100
0010
,
1000
0100
0010
0011
,
1100
1001
0001
0100
,
0010
1000
0100
0010
,
0001
0100
1000
0002
,
0000
0000
0000
0000
,
0000
0003
0000
0000
1000
0000
0100
0000
,
0010
0001
0100
0000
,
0010
0100
0110
0000
,
0010
1000
0001
0100
,
0001
0010
0010
0000
,
1000
0001
0100
0010
,
0100
0100
0010
0010
,
1000
0001
0100
0010
,
1000
0100
0020
0000
,
0000
0000
0200
0000
,
0000
0330
0000
0000
;

//---------------dance-single - ----------------
#NOTES:
     dance-single:
     :
     Beginner:
     1:
     0.066,0.126,0.009,0.000,0.000: // measure 1
0000
0000
0000
0000
,  // measure 2
0000
0000
0000
0000
,  // measure 3
0000
0000
0000
0000
,  // measure 4
0000
0000
0000
0000
,  // measure 5
0000
0000
0000
0000
,  // measure 6
0000
1000
0000
0000
,  // measure 7
0000
0000
0000
0000
,  // measure 8
0000
0001
0000
0000
,  // measure 9
0000
0000
0010
0000
,  // measure 10
0000
0000
0000
0000
,  // measure 11
0000
0000
0100
0000
,  // measure 12
0000
0000
0000
0000
,  // measure 13
0000
0000
1000
0000
,  // measure 14
0000
0000
1000
0000
,  // measure 15
0000
0000
0001
0000
,  // measure 16
0000
0000
0001
0000
,  // measure 17
0000
0000
0010
0000
,  // measure 18
0000
0000
0010
0000
,  // measure 19
0000
0000
0010
0000
,  // measure 20
0000
0000
0000
0000
,  // measure 21
0000
0000
0100
0000
,  // measure 22
0100
0000
0100
0000
,  // measure 23
0100
0000
0010
0000
,  // measure 24
0010
0000
0010
0000
,  // measure 25
0010
0000
1000
0000
,  // measure 26
0000
0000
0001
0000
,  // measure 27
0000
0000
0100
0000
,  // measure 28
0000
0000
0010
0000
,  // measure 29
0000
0000
1001
0001
,  // measure 30
0000
0000
0000
1000
,  // measure 31
0000
0000
0000
0100
,  // measure 32
0000
0000
0000
0010
,  // measure 33
0000
0000
0000
0001
,  // measure 34
0000
0000
0000
1000
,  // measure 35
0000
0000
0000
0100
,  // measure 36
0000
0000
0000
0010
,  // measure 37
0000
0000
0000
1000
,  // measure 38
0000
0000
0000
0000
,  // measure 39
0000
0000
0000
0000
,  // measure 40
0000
0001
0000
0000
,  // measure 41
0000
0000
0000
0000
,  // measure 42
0000
0000
0000
0100
,  // measure 43
0000
0000
0000
0010
,  // measure 44
0000
0000
0000
0100
,  // measure 45
0100
0100
0000
0000
,  // measure 46
0000
0010
0000
0000
,  // measure 47
0000
1000
1000
1000
,  // measure 48
0000
0000
0000
0000
,  // measure 49
0000
0000
0000
0010
,  // measure 50
0000
0000
0000
0000
,  // measure 51
0100
0000
0000
0000
,  // measure 52
0010
0000
0000
0000
,  // measure 53
1000
0000
0000
0000
,  // measure 54
0001
0000
0000
0000
,  // measure 55
0100
0000
0000
0000
,  // measure 56
0010
0000
0000
0000
,  // measure 57
0000
0000
0000
0000
,  // measure 58
0000
0000
1000
0000
,  // measure 59
0001
0000
0000
0000
;
