#TITLE:PARANOiA JAZZY GROOVE+TRIP MACHINE CLIMAX+DEAD END;
#SUBTITLE:;
#ARTIST:Naoki VS. DE-SIRE VS. N&S;
#TITLETRANSLIT:;
#SUBTITLETRANSLIT:;
#ARTISTTRANSLIT:;
#CREDIT:;
#BANNER:bn.PNG;
#BACKGROUND:bg.PNG;
#LYRICSPATH:;
#CDTITLE:Goliath logo.png;
#MUSIC:27.PARANOiA jazzy groove + TRIP MACHINE CLIMAX + DEAD END.mp3;
#OFFSET:-2.921;
#SAMPLESTART:38.320;
#SAMPLELENGTH:12.480;
#SELECTABLE:YES;
#DISPLAYBPM:190.000:200.000;
#BPMS:0.000=190.000,165.000=341.499,171.000=190.000,205.000=250.000,206.000=190.000,276.000=150.000,276.500=75.000,277.000=200.000,317.000=181.999,322.000=200.000;
#STOPS:277.000=0.270
;
#BGCHANGES:;

//---------------dance-single - ----------------
#NOTES:
     dance-single:
     :
     Hard:
     9:
     0.662,0.759,0.574,0.000,0.034:
0000
0010
0000
0001
0000
0000
0000
0000
,
0000
1000
0100
0000
0000
0000
0000
0000
,
0010
0100
0000
1100
0000
0000
0000
0000
,
0000
0010
0000
0010
1000
0001
0100
0000
,
0010
1000
0000
1010
0000
0000
0000
0000
,
0000
1000
0100
0000
0010
0001
0010
0000
,
0001
0100
0000
0010
0000
0000
0000
0000
,
0000
1000
0100
1000
,
0000
1010
0000
0101
0000
0000
0000
0000
,
0000
1100
0000
0011
0000
0000
0000
0000
,
0000
0110
0000
1010
0000
0000
0000
0000
,
0000
0011
0000
1100
0000
1000
0100
1000
,
0100
1000
0000
1000
0000
0000
0000
0000
,
0000
0011
0000
0011
0000
0000
0000
0000
,
0000
1001
0000
1001
0000
0000
0000
0000
,
1000
0001
0010
0100
0010
0100
0001
1000
,
0010
1010
0101
1100
,
0011
0000
0110
0000
1010
0000
0010
0100
,
0110
1010
0101
1100
,
0011
0110
1010
0110
,
0010
0100
0000
1100
0000
0011
0000
0110
,
0000
1010
0000
0101
0000
1010
0000
0010
,
0100
0000
0000
1100
0000
1100
0000
1100
,
0000
1100
0000
0011
0000
0110
0000
0010
,
0001
0000
0000
0010
0000
0100
0000
1000
,
0000
0100
0000
0010
0000
0100
0000
0000
,
0010
1000
0000
0001
0000
0100
0000
1000
,
0000
0100
0000
0010
0000
0001
0000
0000
,
0100
1000
0000
0100
0000
0000
0000
0000
,
0000
1010
0000
0101
0000
1100
0000
0000
,
0010
1000
0000
0001
1000
0100
0000
0000
,
0010
1000
0001
0100
0010
0000
0000
0000
,
1010
0000
0000
0110
0000
0000
0100
1000
,
0001
1000
0010
0001
1000
0001
0010
0100
,
0010
0100
0010
0001
0100
1000
0010
0001
,
0100
1000
0001
1000
0100
1000
0010
1000
,
0000
1000
0000
0001
0000
0100
1000
0001
,
1000
0001
0010
0100
1000
0001
0010
0001
,
0100
0010
0001
1000
0100
0001
0010
1000
,
0001
0010
0100
0001
1000
0100
0010
0100
,
0010
0100
1000
0001
0010
0100
0001
0010
,
0100
0010
0100
0010
0000
0010
0000
0100
,
0001
0000
0100
0001
0000
1000
0001
0010
,
0100
0010
0000
0010
0100
0000
1000
0100
,
0001
0010
1000
0001
0100
1000
0010
0000
,
0010
1000
0001
1000
0100
0010
1001
0000
,
1001
0000
1001
0000
0000
0000
0100
1000
,
0001
0010
0100
1000
0010
1000
0000
0100
,
0000
0000
0000
0001
0000
0100
1000
0010
,
0001
0000
0000
0100
0000
0000
0000
0000
0000
0010
0000
0000
0001
0000
0000
0000
0000
0000
0001
0000
0000
0000
1000
0000
,
0000
0001
0000
0100
0000
0010
0000
1010
0000
0101
0000
1100
,
0000
0000
0011
0000
0000
0000
0110
0000
0000
0000
0000
0000
1000
0000
0000
0100
0000
0000
0010
0000
0000
0000
0000
0000
,
0000
0010
1000
0010
0001
0100
0010
0100
,
1000
0010
0100
1000
0001
0010
0001
0100
,
0001
1000
0010
0000
0101
0000
1001
0000
,
0110
0000
0100
0000
0001
0010
0001
0010
,
0100
1000
0100
0000
0010
0100
1000
0000
,
0010
0001
0100
0010
0000
0010
0100
1000
,
0010
0100
0010
0001
0100
0000
1100
0000
,
1010
0000
1001
0000
1000
0100
0010
0001
,
1000
0100
0010
0001
0100
0001
1000
0100
,
0010
0000
0001
0010
0100
0001
0010
1000
,
0100
0001
0010
1000
0100
0001
1000
0100
,
0001
0000
1001
0000
0001
0010
0100
1000
,
0100
0010
0100
0001
1000
0100
0001
1000
,
0010
0001
0100
0000
0010
0100
1000
0010
,
0001
1000
0001
0010
0100
1000
0001
0010
,
1000
0100
0010
0000
1000
0001
1000
0000
,
0001
0010
1000
0100
1000
0001
0100
0000
,
1001
0000
0000
0000
0010
1000
0000
1000
,
0100
0010
0000
0001
0100
0010
0000
0010
,
1000
0010
0000
0001
0100
0010
0000
0010
,
1000
0010
0000
0100
1000
0000
0100
0000
,
1000
0100
0000
0010
0001
0010
0000
0001
,
0100
0001
0000
0010
1000
0010
0000
0010
,
0100
0010
0000
1000
0001
0100
0000
0010
,
1000
0010
0000
0010
0100
0010
0000
0000
,
1000
0100
0000
0010
0001
0000
0010
0001
,
0000
0010
0001
0000
0010
0001
0000
0010
,
0001
0100
0010
0000
0000
0000
0000
0000
,
0000
0000
0000
0000
1000
0100
0010
0100
,
0001
0000
0000
0000
0010
0100
0010
1000
,
0010
0000
0000
0000
0001
1000
0010
0100
,
0001
0000
0000
0000
0001
1000
0010
0100
,
0010
0000
0000
0000
0010
1000
0010
0001
,
1000
0100
0010
1000
0001
0100
0010
0100
,
1000
0001
0010
0100
0001
1000
0001
0010
,
0100
0001
1000
0100
0010
1000
0001
0100
,
0001
0000
0010
0000
1000
0000
0000
0000
0110
0000
0000
1001
0000
0000
1100
0000
,
0000
0000
0010
0000
1000
0000
0001
0000
0110
0000
0000
1001
0000
0000
0110
0000
,
1001
0000
0000
0000
;

//---------------dance-single - ----------------
#NOTES:
     dance-single:
     :
     Medium:
     7:
     0.564,0.683,0.591,0.236,0.034:
0000
1000
0000
0100
0000
0000
0000
0000
,
0000
0010
0100
0000
0000
0000
0000
0000
,
0010
0100
0000
1000
0000
0000
0000
0000
,
0000
0000
0000
0000
,
0000
0101
0000
1010
0000
0000
0000
0000
,
0000
0010
0100
0000
1000
0100
1000
0000
,
0010
0100
0000
0001
0000
0000
0000
0000
,
0000
0000
0000
0000
,
0000
0011
0000
2200
0000
3300
0000
0000
,
0000
0110
0000
2020
0000
3030
0000
0000
,
0000
0101
0000
2200
0000
0000
0000
3300
,
0000
0110
0000
2020
0000
0000
0000
3030
,
0000
0101
0000
2200
0000
0000
0000
3300
,
0000
0110
0000
2020
0000
0000
0000
3030
,
0000
0011
0000
0202
0000
0000
0303
0000
,
1000
0100
0010
0001
,
1000
0100
1000
0000
0010
1000
0010
0000
,
0001
0100
0001
0000
0010
0001
0010
0000
,
0010
1000
0001
0000
0100
1000
0010
0000
,
0100
0001
0010
0000
0001
1000
0100
0000
,
1000
0100
0000
1100
0000
0110
0000
0011
,
0000
0110
0000
1100
0000
0010
0000
0100
,
1000
0000
0000
1100
0000
1100
0000
1100
,
0000
0011
0000
0010
0000
0110
0000
0001
,
1000
0100
0000
1000
0000
0100
0000
0010
,
0000
0001
0000
0100
0000
1000
0000
0000
,
0100
1000
0000
0100
0000
0010
0000
1000
,
0000
0001
0000
0100
0000
1000
0000
0100
,
0010
0100
0000
0001
0000
1000
0000
0100
,
0000
1000
0000
1000
0000
1000
0000
0000
,
1000
0100
0000
0010
0001
0010
0000
0000
,
0001
0100
0010
1000
0020
0000
0000
0000
,
0130
0000
0000
0110
0000
0010
0001
0100
,
1000
0001
0100
0000
0001
0000
0010
0100
,
0010
1001
1001
1001
,
0010
0000
0100
1000
0100
0000
0000
0010
,
0000
0100
0000
1000
0000
0010
0000
0100
,
1000
0000
0100
1000
0100
0000
0010
0100
,
0001
0011
0011
0002
,
0100
0000
1000
1000
0000
0000
0100
0000
,
1003
0000
0100
1000
0020
0000
0000
0000
,
0000
2000
0000
0000
,
0000
0000
3030
0101
,
0000
1100
0000
0010
0100
0000
1000
0100
,
0000
0010
0001
0010
0100
0000
0010
0000
,
0010
1000
0000
0001
0100
0000
1001
0000
,
1001
1001
0000
0001
,
0000
0100
0000
0000
0010
0100
0000
0010
,
0000
0000
0000
0100
0000
0010
0100
0000
,
1000
0000
0000
0100
0000
0000
0000
0000
0000
0010
0000
0000
0001
0000
0000
0000
0000
0000
1000
0000
0000
0000
0100
0000
,
0000
0010
0000
0001
0000
0100
0000
0010
0000
1000
0000
0001
,
0000
0100
0000
1000
0000
0000
0100
0000
0000
1000
0000
0000
,
0000
1100
0000
0011
0000
0110
0000
1001
,
0000
1010
0000
0101
0000
1100
0000
0011
,
0000
0001
0010
1000
0100
0001
1000
0000
,
0100
0000
1100
0000
0000
0000
0010
0100
,
0010
0100
0000
0000
0010
0100
0010
0000
,
1000
0100
1000
0100
0000
0000
0010
0000
,
0100
1000
1001
1001
,
1001
0000
0001
0000
1000
0100
1000
0000
,
0010
0100
0010
0000
0001
1000
0001
1000
,
0001
0000
0010
0000
0100
1000
0100
0000
,
0010
0001
0010
0000
0010
0100
0010
0100
,
0010
0000
2000
0000
3001
0100
0001
0000
,
0010
1000
0010
0000
1000
0100
0010
0001
,
0010
0000
0100
0000
1000
0100
1000
0000
,
0010
0100
0010
0000
0001
0100
0001
0000
,
1000
0100
0020
0000
0130
0001
2000
0000
,
3010
1000
0010
1000
0010
1000
0010
0000
,
2000
0000
3000
0000
0010
0100
0000
0100
,
1000
0100
0000
0010
0001
0010
0000
0100
,
0010
0100
0000
1000
0100
1000
0000
0010
,
0001
0010
0000
0100
1000
0000
0100
0000
,
1000
0000
0000
0000
0010
0100
0000
0100
,
1000
0100
0000
0010
0001
0010
0000
0010
,
0100
0010
0000
1000
0001
1000
0000
1000
,
0100
1000
0000
0000
0100
0000
1000
0000
,
0100
1000
0000
0000
0011
0000
0000
0110
,
0000
0000
0011
0000
0000
0110
0000
1000
,
0100
0010
0002
0000
0000
0000
0000
0000
,
0000
0000
0000
0003
2000
0000
0000
0000
,
0200
0000
0000
0000
0000
3000
0000
0000
,
0020
0000
0000
0300
0000
0000
0000
0000
,
0032
0000
0000
0000
,
2003
0000
0000
3000
0101
0000
1100
0000
,
0011
0110
1010
0101
,
1100
0011
0110
1010
,
1010
0101
1100
0011
,
0110
0000
0000
0000
1010
0000
0000
0000
0100
0000
0000
1000
0000
0000
0100
0000
,
0000
0000
0010
0000
1000
0000
0001
0000
0010
0000
0000
1000
0000
0000
0100
0000
,
1001
0000
0000
0000
;

//---------------dance-single - ----------------
#NOTES:
     dance-single:
     :
     Easy:
     5:
     0.390,0.532,0.287,0.228,0.000:
0000
1000
0000
2000
0000
0000
3000
0000
,
0000
0000
0000
0000
,
0000
0010
0000
0002
0000
0000
0000
0003
,
0000
0000
0000
0000
,
0000
0100
0000
0020
0000
0000
0030
0000
,
0000
0000
0000
0000
,
0000
0200
0000
2000
0000
0000
0000
0000
,
3300
0000
0000
0000
,
0000
0010
0000
0220
0000
0000
0330
0000
,
0000
1000
0000
1000
0000
0000
0000
0000
,
0000
0001
0000
0100
0000
0000
0000
0000
,
0000
0010
0000
0100
0000
0000
0000
0000
,
0000
1000
0000
0100
0000
0000
0000
0000
,
0000
0010
0000
0001
0000
0000
0000
0000
,
0000
0100
0000
1000
0000
0000
0000
0000
,
0100
1000
0010
0100
,
0101
0010
1000
0100
,
0010
1000
0001
0100
,
0010
1000
0100
0010
,
1001
0000
0000
1001
0000
0000
0000
0000
,
0010
0001
0000
1000
0000
0100
0000
0010
,
0000
0001
0000
0100
0000
1000
0000
0100
,
1000
0000
0000
0010
0000
0100
0000
1000
,
0000
0010
0000
0100
0000
0001
0000
0100
,
1000
0100
0000
0010
0000
1000
0000
0001
,
0000
0100
0000
1000
0000
0100
0000
0000
,
0000
0000
0000
0100
0000
1000
0000
0010
,
0000
0100
0000
0001
0000
0100
0000
0000
,
0000
0000
0000
1000
0000
0000
0000
0000
,
0000
0100
0000
0100
0000
0100
0000
0000
,
0010
0100
0000
0001
1000
0001
0000
0000
,
1000
0100
0010
0001
0020
0000
0000
0000
,
0100
0000
0000
0100
0030
0000
0100
0000
,
1000
0010
0100
0001
,
1000
1001
1001
1001
,
0010
0000
0100
0000
1000
0000
0000
1000
,
0000
0100
0000
0010
0000
0001
0000
0010
,
0200
0000
0000
0000
,
0000
0010
0010
0020
,
0000
0000
0000
0000
,
0000
0000
0000
0300
0000
0000
0000
0000
,
0000
2000
0000
0000
,
0000
0000
3030
0001
,
0000
0101
0000
0000
0010
0000
0000
0100
,
0000
0000
1000
0100
1000
0000
0010
0000
,
0000
0100
0000
0000
0010
0000
1001
0000
,
1001
1001
0001
2000
,
0000
0100
0000
0000
0000
0000
0100
0000
,
0000
0000
0100
0000
0000
0100
0000
0000
,
3200
0000
0310
0002
,
0000
0000
2003
0000
0000
3200
0000
0000
,
0000
0320
0000
0000
0031
0000
0000
0000
,
0000
0100
1000
0100
,
0010
0100
0001
1000
,
0100
0010
1001
1001
,
1001
1001
0010
0100
,
1000
0100
0010
0001
,
0100
0100
1000
0010
,
0101
0100
1010
0101
,
1100
0101
1000
0100
,
0010
0001
0100
1000
,
0020
0130
1000
0001
,
0100
1000
0010
0100
,
2000
0000
3001
0100
0001
0000
0100
0000
,
1000
0010
0100
0001
,
1000
0000
0100
0000
1000
0100
1000
0000
,
0010
0100
0010
0000
0001
0100
0001
0000
,
1001
0000
1001
0000
,
0010
0010
0010
0010
,
0220
0330
1000
0000
,
1000
0000
1000
0000
,
0001
0000
0101
0000
,
0110
0000
1100
0110
,
0011
0000
0001
0000
,
0100
0000
0010
0000
,
1000
0000
0100
0000
,
0010
0000
0001
0100
,
1000
0000
0000
0100
0000
0000
0010
0000
,
0000
0001
0000
0000
0000
0100
0000
0000
,
0010
0100
0000
0000
,
0000
0000
1000
0100
,
0020
0000
0031
0100
,
0020
0000
1030
0100
,
0002
0000
0000
0003
0010
0000
0100
0000
,
2000
3000
0100
1000
,
1010
0001
0100
1000
,
1001
0010
0100
1000
,
1001
0010
1001
0010
,
1001
0010
1002
0000
,
0003
1000
0100
0010
0002
0000
0000
0000
,
1003
0000
0000
0000
;

//---------------dance-single - ----------------
#NOTES:
     dance-single:
     :
     Beginner:
     2:
     0.151,0.266,0.076,0.000,0.000: // measure 1
0001
0000
0000
0000
,  // measure 2
0000
0000
0000
0000
,  // measure 3
1000
0000
0000
0000
,  // measure 4
0000
0000
0000
0000
,  // measure 5
0010
0000
0000
0000
,  // measure 6
0000
0000
0000
0000
,  // measure 7
0100
0000
0000
0000
,  // measure 8
0000
0000
0000
0000
,  // measure 9
1000
1000
0000
0000
,  // measure 10
0000
0001
0001
0000
,  // measure 11
0000
0100
0100
0000
,  // measure 12
0000
0010
0010
0000
,  // measure 13
0000
1000
1000
0000
,  // measure 14
0000
0001
0001
0000
,  // measure 15
0000
1000
1000
0000
,  // measure 16
0001
0000
0000
0000
,  // measure 17
1001
0000
0000
0000
,  // measure 18
0000
0000
0000
0000
,  // measure 19
0010
0000
0100
0000
,  // measure 20
0010
0000
0000
0000
,  // measure 21
1001
0000
0000
0000
,  // measure 22
0000
0000
0000
0000
,  // measure 23
0100
0000
0000
0000
,  // measure 24
0000
0000
0000
0000
,  // measure 25
0010
0000
0000
0000
,  // measure 26
0000
0000
0000
0000
,  // measure 27
0100
0000
0000
0000
,  // measure 28
0000
0000
0000
0000
,  // measure 29
1000
0000
0000
0000
,  // measure 30
0000
0000
0000
0000
,  // measure 31
0001
0000
1000
0000
,  // measure 32
0001
0000
1000
0000
,  // measure 33
0000
0000
0000
0010
,  // measure 34
0000
0000
0000
0000
,  // measure 35
0000
0100
0100
0100
,  // measure 36
0000
0000
0000
0000
,  // measure 37
1000
0000
0000
0000
,  // measure 38
1000
0000
0000
0000
,  // measure 39
0000
0001
0001
0001
,  // measure 40
0000
0000
0000
0000
,  // measure 41
0000
0000
0010
0000
,  // measure 42
0000
0000
0000
0000
,  // measure 43
0000
0000
0000
0010
,  // measure 44
0000
0000
0000
0000
,  // measure 45
0000
1000
0000
1000
,  // measure 46
0000
0000
0000
1001
,  // measure 47
1001
1001
0000
0010
,  // measure 48
0000
0000
0000
0000
,  // measure 49
0010
0000
0000
0100
,  // measure 50
0000
0000
0000
1000
,  // measure 51
0000
0000
1000
0000
0000
0001
0000
0000
,  // measure 52
0000
0001
0000
0000
0001
0000
0000
0000
,  // measure 53
0000
0001
0000
0001
,  // measure 54
0000
0001
0000
0001
,  // measure 55
0000
0001
0100
0100
,  // measure 56
0100
0000
0010
0000
,  // measure 57
0010
0000
0010
0000
,  // measure 58
0010
0000
0010
0000
,  // measure 59
0010
0000
0010
0010
,  // measure 60
0010
0000
1000
0000
,  // measure 61
0000
0000
1000
1000
,  // measure 62
0000
0000
0001
0000
,  // measure 63
0000
0000
0000
0000
,  // measure 64
0000
0000
0100
0000
,  // measure 65
0000
0000
0100
0100
,  // measure 66
0000
0000
0000
0000
,  // measure 67
0000
0000
0000
0000
,  // measure 68
0010
0000
0010
0000
,  // measure 69
0010
0010
0010
0000
,  // measure 70
1001
0000
1000
0000
,  // measure 71
1000
0000
1000
0000
,  // measure 72
1000
0000
1000
0000
,  // measure 73
1000
0000
1000
1000
,  // measure 74
1000
0000
0001
0000
,  // measure 75
0001
0000
0001
0000
,  // measure 76
0001
0000
0001
0000
,  // measure 77
0001
0000
1000
0001
,  // measure 78
1000
0000
0000
0000
,  // measure 79
0000
0000
0000
0000
,  // measure 80
0000
0000
0000
0000
,  // measure 81
0000
0000
0000
0000
,  // measure 82
0010
0000
0000
0000
,  // measure 83
0010
0000
0000
0000
,  // measure 84
0100
0000
0000
0000
,  // measure 85
1000
0000
0000
0000
,  // measure 86
0001
0000
0000
0000
,  // measure 87
1000
0000
0000
0000
,  // measure 88
0010
0000
0010
0000
,  // measure 89
0010
0000
1001
0000
,  // measure 90
0000
0000
0110
0000
,  // measure 91
1001
0000
0000
0000
;
