#TITLE:On The Jazz;
#SUBTITLE:(From Nonstop Megamix);
#ARTIST:Jonny Dynamite!;
#TITLETRANSLIT:;
#SUBTITLETRANSLIT:;
#ARTISTTRANSLIT:;
#CREDIT:;
#BANNER:ON THE JAZZ.png;
#BACKGROUND:ON THE JAZZ-bg.png;
#LYRICSPATH:;
#CDTITLE:Dance Mania Super Trance Best.png;
#MUSIC:216-on_the_jazz.mp3;
#OFFSET:-3.907;
#SAMPLESTART:27.660;
#SAMPLELENGTH:12.000;
#SELECTABLE:YES;
#BPMS:0.000=131.220;
#STOPS:;
#BGCHANGES:;

//---------------dance-single - ----------------
#NOTES:
     dance-single:
     :
     Hard:
     8:
     0.433,0.547,0.046,0.163,0.314:
0000
0000
0000
0000
,
1000
0100
1100
0000
0000
0000
0000
0000
,
0001
0100
0001
0000
0000
0000
0010
0000
,
0001
1000
0010
0000
0001
0000
0100
0000
,
1000
0100
1000
0000
0100
0000
0001
1000
,
1001
0000
0110
0000
1000
0100
0001
0000
,
0001
0010
1000
0010
1000
0001
1000
0000
,
1000
0100
0010
0001
1000
0001
1000
0000
,
0010
1000
0001
0100
0010
1000
0001
0000
,
1000
0100
1000
0100
0010
0001
1000
0000
,
0001
0100
0001
1000
0010
1000
0010
0000
,
0001
0000
0000
1000
0000
0000
0100
0000
1000
0000
0100
1000
0000
0000
0010
0000
,
0100
0000
0010
0000
1000
0000
0010
0000
0001
0100
0001
0100
0001
1000
0010
1000
,
0010
0000
1000
0000
0100
0000
0000
1000
0000
0100
0000
0000
0010
0100
0000
0010
,
0100
0000
0000
0000
0000
0000
0010
1000
0010
0000
0000
0000
0000
0000
1000
0000
,
0200
0000
0000
2000
0000
0000
0000
0000
0000
0000
0000
0000
3300
0000
0000
0000
,
0000
0001
0001
0001
0000
1000
1000
1000
,
0010
0000
0100
0000
0010
0000
0010
0200
0000
0000
0310
0000
0000
0000
0000
0000
,
0001
0000
0000
0000
1000
0100
0000
0010
0000
0000
0001
0000
0000
0000
0000
0000
,
0001
0000
0100
0000
0010
0100
0000
0010
0000
0000
0100
0000
0000
0000
0000
0000
,
0000
2000
0200
3300
,
0000
0000
0010
0000
0000
0001
0000
0000
0010
0000
0000
0001
0000
0000
0010
0000
,
0000
0000
0100
0000
0000
1000
0000
0000
0100
0000
0000
1000
0000
0000
0100
0000
,
0000
0000
0010
0000
0000
1000
0000
0000
0001
0000
0000
0100
0000
0000
1000
0000
,
0000
0000
0100
0000
0000
1000
0000
0000
0100
0000
0000
0010
0000
0000
0001
0000
,
2000
3100
0010
0100
,
0010
0000
0001
0000
0100
0000
0001
1000
,
0020
0000
0000
0000
1030
0000
0000
0000
0200
0000
0000
0300
1000
0000
0000
0000
,
0000
0000
0100
0000
0000
1000
0000
0000
0001
0000
0100
0000
0010
0000
0000
0000
,
0002
0103
2000
3100
,
0010
1000
0001
0000
0200
0000
1300
0000
,
2000
3100
0020
0031
,
0100
0010
1000
0000
0001
0000
0100
0000
,
1000
0000
0010
1000
0010
0000
0001
0100
0001
0000
0010
0100
0010
0000
1000
0000
,
0010
1000
0000
0010
0000
0010
0000
1000
0000
0000
0001
0000
1000
0000
0000
0000
,
0000
0000
0000
0000
1000
0100
1000
0100
1000
0000
0000
0000
0000
0000
0000
0000
,
0001
0100
0001
0000
0010
1000
0000
0000
1000
0001
0000
0000
0000
0000
0000
0000
,
1001
0000
1000
0000
0000
0100
0000
0000
0010
0000
0000
0001
0000
0000
0010
0000
,
0000
0000
0001
0000
0000
0100
0000
0000
0010
0000
0000
1000
0000
0000
0001
0000
,
0000
0000
1000
0000
0000
0100
0000
0000
0010
0000
0000
0001
0000
0000
0010
0000
,
0000
0000
0100
0000
0000
1000
0000
0000
0001
0000
0000
1000
0000
0000
0010
0000
,
0000
0000
1000
0000
0000
0001
0000
0000
0100
0000
0000
0010
0000
0000
1000
0000
,
0000
0000
0100
0000
0000
1000
0000
0000
0100
0000
0000
0010
0000
0000
0001
0000
,
0000
0000
0100
0000
0000
0001
0000
0000
0100
0000
0000
0010
0000
0000
1000
0000
,
0000
0000
0000
0000
0001
0000
0000
0000
0000
0000
0100
0000
0000
0000
0000
0000
0010
0000
0000
0000
0000
0000
2000
0000
0000
3000
0000
0000
0000
0000
0000
0000
;

//---------------dance-single - ----------------
#NOTES:
     dance-single:
     :
     Medium:
     4:
     0.272,0.339,0.035,0.209,0.000:
0000
0000
0000
0000
,
1000
1000
1000
0000
0001
0000
0100
0000
,
0010
0001
1000
0100
,
0002
0103
1000
0010
,
0001
0010
1000
0100
,
1001
0000
1100
0000
1000
0100
1000
0000
,
0001
0000
0100
0000
0010
1000
0001
0000
,
0100
0000
0001
0000
0010
1000
0010
0000
,
1000
0000
0001
0000
0100
0001
0100
0000
,
1000
0000
0100
0000
0010
1000
0001
0000
,
1000
0000
0100
0000
0010
0001
0010
0000
,
0001
0100
0010
1000
,
0001
0000
1000
0000
1000
0100
0010
0001
,
0010
0001
0010
0000
0100
1000
0100
0000
,
0020
1030
0200
0301
,
2000
0000
0002
0000
0000
0003
3000
0000
,
0000
0100
0010
0100
0000
1000
0100
1000
,
0200
1300
0020
0031
,
0100
0000
0001
0100
1000
0000
1010
0000
,
1000
0000
0001
0010
1000
0000
0010
0000
,
0100
0002
2000
3003
,
1000
0000
1000
0000
,
0001
0000
0100
0000
,
0010
0000
1000
0000
,
0001
1000
0100
0010
,
0002
0000
0000
1003
0000
0000
1000
0000
,
2000
0000
0000
0000
,
3100
0000
0000
0000
,
0000
0001
0000
0000
1000
0000
0001
0000
,
0200
0000
0000
0300
,
0010
0000
0100
0000
,
1000
0001
0100
0010
,
2000
0000
3002
0000
,
0103
0001
0100
0001
0001
0100
0001
0001
,
0100
0001
0010
1000
,
0000
0000
1000
0100
1000
0000
0000
0000
,
1000
0100
0001
0000
1000
0000
0010
0000
,
0002
0000
0000
0000
,
0000
0000
0000
0000
,
2003
0000
0000
0000
,
0000
0000
0000
0000
,
3200
0000
0000
0000
,
0000
0000
0000
0000
,
0320
0000
0000
0000
,
0000
0000
0000
0000
0000
0000
0000
0030
;

//---------------dance-single - ----------------
#NOTES:
     dance-single:
     :
     Easy:
     3:
     0.176,0.235,0.046,0.070,0.000:
0000
0000
0000
0000
,
1000
1000
0000
0001
,
0000
0100
0000
0010
,
1000
1000
0000
0001
,
0000
0100
0000
0010
,
1001
0000
1000
1000
,
0001
0100
0010
1000
,
0100
0010
0001
0100
,
0001
0010
1000
0001
,
1000
0100
0010
0001
,
0100
0001
0100
0010
,
1000
0100
0010
0001
,
1000
0001
0200
0000
,
0301
0000
1000
0000
,
0001
0000
0100
0000
,
0020
0000
0000
0030
,
0000
1000
0000
0001
,
1000
0100
0010
0000
,
0001
1000
0100
0000
,
0001
0010
1000
0000
,
0000
2000
0200
3300
,
1000
0000
1000
0000
,
0001
0000
0001
0000
,
0100
0000
0100
0000
,
0010
0000
0010
0000
,
1000
0000
0000
0000
,
0001
0000
0000
0000
,
0100
0000
0000
0000
,
0010
1000
0001
0100
,
0001
0000
0000
0000
,
1000
0000
0000
0100
,
0100
0000
0000
0000
,
0010
0000
0001
0000
,
1000
1000
1000
1000
,
0001
0100
0010
1000
,
0000
0001
1000
0000
,
0100
0100
0010
0000
,
1000
0000
0000
0000
,
0000
0000
0000
0000
,
1001
0000
0000
0000
,
0000
0000
0000
0000
,
0110
0000
0000
0000
,
0000
0000
0000
0000
,
0202
0000
0000
0000
,
0000
0000
0000
0000
,
0303
0000
0000
0000
;

//---------------dance-single - ----------------
#NOTES:
     dance-single:
     :
     Beginner:
     1:
     0.053,0.100,0.012,0.000,0.000: // measure 1
0000
0000
0000
0000
,  // measure 2
1000
0000
0000
0000
,  // measure 3
0000
0000
0000
0000
,  // measure 4
0001
0000
0000
0000
,  // measure 5
0000
0000
0000
0000
,  // measure 6
0110
0000
0000
0000
,  // measure 7
0100
0000
0000
0000
,  // measure 8
0001
0000
0000
0000
,  // measure 9
1000
0000
0000
0000
,  // measure 10
1000
0000
0000
0000
,  // measure 11
0001
0000
0000
0000
,  // measure 12
0100
0000
0000
0000
,  // measure 13
0010
0000
0000
0000
,  // measure 14
0001
0000
0000
0000
,  // measure 15
0000
0000
0000
0000
,  // measure 16
1000
0000
0000
0000
,  // measure 17
0000
0100
0000
0100
,  // measure 18
0001
0000
0000
0000
,  // measure 19
1000
0000
0000
0000
,  // measure 20
1000
0000
0000
0000
,  // measure 21
0000
0000
0000
0000
,  // measure 22
0001
0000
0000
0000
,  // measure 23
0000
0000
0000
0000
,  // measure 24
1000
0000
0000
0000
,  // measure 25
0000
0000
0000
0000
,  // measure 26
0010
0000
0000
0000
,  // measure 27
0000
0000
0000
0000
,  // measure 28
0100
0000
0000
0000
,  // measure 29
0000
0000
0000
0000
,  // measure 30
1000
0000
0000
0000
,  // measure 31
0000
0000
0000
0000
,  // measure 32
0001
0000
0000
0000
,  // measure 33
0000
0000
0000
0000
,  // measure 34
0010
0000
0000
0000
,  // measure 35
0010
0000
0000
0000
,  // measure 36
0000
1000
0000
0000
,  // measure 37
0001
0000
0000
0000
,  // measure 38
0100
0000
0000
0000
,  // measure 39
0000
0000
0000
0000
,  // measure 40
0010
0000
0000
0000
,  // measure 41
0000
0000
0000
0000
,  // measure 42
1000
0000
0000
0000
,  // measure 43
0000
0000
0000
0000
,  // measure 44
0001
0000
0000
0000
;
