#TITLE:North;
#SUBTITLE:;
#ARTIST:WALL 5;
#TITLETRANSLIT:;
#SUBTITLETRANSLIT:;
#ARTISTTRANSLIT:;
#CREDIT:;
#BANNER:bn.PNG;
#BACKGROUND:bg.PNG;
#LYRICSPATH:;
#CDTITLE:;
#MUSIC:North.mp3;
#OFFSET:-3.780;
#SAMPLESTART:85.540;
#SAMPLELENGTH:12.500;
#SELECTABLE:YES;
#BPMS:0.000=138.000,24.000=69.000,42.000=138.000,138.000=69.000,146.000=138.000;
#STOPS:;
#BGCHANGES:;

//---------------dance-single - ----------------
#NOTES:
     dance-single:
     :
     Hard:
     8:
     0.467,0.613,0.096,0.067,0.428:
0000
0000
0000
0000
,
0000
0000
0000
0000
,
1100
0000
0101
0000
0010
1000
0001
0000
,
1000
0100
0010
0001
0100
0000
0000
0000
,
0101
0000
1100
0000
0010
1000
0001
0000
,
1000
0100
0010
0002
0200
0000
0303
0000
,
0001
0000
0000
1000
0000
0000
0100
0000
1000
0000
0000
0100
0000
0000
0010
0000
0001
0000
0000
0100
0000
0000
0001
0000
1000
0000
0000
0001
0000
0000
0100
0000
,
0001
0000
0000
0100
0000
0000
0010
0000
1000
0000
0000
0010
0000
0000
1000
0000
0100
0000
0000
1000
0000
0000
0100
0000
1000
0000
0000
0100
0000
0000
0010
0000
,
0001
0000
0000
0100
0000
0000
0001
0000
0100
0000
0000
0001
0000
0000
0010
0000
1000
0000
0000
0010
0000
0000
1000
0000
0010
0000
0000
1000
0000
0000
0010
0000
,
0100
0000
0000
1000
0000
0000
0100
0000
1000
0000
0000
0100
0000
0000
0010
0000
0001
0000
0000
0010
0000
0000
0001
0000
0100
0000
0000
0010
0000
0000
1000
0000
,
1001
0000
0000
0000
0000
0000
0000
0000
1000
0000
0000
0100
0000
0000
0010
0000
,
0001
0000
0000
0100
0000
0000
0010
0000
1000
0000
0000
0001
0000
0000
1000
0000
,
0100
0000
0000
0010
0000
0000
0001
0000
0100
0000
0000
0001
0000
0000
0100
0000
,
0010
0000
0000
1000
0000
0000
0001
0000
1000
0000
0000
0001
0000
0000
0100
0000
,
1000
0000
0000
0100
0000
0000
0010
0000
0001
0000
0000
0001
0000
0000
0001
0000
,
0100
0000
0000
0100
0000
0000
0010
0000
1000
0000
0000
1000
0000
0000
0100
0000
,
1000
0000
0000
1000
0000
0000
0100
0000
0010
0000
0000
0010
0000
0000
0010
0000
,
0001
0000
0000
0001
0000
0000
0001
0000
1000
0000
0000
0000
0001
0000
0100
0000
,
0001
0000
0010
1000
0010
0000
1000
0100
,
1000
0000
0000
0000
0001
0000
0100
0000
0001
0000
1000
0001
1000
0000
0001
0000
,
0100
0000
0010
1000
0001
0000
1000
0100
,
1000
0000
0010
0001
0010
0000
0001
1000
,
0001
0000
0010
1000
0001
0000
0010
1000
,
0001
0000
0000
0000
0010
0000
1000
0000
0001
0000
0100
0001
0100
0000
0001
0000
,
0100
0000
0010
1000
0010
0000
0001
0100
,
0001
0000
1000
0100
1000
0000
0010
0001
,
0010
0000
0100
0000
0010
1000
0010
1000
,
0100
0010
0001
0010
1000
1000
0001
0001
,
0100
0100
0010
1000
0100
1000
0100
0001
,
0100
1000
0100
0001
1000
0001
0100
0010
,
0001
0000
0010
0000
0100
0001
0100
0000
0010
0000
1000
0000
0010
0000
0010
0000
,
1000
0000
0100
0000
0010
0000
0001
0000
1000
0000
0000
1100
0000
0000
0010
0000
,
0000
0011
0000
0000
1000
0000
0001
0000
0100
0000
0001
0100
0001
0000
1000
0000
,
0100
1000
0100
1000
0101
0000
0020
1000
,
1030
0000
0000
0000
0010
0000
0000
0000
0100
0000
0000
0000
0001
0000
0000
0000
1001
0000
0000
0001
0000
0000
0010
0000
0100
0000
0000
1000
0000
0000
0100
0000
,
1000
0000
0000
0100
0000
0000
0010
0000
0001
0000
0000
0010
0000
0000
0001
0000
1000
0000
0000
0001
0000
0000
0010
0000
0100
0000
0000
0001
0000
0000
1000
0000
,
0100
0000
0000
1000
0000
0000
0100
0000
0010
0000
0000
0001
0000
0000
0100
0000
0001
0000
0000
0000
0000
0000
0001
0000
0000
0000
0000
0000
0001
0000
0000
0000
,
0100
0000
0000
0100
0000
0000
0100
0000
0010
0000
0000
0010
0000
0000
0010
0000
,
1000
0000
0000
1000
0000
0000
1000
0000
0100
0000
0000
0010
0000
0000
0001
0000
,
1000
0000
0000
0010
0000
0000
0200
0000
0002
0000
0000
0000
0000
0000
0000
0000
,
0000
0000
0000
0000
0303
0000
0000
0000
0001
0000
0000
0100
0000
0000
0010
0000
,
1000
0000
0000
0100
0000
0000
0010
0000
0001
0000
0000
0010
0000
0000
0100
0000
,
1000
0000
0000
0001
0000
0000
1000
0000
0001
0000
0000
0100
0000
0000
0010
0000
,
1000
0000
0000
0100
0000
0000
0010
0000
0001
0000
0000
0010
0000
0000
0100
0000
,
1000
0000
0000
0100
0000
0000
0010
0000
0001
0000
0000
0001
0000
0000
0001
0000
,
1000
0000
0000
1000
0000
0000
1000
0000
0100
0000
0000
0100
0000
0000
0100
0000
,
0010
0000
0000
0010
0000
0000
0010
0000
0001
0000
0000
0001
0000
0000
0001
0000
,
1000
0000
0000
0001
0000
0000
0100
0000
0010
0100
0000
0000
1000
0000
0001
0000
,
0010
1000
2002
0000
,
3003
0000
0000
0000
;

//---------------dance-single - ----------------
#NOTES:
     dance-single:
     :
     Medium:
     6:
     0.338,0.401,0.164,0.125,0.202:
0000
0000
0000
0000
,
0000
0000
0000
0000
,
0101
1100
0110
1001
,
1100
0011
0002
0003
,
0101
1010
0110
1001
,
1000
0000
0100
1000
0100
0000
0000
0000
,
0001
1000
0100
0010
,
0001
0100
0010
1000
,
0100
0000
0000
1000
0100
0000
0000
0010
0001
0000
0000
0001
0100
0000
0000
0010
,
0100
0000
0000
0001
1000
0000
0000
1000
0100
0000
0000
0010
0001
0000
0000
0000
,
0101
0000
0000
0000
0000
0000
0000
0000
1000
0000
0000
0100
0000
0000
1000
0000
,
0100
0000
0000
0000
1000
0000
0000
0000
0010
0000
0000
0100
0000
0000
0010
0000
,
0100
0000
0000
0000
0010
0000
0000
0000
0001
0000
0000
0100
0000
0000
0001
0000
,
0100
0000
0000
0000
0010
0000
0000
0000
1000
0000
0000
0100
0000
0000
1000
0000
,
0100
0000
0000
1000
0000
0000
0100
0000
0010
0000
0000
0001
0000
0000
0100
0000
,
0001
0000
0000
0000
0001
0000
0000
0000
0001
0000
0000
1000
0000
0000
0001
0000
,
0100
0000
0000
0000
0010
0000
0000
0000
0010
0000
0000
1000
0000
0000
0000
0000
,
0100
0000
0000
1000
0000
0000
0000
0000
0100
0000
0000
0000
1000
0000
0100
0000
,
1000
0000
1000
0001
1000
0000
0001
0100
,
0001
0000
0100
0010
0200
0000
0010
0000
,
0310
0000
0010
1000
0010
0000
0001
0000
,
0101
0000
1000
0100
1000
0000
0010
0010
,
0010
0000
0100
0100
0100
0000
0001
1000
,
0001
0100
0010
1000
,
1100
0000
1000
0100
1000
0000
0010
0000
,
0001
0000
0100
0000
0010
0000
1000
0001
,
0200
0300
2002
3003
,
0001
0000
1000
0000
0100
1000
0000
0000
,
0000
0001
0001
0000
,
0000
0000
0000
0000
0000
0000
0000
0000
1001
0000
0000
0101
0000
0000
0000
0000
,
0010
0100
0000
0010
0000
0000
0000
0000
1000
0000
0001
0000
0000
0000
0000
0000
,
0000
0000
0001
0000
0000
0000
0000
0000
1000
0000
0000
0001
0000
0000
0010
0000
,
0000
0100
0000
0000
1000
0000
0000
0000
0000
0000
0000
0000
0000
0000
0000
0000
,
0000
0000
0000
0000
0000
0000
0000
0000
0100
0001
0000
0000
0000
0000
0000
0000
,
0000
0000
0000
0000
0000
0000
0000
0000
1000
0000
0000
0001
0100
0000
0000
0010
,
0100
0000
0000
0010
1000
0000
0000
0100
1000
0000
0000
1000
0100
0000
0000
0010
,
0001
0000
0000
0010
0100
0000
0000
0010
1000
0000
0000
0000
0000
0000
1000
0000
,
0100
0000
0000
0010
0001
0000
0000
0001
,
0100
0000
0000
0010
0100
0000
0000
0010
,
1000
0000
0000
0002
0200
0000
0000
0000
,
0303
0000
0000
0000
0000
0000
0000
0000
0010
0000
0000
0100
0000
0000
1000
0000
,
0200
0000
0000
0000
1300
0000
0000
0000
0010
0000
0000
0100
0000
0000
0010
0000
,
2000
0000
0000
0000
3100
0000
0000
0000
0010
0000
0000
1000
0000
0000
0100
0000
,
0010
0000
0000
0001
0000
0000
0010
0000
0100
0000
0000
1000
0000
0000
0001
0000
,
1000
0000
0000
0001
0000
0000
0100
0000
0001
0000
0000
0100
0000
0000
0010
0000
,
2000
0000
0000
0000
3100
0000
0000
0000
1000
0000
0000
0100
0000
0000
0010
0000
,
0002
0000
0000
0000
0013
0000
0000
0000
0001
0000
0000
0001
0000
0000
0001
0000
,
1000
0000
0000
1000
0000
0000
1000
0000
0100
0000
0000
0100
0000
0000
0100
0000
,
0010
0000
0000
0010
0000
0000
0010
0000
0022
0000
0000
0000
0000
0000
0000
0000
,
0033
0000
0000
0000
;

//---------------dance-single - ----------------
#NOTES:
     dance-single:
     :
     Easy:
     3:
     0.234,0.283,0.087,0.289,0.000:
0000
0000
0000
0000
,
0000
0000
0000
0000
,
1000
0001
1000
0001
,
1000
0001
2000
3000
,
0010
0100
0010
0100
,
0010
0100
0020
0030
,
2000
0000
0000
0000
,
0002
0000
0000
0000
0000
0000
0000
3003
,
0020
0000
0000
0000
,
0200
0000
0000
0000
,
0330
0000
1000
0000
,
0001
0000
0100
0000
,
0010
0000
2000
0000
,
3002
0000
0203
0000
,
0320
0000
0130
0000
,
0100
0000
0010
0000
,
1000
0000
0002
0000
,
2003
0000
0200
0000
,
3300
0010
0010
0100
,
0100
1000
0100
0001
,
0001
0001
0010
0100
,
1000
0000
0001
1000
0001
0000
0010
0100
,
0010
0010
0110
0100
,
0110
1000
0001
0100
,
0001
0010
0001
0010
,
0100
1000
0001
0100
,
0010
0000
1000
0000
,
0001
0100
0110
0000
,
0010
0010
0110
1000
,
0000
0001
0101
0000
,
1100
0000
0000
0000
0010
0100
0000
0000
,
1000
0001
0101
1000
,
0100
0000
0010
1000
0001
0000
0001
0000
,
0001
1000
0002
0203
,
0310
1000
0002
0000
,
0000
0000
2000
0000
,
0000
0003
0020
0000
,
0000
0000
0000
0000
,
0000
3000
0200
0000
,
0000
0030
0002
0000
,
0000
0303
1001
0001
,
0100
0001
0010
1000
,
0010
1000
0100
1000
,
0100
0010
0002
0000
,
0200
0303
0002
0103
,
0010
1000
0200
1300
,
1000
0100
0020
0031
,
0200
0301
0020
1030
,
0200
1300
2002
0000
,
3003
0000
0000
0000
;

//---------------dance-single - ----------------
#NOTES:
     dance-single:
     :
     Challenge:
     9:
     0.604,0.778,0.144,0.212,0.683:
0000
0000
0000
0000
,
0000
0000
0000
0000
,
0001
0000
0000
0000
0100
0000
0000
0010
0100
0000
0001
0000
1000
0000
0000
0000
,
1000
0100
0001
0100
0002
0000
0003
0000
,
0001
0000
0000
0000
1000
0000
0000
0010
1000
0000
0010
0000
1000
0000
0000
0000
,
1000
1000
0001
0100
0010
0000
1001
0000
,
2000
0000
0000
3100
0000
0000
0010
0000
0002
0000
0000
0013
0000
0000
0100
0000
0020
0000
0000
0130
0000
0000
0010
0000
2000
0000
0000
3100
0000
0000
0010
0000
,
0002
0000
0000
0103
0000
0000
0010
0000
2000
0000
3000
0010
0000
0000
1000
0000
0200
0000
0000
1300
0000
0000
0100
0000
0020
0000
0000
0031
0000
0000
0100
0000
,
0001
0000
0000
0100
0000
0000
0010
0000
1000
0000
0000
0100
0000
0000
1000
0000
0100
0000
0000
0010
0000
0000
0001
0000
0010
0000
0000
0100
0000
0000
1000
0000
,
0002
0000
0000
0100
0000
0000
0100
0000
0100
0000
0000
0100
0000
0000
0100
0000
1000
0000
0000
1000
0000
0000
1000
0000
1000
0000
0000
1000
0000
0000
1003
0000
,
0011
0000
0000
0000
0000
0000
0000
0000
1001
0000
0001
0100
0000
0001
0100
0000
,
0010
0000
0010
1000
0000
0010
1000
0000
1000
0000
1000
0100
0000
1000
0100
0000
,
0010
0000
0010
0001
0000
0001
0010
0000
0001
0000
0001
0100
0000
0001
0100
0000
,
0010
0000
0010
0100
0000
0010
0100
0000
0010
0000
0010
1000
0000
0010
1000
0000
,
1000
0000
1000
0100
0000
1000
0100
0000
1000
0000
1000
0100
0000
0100
0010
0000
,
0010
0000
0010
0001
0000
0001
0100
0000
0010
0000
0001
1000
0000
0001
1000
0000
,
0001
0000
0001
0100
0000
0001
0100
0000
0010
0000
0010
1000
0000
0010
1000
0000
,
0010
0000
0001
1000
0000
0001
1000
0000
0001
1000
0000
0000
1000
0100
1000
0100
,
1000
0100
1000
0100
1000
0000
0100
0000
0001
0000
0000
0000
1000
0000
0100
0000
,
0001
0000
0000
0000
1000
0000
0100
0000
0001
0000
0001
1000
0001
0000
0100
0000
,
0001
0000
0001
0100
0010
0000
0001
0100
,
0010
0000
0001
0100
0010
0000
0010
0100
,
0001
0000
1000
0100
0001
0000
1000
0100
,
0001
0000
0000
0000
1000
0000
0100
0000
0001
0000
0001
0100
1000
0000
0100
0000
,
0001
0000
0001
1000
0001
0000
0010
0100
,
0010
0000
1000
0100
0010
0000
0001
1000
,
0020
0000
0030
0000
1000
0100
0010
0001
,
0001
0100
0001
0000
0010
0000
1000
0000
0100
0000
0100
0000
1000
0001
1000
0001
,
1000
0000
0010
0000
1000
0000
0100
1000
0100
0000
1000
0000
0001
0000
0100
0000
,
1000
0000
0100
0000
0001
0000
0010
0000
0001
0000
0100
0010
0000
0000
0000
0000
,
1000
0001
0000
1000
0010
0000
0001
0000
1000
0000
0100
0000
0010
0000
0001
0000
,
0100
0000
0001
0000
1000
0000
0010
0000
0101
0000
0000
1100
0000
0000
0110
0000
,
0000
1001
0000
0000
1000
0000
0100
0000
0010
0000
0001
0100
0001
0000
1000
0000
,
0010
0000
0000
1000
0000
0000
0010
0000
0000
0000
0000
0000
1000
0000
0000
0000
0000
0000
0010
0000
0000
0000
0000
0000
1000
0000
0000
0100
0000
0000
0000
0000
0000
0000
0000
0000
0001
0000
0100
0000
0001
0000
0100
0000
0000
0001
0000
0000
,
0010
0000
1000
0000
0100
0000
0010
0000
0001
0000
1000
0000
0001
0000
0100
0000
0020
0000
0000
0100
0000
0000
0100
0000
0100
0000
0000
0100
0000
0000
0100
0000
,
0230
0000
0000
0010
0000
0000
0010
0000
0010
0000
0000
0010
0000
0000
0010
0000
0302
0000
0000
0103
0000
0000
0001
0000
2000
0000
0000
3001
0000
0000
0100
0000
,
2000
0000
0000
3100
0000
0000
0001
0000
0020
0000
0000
0130
0000
0000
0010
0000
0110
0000
0000
0000
0000
0000
0100
0000
0000
0000
0000
0000
1000
0000
0000
0000
,
1100
0000
0000
0010
0000
0000
0001
0000
0101
0000
0000
0001
0000
0000
1000
0000
,
1100
0000
0000
0010
0000
0000
0001
0000
1001
0000
0000
0001
0000
0000
0100
0000
,
0110
0000
0000
1000
0000
0000
0020
0000
0200
0000
0000
0000
0000
0000
0000
0000
,
0000
0000
0000
0000
0330
0000
0000
0000
1001
0000
0010
0001
0000
0010
0001
0000
,
1000
0000
1000
0100
0000
1000
0100
0000
0001
0000
0100
0001
0000
0100
0001
0000
,
1000
0000
1000
0010
0000
0010
1000
0000
0010
0000
0010
0001
0000
0010
0001
0000
,
1000
0000
1000
0001
0000
1000
0001
0000
1000
0000
1000
0100
0000
1000
0100
0000
,
0001
0000
0100
0001
0000
0100
0001
0000
0100
0000
0100
0001
0000
0001
1000
0000
,
1000
0000
1000
0010
0000
0010
0001
0000
1000
0000
0010
0100
0000
0010
0100
0000
,
0010
0000
0010
0001
0000
0010
0001
0000
1000
0000
1000
0100
0000
1000
0100
0000
,
1000
0000
0010
0100
0000
0010
0100
0000
0010
0100
0000
0000
1000
0001
0010
0001
,
0100
0002
0000
0000
0103
0000
0000
0000
2002
0000
0000
0000
0000
0000
0000
0000
,
3003
0000
0000
0000
;

//---------------dance-single - ----------------
#NOTES:
     dance-single:
     :
     Beginner:
     1:
     0.089,0.117,0.019,0.000,0.000: // measure 1
0000
0000
0000
0000
,  // measure 2
0000
0000
0000
0000
,  // measure 3
1000
0000
0000
0000
,  // measure 4
0000
0000
0000
0000
,  // measure 5
0001
0000
0000
0000
,  // measure 6
0010
0010
0010
0000
,  // measure 7
0100
0000
0000
0000
,  // measure 8
0000
0000
0000
0000
,  // measure 9
0001
0000
0000
0000
,  // measure 10
1000
0000
0000
0000
,  // measure 11
0001
0000
0100
0000
,  // measure 12
0000
0000
0010
0000
,  // measure 13
0000
0000
1000
0000
,  // measure 14
0000
0000
0001
0000
,  // measure 15
0000
0000
1000
0000
,  // measure 16
0000
0000
0001
0000
,  // measure 17
0000
0000
0100
0000
,  // measure 18
0000
0000
0010
0000
,  // measure 19
0000
0000
1000
0000
,  // measure 20
1000
0000
1000
0000
,  // measure 21
0000
0000
0001
0000
,  // measure 22
0001
0000
0001
0000
,  // measure 23
0100
0000
0010
0000
,  // measure 24
0010
0000
0010
0000
,  // measure 25
0000
0000
0100
0000
,  // measure 26
0100
0000
0100
0000
,  // measure 27
0000
0000
1000
0000
,  // measure 28
0000
0001
0001
0000
,  // measure 29
0000
0000
0100
0000
,  // measure 30
0000
0000
0010
0000
,  // measure 31
0010
0000
0100
0000
,  // measure 32
0000
0000
1000
0000
,  // measure 33
0000
0000
0001
0000
,  // measure 34
0000
0000
0100
0000
,  // measure 35
0000
0000
0010
0000
,  // measure 36
0010
0000
0010
0000
,  // measure 37
0010
0000
0100
0000
,  // measure 38
0000
0000
0000
0000
,  // measure 39
0000
0000
0100
0000
,  // measure 40
0000
0000
1000
0000
,  // measure 41
0000
0000
1001
0000
,  // measure 42
1000
0000
0001
0000
,  // measure 43
0001
0000
1000
0000
,  // measure 44
0000
0000
0100
0000
,  // measure 45
0100
0000
0100
0000
,  // measure 46
0010
0000
0100
0000
,  // measure 47
0010
0000
1000
0000
,  // measure 48
1000
0000
0001
0000
,  // measure 49
0001
0000
1001
0000
;
