#TITLE:NoN Fiction Story;
#SUBTITLE:;
#ARTIST:Creative Life;
#TITLETRANSLIT:;
#SUBTITLETRANSLIT:;
#ARTISTTRANSLIT:;
#CREDIT:;
#BANNER:bn.png;
#BACKGROUND:bg.png;
#LYRICSPATH:;
#CDTITLE:;
#MUSIC:beatmaniaIIDX 17 SIRIUS NoN Fiction Story!.mp3.mp3;
#OFFSET:-0.040;
#SAMPLESTART:38.440;
#SAMPLELENGTH:12.000;
#SELECTABLE:YES;
#BPMS:0.000=160.000;
#STOPS:176.000=1.125
;
#BGCHANGES:;

//---------------dance-single - ----------------
#NOTES:
     dance-single:
     :
     Hard:
     8:
     0.558,0.593,0.272,0.338,0.009:
0000
0000
0000
0000
,
0000
0000
0000
0000
,
1000
0001
0100
0001
0010
0010
0000
0001
,
0010
0100
1000
0100
0000
0000
0000
0000
,
2000
3100
0002
0103
,
2000
3001
2000
3100
,
0002
0000
0003
0000
,
1001
0000
0110
0000
,
0001
0100
0001
0010
0001
0100
0010
1000
,
0001
0100
0010
1000
0000
0000
0000
1000
,
1000
0001
0100
0001
0010
0001
0010
0100
,
1000
0001
1000
0010
0000
0100
0100
0100
,
0110
0000
0000
0110
0000
0001
1000
0000
,
1000
0100
0010
0002
0000
0010
0013
0000
,
0101
0000
0100
0000
0110
0000
1000
0001
,
0000
1001
0000
1000
0100
0000
0000
0000
,
0001
1000
0001
0100
0000
0100
0000
0100
,
0010
1000
0100
1000
0000
1000
0000
0001
,
0100
0001
0010
0001
0000
0100
0000
0010
,
0100
0010
1000
0001
0000
1000
0000
0001
,
0101
0010
1100
0001
,
1001
1000
1100
0001
,
0002
0000
0000
1000
2000
0000
0000
0000
,
0000
0000
0000
0000
3003
0000
0000
0001
,
0010
1000
0020
0200
0000
0000
0000
0330
,
1000
0001
1000
0000
0001
0000
0100
0000
0110
0000
0100
0000
0010
0000
1000
0000
,
1001
1000
0001
0100
0001
0001
0010
0002
,
0000
0100
0100
0103
0000
0001
0010
0100
,
1000
0100
0010
0100
1000
1000
0100
2000
,
0000
0100
0100
3100
0000
0001
0100
0010
,
0100
0001
1000
0000
0010
0001
0010
0001
,
0000
1000
0001
0100
0000
0010
1000
0001
,
0100
0000
0100
0000
0010
0000
0010
0100
,
0000
1000
0000
0002
2000
0000
3003
0000
,
1001
0001
1001
1000
0001
0001
0100
0002
,
0000
0010
0010
0013
0000
0001
1000
0001
,
0100
0010
1000
0001
0100
0100
0010
0200
,
0000
0010
0010
0310
0000
0001
0010
0100
,
1000
0100
1000
0001
1000
0100
0010
0010
,
0000
0001
1000
0100
0000
0001
1000
0001
,
0100
0000
0100
0000
0010
0000
0010
1000
,
0000
0001
0000
1000
0000
0000
0001
0000
,
0101
0000
0010
0000
1000
0001
0100
0010
,
0000
0010
0000
2000
0002
0000
0000
0000
,
3003
0000
0100
0001
0010
0001
0100
0000
,
0010
0000
1000
0000
0002
0020
0000
0000
,
0000
0033
0000
1000
0001
0100
0010
0000
,
0010
0000
1000
0000
0200
0002
0303
0001
,
0010
0100
0010
0000
0002
0200
0000
0000
,
0303
0000
0000
0000
,
0000
0100
0010
0000
0100
0110
0000
1100
,
0000
0021
0000
0000
0001
0002
0000
0000
,
0033
1000
0001
1000
,
0001
0000
0200
0000
0000
0000
0310
0100
,
0010
1000
0001
0010
0001
0100
0010
1000
,
0100
2000
0000
0100
0100
3100
0000
1000
,
1000
0001
0100
0001
0010
0001
0100
0010
,
1000
0200
0000
1000
1000
1300
0000
1000
,
1000
0001
0100
0001
0010
0001
0010
0010
,
0001
0010
0000
1000
0001
0100
0000
0010
,
1000
0001
0101
0000
0010
0000
1001
0000
,
1000
1001
0000
1000
0000
0002
0000
0000
,
0103
0000
0110
0000
0110
0000
1000
0001
,
0100
0020
0000
0100
0000
0100
0200
0000
,
0330
1000
0001
0100
,
0010
0010
0100
0001
,
1000
2200
0000
3300
,
0000
0002
0000
0200
,
0303
0000
0000
0000
0001
0010
0100
0000
0100
0000
1000
0000
1000
0000
0100
0000
,
0100
0010
0011
1000
0000
1000
0101
0100
,
0011
1100
0000
0000
0000
0000
0000
0000
;

//---------------dance-single - ----------------
#NOTES:
     dance-single:
     :
     Medium:
     6:
     0.381,0.461,0.103,0.122,0.000:
0000
0000
0000
0000
,
0000
0000
0000
0000
,
0000
0000
0000
0000
,
0000
0000
0000
0000
,
1000
1000
0001
0001
,
0100
0100
0010
0010
,
1010
0000
0000
0010
0000
0000
0000
0000
,
2000
0000
3002
0000
,
1003
0000
0001
0000
0100
0000
0001
0100
,
0000
0010
1000
0010
0000
0000
0000
0000
,
1000
0000
0001
0000
0100
0000
0010
1000
,
0000
1000
0001
1000
0000
0001
1000
0001
,
0100
0000
0000
0100
0000
0000
0000
0000
,
0010
1000
0010
1000
0000
0000
0000
0000
,
1000
0000
0001
0000
0100
0000
0010
1000
,
0000
0010
0000
0010
0100
0000
0000
0000
,
1000
0001
1000
0001
0000
1000
0000
0000
,
1000
0000
0100
1000
0000
0100
0000
0000
,
0010
0000
0001
0100
0000
0001
0000
0000
,
0100
0000
0010
0100
0000
0010
0000
1000
,
0001
1000
0100
0010
,
0001
0010
0100
1000
,
1002
0000
0000
0100
0200
0000
0000
0000
,
0000
0000
0000
0000
0303
0000
0000
0001
,
0010
0100
2000
0200
0000
0000
0000
0000
,
3300
0000
0000
0000
0000
0001
1000
0001
,
0100
0000
0001
0000
0010
0000
0001
0100
,
0000
0010
1000
0010
0000
0000
1000
0000
,
0001
0000
0100
0000
0010
0000
1000
0010
,
0000
0010
0100
0010
0000
0010
0100
0000
,
0100
0000
0010
0000
1000
0001
1000
0001
,
0000
0001
0100
0001
0000
0001
0100
0000
,
0010
0000
1000
0000
0100
0000
1000
0100
,
0000
1000
0000
0100
0001
0000
0000
0000
,
1000
0001
1000
0001
1000
0001
1000
0001
,
0000
0001
0001
0001
0000
0001
0100
0000
,
0001
0000
0010
0000
1000
0000
0010
1000
,
0000
0010
1000
1010
0000
1000
0100
0010
,
0001
0000
0001
0000
0001
0000
1000
0001
,
0000
0001
0100
0001
0000
0100
0001
0000
,
1000
0000
1000
0000
1000
0000
0001
0100
,
0000
0010
0000
1000
0000
0000
0010
0000
,
0100
0000
0010
0000
1000
0100
1000
0100
,
0000
1000
0000
0001
0010
0000
0000
0000
,
1001
0000
0000
1000
0100
1000
0100
0000
,
0001
0000
0100
0000
0002
0200
0000
0000
,
0303
0000
0001
1000
,
0010
0000
0100
0000
0100
0010
0000
0010
,
1000
0001
2000
0000
0000
0100
0000
0000
,
0000
3000
0000
0000
,
0000
0001
0100
0000
0010
0100
0000
1000
,
0000
0001
0000
0000
2000
0000
0200
0000
,
0000
3300
0000
0000
,
0000
0000
0011
0000
0000
0000
0000
0001
,
0010
0100
2000
0000
0000
0000
0000
0000
,
0000
0000
0000
0100
0100
3100
0000
0000
,
0000
0002
0000
0000
,
0000
0000
0000
0100
0100
0103
0000
0000
,
0000
0011
0001
0010
,
0010
0100
0000
0010
0100
0010
0000
0010
,
1000
0001
1000
0001
,
0001
0100
0000
0010
0000
1000
0000
0000
,
1001
1000
0100
0010
,
0001
0010
0000
0001
0000
0100
0001
0000
,
0000
1000
0001
0100
,
0010
0010
0100
0001
,
1000
0000
1001
0000
0000
0100
0000
0000
,
0000
1010
0000
0101
,
0000
0000
0000
0000
0000
0000
1000
0100
,
0100
1000
0100
0010
0000
0010
0001
0100
,
0010
0101
0000
0000
0000
0000
0000
0000
;

//---------------dance-single - ----------------
#NOTES:
     dance-single:
     :
     Easy:
     3:
     0.240,0.296,0.038,0.084,0.000: // measure 1
0000
0000
0000
0000
,  // measure 2
0000
0000
0000
0000
,  // measure 3
0000
0000
0000
0000
,  // measure 4
0000
0000
0000
0000
,  // measure 5
0010
0010
1000
1000
,  // measure 6
0001
0001
1000
0001
,  // measure 7
0100
0000
0000
0000
,  // measure 8
1010
0000
0110
0000
,  // measure 9
0001
0000
0001
0000
,  // measure 10
1000
0001
0100
0000
,  // measure 11
0010
0000
1000
0000
,  // measure 12
0001
1000
0100
0000
,  // measure 13
0010
0000
0000
0000
,  // measure 14
0001
0000
0000
1000
0000
0000
0000
0000
,  // measure 15
0001
0100
0010
1000
,  // measure 16
1000
0010
1000
0000
,  // measure 17
1000
0000
0000
0000
,  // measure 18
0001
0000
0000
0000
,  // measure 19
0100
0000
0000
0000
,  // measure 20
0010
0000
0000
0000
,  // measure 21
1000
1000
0001
0001
,  // measure 22
0100
0010
1000
0001
,  // measure 23
2000
0000
0002
0000
,  // measure 24
0000
0000
0000
0000
3003
0000
0000
0001
,  // measure 25
0100
0001
0200
0002
0000
0000
0000
0000
,  // measure 26
0303
0000
0000
0000
,  // measure 27
1000
0001
0100
0010
,  // measure 28
1000
0010
0000
1000
,  // measure 29
1000
0100
0010
0001
,  // measure 30
0010
0001
0000
0001
,  // measure 31
0100
0010
1000
0001
,  // measure 32
1000
0100
0000
1000
,  // measure 33
1000
0001
0100
0010
,  // measure 34
1000
0010
0100
0000
,  // measure 35
0010
0010
0010
1000
,  // measure 36
0001
0100
0000
0001
,  // measure 37
1000
0100
0010
0001
,  // measure 38
1000
0001
0000
0001
,  // measure 39
0100
0010
1000
0010
,  // measure 40
0100
0010
0000
1000
,  // measure 41
0001
0000
0001
0000
0001
0000
0000
1000
,  // measure 42
0000
1000
0000
1000
0000
0000
1000
0000
,  // measure 43
0001
0000
0100
0000
0010
0000
1000
0100
,  // measure 44
0000
0010
0000
0001
1000
0000
0000
0000
,  // measure 45
0000
0000
0001
0100
,  // measure 46
0010
2000
0000
0000
,  // measure 47
3000
0000
0010
1000
,  // measure 48
0010
0200
0000
0300
,  // measure 49
0000
0020
0000
0000
,  // measure 50
0000
0030
0000
0000
,  // measure 51
0000
1000
0000
0001
,  // measure 52
0000
0100
0010
1000
,  // measure 53
0000
2002
0000
0000
,  // measure 54
0000
3003
0000
0000
,  // measure 55
0000
1000
0000
0000
,  // measure 56
0000
0000
0000
0000
,  // measure 57
0000
0001
0000
0000
,  // measure 58
0000
0000
0000
0000
,  // measure 59
0000
0100
0000
0010
,  // measure 60
0000
1000
0010
0100
,  // measure 61
0000
1000
1000
1000
,  // measure 62
0000
0001
0000
0100
0000
0001
0000
0000
,  // measure 63
0000
1000
0001
0100
,  // measure 64
0000
0010
0000
0100
0000
0010
1000
0000
,  // measure 65
0000
1000
1000
0001
,  // measure 66
0001
0100
0100
0010
,  // measure 67
0010
0000
0100
0000
0000
0010
0000
0000
,  // measure 68
0000
1000
0000
0001
,  // measure 69
0000
0000
0000
1000
,  // measure 70
0001
0100
0000
0010
,  // measure 71
0000
1001
0000
0000
0000
0000
0000
0000
;

//---------------dance-double - ----------------
#NOTES:
     dance-double:
     :
     Challenge:
     7:
     0.486,0.560,0.235,0.310,0.000:
00000000
00000000
00000000
00000000
,
00000000
00000000
00000000
00000000
,
00000000
00000000
00000000
00000000
,
00000000
00000000
00000000
00000000
,
10000000
10000000
01000000
01000000
,
00100000
00100000
00001000
00001000
,
00011000
00000000
00000000
00110000
00000000
00000000
00000000
00000000
,
00200000
00000000
00002000
00303000
,
00010100
00000000
00001000
00000000
00000001
00000000
00000001
00000100
,
00000000
00000010
00000100
00000010
00000000
00000000
00000000
00000000
,
00000010
00000100
00001000
00000100
,
00010000
00001000
00100000
00010000
00000000
10000000
00010000
01000000
,
00100000
00000000
00000000
01000000
00000000
00010000
00100000
00000000
,
10000000
01000000
00100000
00010000
00000000
00000000
00000000
00000100
,
00001000
00000000
00000101
00000000
00000110
00000000
00000001
00000010
,
00000000
00000001
00000000
00000100
00000010
00000000
00001000
00000000
,
00000001
00000100
00000001
00000010
00000000
00000010
00000000
00000001
,
00000010
00000100
00001000
00000100
00000000
00001000
00000000
00000100
,
00010000
00001000
00100000
00010000
00000000
01000000
00000000
00100000
,
10000000
00010000
00100000
00010000
00000000
01000000
00000000
00010000
,
02000000
03200000
20300000
30020000
,
00230000
00302000
00023000
00030200
,
00001300
00000000
00000000
00002000
00000002
00000000
00000000
00000000
,
00003003
00000000
00000000
00000000
00000000
00000000
00000000
00000010
,
00000100
00000010
00000100
00000001
00000000
00000000
00000000
00000000
,
00001100
00001100
00101000
00100000
,
10000000
00010000
10000000
00010000
01000000
00010000
00100000
00020000
,
00000000
00100000
00100000
00130000
00000000
10000000
01000000
00100000
,
00001000
00010000
00000100
00001000
00000100
00000010
00000001
00000020
,
00000000
00000001
00000001
00000031
00000000
00000001
00000010
00000100
,
00001000
00000100
00010000
00000000
00011000
00000000
00010000
00100000
,
00000000
10000000
00010000
01000000
00000000
00100000
10000000
00010000
,
10000000
00000000
00010000
00000000
00100000
00000000
10000000
01000000
,
00000000
00100000
00000000
00020000
02000000
00000000
03030000
00000000
,
01000000
00100000
10000000
00010000
01000000
00100000
10000000
00200000
,
00000000
10000000
10000000
10300000
00000000
01000000
00010000
00100000
,
00001000
00010000
00000100
00000001
00001000
00000001
00000010
00000020
,
00000000
00000100
00000100
00000130
00000000
00000010
00001000
00000001
,
00000100
00000001
00000100
00000000
00010100
00000000
00100000
01000000
,
00000000
01000000
00100000
00010000
00000000
10000000
01000000
00100000
,
01000000
00000000
00100000
00000000
00010000
00000000
10000000
00010000
,
00000000
10000000
00000000
00020000
00000000
00000000
01030000
00000000
,
00110000
00000000
00110000
00000000
10000000
00010000
01000000
00001000
,
00000000
00001000
00000000
00020000
00002000
00000000
00000000
00000000
,
00033000
00000000
00000100
00001000
00000100
00000010
00000001
00000000
,
00000001
00000000
00000010
00000000
00000200
00002000
00000000
00000000
,
00003300
00000000
00000100
00010000
00001000
00100000
00010000
00000000
,
00110000
00000000
10010000
00000000
10000000
00010000
00000000
10000000
,
01000000
00010000
00200000
00000000
00001000
00301000
00000000
00000000
,
00000000
00000000
00000000
00000000
,
00000000
10000000
00010000
00000000
00010000
02000000
00000000
00100000
,
00000000
03010000
00000000
00000000
20000000
00020000
00000000
00000000
,
30030000
00000000
00000000
00000000
,
00000000
01001000
00000000
00000000
,
00000000
10000000
01000000
00100000
,
00001000
00010000
00000000
00000100
00001000
00000020
00000000
00000100
,
00000130
00000010
00000010
00000010
,
00000010
00000100
00000000
00010000
00000100
00010000
00000000
00001000
,
00100000
00010000
01000000
00100000
10000000
00010000
01000000
00100000
,
00010000
20000000
00000000
01000000
01000000
31000000
00000000
10000000
,
01000000
00100000
00020000
00000000
00100000
00000000
01030000
00000000
,
10000000
10010000
00000000
01010000
00000000
00110000
00000000
00000000
,
11000000
10010000
01010000
01100000
,
10000000
02000000
00000000
10000000
00000000
10000000
20000000
00000000
,
33000000
10000000
01000000
00100000
,
00001000
00010000
00000010
00000100
,
00000001
00000020
00000000
00000030
,
00000000
00001100
00000000
00110000
,
00000000
00000000
00000000
00000000
00000000
00000000
10000000
01000000
,
00100000
01000000
10000000
00010000
00000000
00000100
00001000
00010000
,
00000100
00010100
00000000
00000000
00000000
00000000
00000000
00000000
;

//---------------dance-single - ----------------
#NOTES:
     dance-single:
     :
     Beginner:
     1:
     0.070,0.164,0.038,0.000,0.000:
0000
0000
0000
0000
,
0000
0000
0000
0000
,
0000
0000
0000
0000
,
0000
0000
0000
0000
,
0001
0000
0000
0000
,
0001
0000
0000
0000
,
1000
0000
0000
0000
,
0010
0000
0010
0000
,
0010
0000
0000
0000
,
0000
0000
0000
0000
,
1000
0000
0000
0000
,
0000
0000
0000
0000
,
0001
0000
0000
0000
,
0100
0000
0000
0000
,
0010
0000
0000
0000
,
0000
0000
0000
0000
,
1000
0000
0000
0000
,
1000
0000
0000
0000
,
0010
0000
0000
0000
,
0010
0000
0000
0000
,
0100
0000
0000
0000
,
0100
0000
0000
0000
,
0001
0000
0001
0000
,
0000
0000
0000
0000
,
1000
0000
0000
0000
,
0000
0000
0000
0000
,
0110
0000
0000
0000
,
0000
0000
0000
0000
,
0010
0000
0000
0000
,
0000
0000
0000
0000
,
1000
0000
0000
0000
,
0000
0000
0000
0000
,
0001
0000
0001
0000
,
0001
0000
0000
0000
,
1001
0000
0000
0000
,
0000
0000
0000
0000
,
1000
0000
0000
0000
,
0000
0000
0000
0000
,
0010
0000
0000
0000
,
0000
0000
0000
0000
,
0100
0000
0000
0000
,
0000
0000
0000
0000
,
0100
0000
0000
0000
,
0000
0000
0000
0000
,
1001
0001
0000
0000
,
0000
0000
0000
0000
,
0000
1000
0000
0000
,
0000
0000
0000
0000
,
0000
0010
0000
0000
,
0000
0000
0000
0000
,
0000
0100
0000
0000
,
0000
0000
0000
0000
,
0000
0000
0000
0000
,
0000
1001
0000
0000
,
0000
0001
0000
0000
,
0000
0000
0000
0000
,
0000
0001
0000
0000
,
0000
0000
0000
0000
,
0000
1000
0000
0000
,
0000
0000
0000
0000
,
0000
0010
0000
0000
,
0000
0010
0000
0000
,
0000
0010
0000
0000
,
0000
0000
0000
0000
,
0000
0100
0000
0000
,
0000
0000
0000
0000
,
0000
1000
0000
0000
,
0000
0001
0000
0001
,
0000
0000
0000
1000
,
0000
0000
0000
0010
;
