#TITLE:NEW YORK;
#SUBTITLE:;
#ARTIST:FUZITA BLENDER;
#TITLETRANSLIT:;
#SUBTITLETRANSLIT:;
#ARTISTTRANSLIT:;
#CREDIT:;
#BANNER:bn.PNG;
#BACKGROUND:bg.PNG;
#LYRICSPATH:;
#CDTITLE:Beatmania IIDX.png;
#MUSIC:New York.mp3;
#OFFSET:-0.420;
#SAMPLESTART:25.100;
#SAMPLELENGTH:12.500;
#SELECTABLE:YES;
#BPMS:0.000=136.000;
#STOPS:;
#BGCHANGES:;

//---------------dance-single - ----------------
#NOTES:
     dance-single:
     :
     Hard:
     7:
     0.426,0.535,0.041,0.257,0.093:
0000
0000
0000
0000
,
0000
0000
0000
0000
,
0002
0000
0000
0000
,
0200
0000
0000
0003
,
0020
0000
0000
0300
0000
0100
0000
0230
,
0020
0000
0000
0330
,
2000
0000
0000
0000
0000
0100
0000
0100
,
0200
0000
0000
0000
3000
1000
0000
1000
,
2000
0000
0000
0000
0300
0010
0000
0010
,
0020
0000
0000
3030
,
0001
1000
0001
1000
0001
0100
0001
0100
,
0001
0010
0001
0010
0001
0010
0100
1000
,
0200
1000
1000
1000
,
1000
1000
1000
1300
,
0001
0100
0001
0100
0010
1000
0010
1000
,
0100
1000
0100
1000
0100
0010
0001
0010
,
0200
0000
0000
0300
,
0001
1000
0010
1000
1001
0001
0101
0100
,
0001
0100
0010
1000
0001
1000
0010
1000
,
0001
1000
0001
0000
1000
0001
1000
0000
0001
1000
0001
0000
1000
0001
1000
0000
,
0000
0010
1000
0010
0100
0001
0100
0010
,
0100
0010
0100
0000
0010
0100
0010
0000
1000
0100
1000
0000
0100
0001
0100
0000
,
0000
0001
1000
0001
0100
0010
1000
0001
,
1000
0100
0010
0001
0010
0100
1000
0100
,
0001
1000
0001
0100
0001
0100
0001
0100
,
0010
1000
0100
0010
0001
0010
0100
2000
,
0200
0000
0000
0300
,
0020
0000
0000
3030
,
0001
1000
0001
1000
0001
0100
0001
0100
,
0001
0010
0100
1000
0100
0010
0001
1000
,
0000
0001
1000
0010
1000
0001
0000
0000
,
0000
1000
0100
0010
0001
1000
0100
0010
,
0001
0000
0000
0000
1000
0100
0000
0000
0010
0001
0000
0000
0010
0100
0000
0000
,
0001
1000
0000
0000
1000
0100
0000
0000
0010
0001
0000
0000
0001
0100
0000
0000
,
0000
0001
1000
0010
1000
0001
0000
0000
,
0000
1000
0100
0010
0001
0010
0000
0000
,
1000
0000
0000
0000
1000
0100
0000
0000
0100
0010
0000
0000
0010
0001
0000
0000
,
0001
0010
0100
1000
0100
1000
0010
0000
,
0001
0100
0010
1000
0002
0000
0000
0003
,
0000
1000
0001
0100
0020
0000
0000
0000
,
0000
0130
0010
1000
0002
0000
0103
0000
,
2000
3100
0002
0000
,
0000
0000
0003
0000
0001
0100
0010
1000
,
0100
1000
0010
0001
0100
0001
1000
0010
,
0100
1000
0100
0010
0002
0000
0000
0000
,
0000
0000
0200
0000
,
0000
0000
0303
0001
0101
0001
0010
0100
,
1000
0100
0010
0001
1000
0001
0100
0010
,
1000
0100
1000
0100
0020
0000
0000
0000
,
2030
0000
3002
0000
,
0000
0000
0200
0000
,
0000
0000
0000
0000
0000
0000
0000
0000
0000
0000
0000
0000
0000
0000
0000
0303
,
1010
0000
0000
0000
;

//---------------dance-single - ----------------
#NOTES:
     dance-single:
     :
     Medium:
     5:
     0.329,0.455,0.010,0.380,0.000:
0000
0000
0000
0000
,
0000
0000
0000
0000
,
0002
0000
0000
0000
,
2003
0000
0000
3000
,
0020
0000
0000
0000
0000
0130
0000
0020
,
0200
0000
0000
0330
,
0002
0000
0000
0000
0000
1000
0000
2003
,
0002
0000
0000
0000
3003
0010
0000
0020
,
0200
0000
0000
0000
0330
0001
0000
2000
,
0200
0000
0000
3300
,
0001
0100
0001
0100
0001
0100
0001
0100
,
0001
0100
0001
0100
0001
0100
0001
0200
,
0002
0000
0000
0000
,
0000
0000
0000
0303
,
0010
1000
0010
1000
0010
1000
0010
1000
,
0010
1000
0010
1000
0010
1000
0010
1000
,
0020
0000
0000
0030
,
1000
0000
0001
0000
0001
0100
0010
1000
,
0001
1000
0100
0010
,
0002
0100
0100
0103
,
0000
0001
1000
0001
,
0210
0010
0010
0310
,
0000
0000
1000
0000
0100
0000
0010
1000
,
0001
0000
0100
0000
0100
0000
0010
1000
,
0001
0000
0001
0000
0001
0000
0001
1000
,
0100
0000
0100
0000
0100
0000
0100
1000
,
0200
0000
0000
0000
,
2300
0000
3020
0000
,
0230
0000
0302
0000
,
2003
0000
0000
0000
3100
1000
0100
1000
,
0000
0010
0100
1000
,
0100
0010
0001
1000
,
0002
0100
0100
0100
,
0100
0100
0100
0103
,
0001
1000
0100
0010
,
0001
0000
0010
0000
0100
0000
0010
2000
,
0200
0000
0000
3300
,
0001
1000
0001
1000
0001
0000
0100
0000
,
0000
1000
0100
0010
0002
0000
0000
0000
,
0103
0001
0100
0001
0200
0000
0000
0000
,
0300
0010
0100
0010
0100
0000
0100
0000
,
0020
2030
0002
0000
,
0000
0000
3003
0000
0010
0100
0010
0100
,
0010
0100
0010
0100
0010
0100
0010
0100
,
0010
0100
0010
0200
0020
0000
0000
0000
,
0000
0000
0000
0000
,
0000
0000
0330
0010
0010
1000
0001
1000
,
0001
1000
0001
1000
0001
1000
0001
1000
,
0001
1000
0001
1000
0002
0000
0000
0000
,
0203
0000
0320
0000
,
0000
0000
2000
0000
,
0000
0000
0000
0000
,
3030
0000
0000
0000
;

//---------------dance-single - ----------------
#NOTES:
     dance-single:
     :
     Easy:
     2:
     0.166,0.241,0.010,0.226,0.000: // measure 1
0000
0000
0000
0000
,  // measure 2
0000
0000
0000
0000
,  // measure 3
0002
0000
0000
0000
,  // measure 4
0000
0000
0000
0003
,  // measure 5
2000
0000
0000
0000
,  // measure 6
0000
0000
0000
3000
,  // measure 7
0020
0000
0000
0000
,  // measure 8
0000
0000
0000
0030
,  // measure 9
0200
0000
0000
0000
,  // measure 10
0020
0000
0000
0330
,  // measure 11
0001
0001
1000
1000
,  // measure 12
0001
1000
0100
0010
,  // measure 13
0002
0000
0000
0000
,  // measure 14
0000
0000
0000
0003
,  // measure 15
0100
0010
1000
0001
,  // measure 16
0100
0001
0010
1000
,  // measure 17
0200
0000
0000
0300
,  // measure 18
0010
0000
0010
0000
,  // measure 19
0000
1000
0001
0100
,  // measure 20
0020
0000
0000
0030
,  // measure 21
0000
0100
0010
1000
,  // measure 22
0002
0000
0000
0003
,  // measure 23
0000
1000
0100
0010
,  // measure 24
0002
0000
0000
0003
,  // measure 25
0000
0001
0010
0100
,  // measure 26
2000
0000
0000
3000
,  // measure 27
0002
0000
0000
0000
,  // measure 28
0000
0000
0000
0000
,  // measure 29
1003
0000
0001
0000
,  // measure 30
0001
1000
0100
0010
,  // measure 31
0000
0001
0000
0000
,  // measure 32
0000
1000
0000
0000
,  // measure 33
0000
0020
0000
0000
,  // measure 34
0000
0000
0000
0000
,  // measure 35
0130
0100
0000
0000
,  // measure 36
1000
1000
0000
0000
,  // measure 37
0000
1000
0100
0010
,  // measure 38
0002
0000
0000
0003
,  // measure 39
0000
0100
0200
0300
,  // measure 40
0000
0010
0020
0030
,  // measure 41
0000
1000
0001
0001
,  // measure 42
1000
1000
0002
0000
,  // measure 43
0000
0003
0100
0100
,  // measure 44
0010
0010
1000
1000
,  // measure 45
0001
0001
0200
0000
,  // measure 46
0000
0000
0000
0000
,  // measure 47
0000
0300
0110
0010
,  // measure 48
0100
1000
0100
0010
,  // measure 49
0001
0010
0200
0000
,  // measure 50
0320
0000
2030
0000
,  // measure 51
0000
0000
0002
0000
,  // measure 52
0000
0000
0000
0000
,  // measure 53
3003
0000
0000
0000
;

//---------------dance-single - ----------------
#NOTES:
     dance-single:
     :
     Beginner:
     1:
     0.071,0.107,0.010,0.000,0.000: // measure 1
0000
0000
0000
0000
,  // measure 2
0000
0000
0000
0000
,  // measure 3
0100
0000
0000
0000
,  // measure 4
0000
0000
0000
0000
,  // measure 5
0010
0000
0000
0000
,  // measure 6
0000
0000
0000
0000
,  // measure 7
1000
0000
0000
0000
,  // measure 8
0001
0000
0000
0000
,  // measure 9
0100
0000
0000
0000
,  // measure 10
0010
0000
0000
0000
,  // measure 11
1000
0000
0000
0000
,  // measure 12
0000
0000
0000
0000
,  // measure 13
0000
0000
0000
0000
,  // measure 14
0000
0000
0000
0000
,  // measure 15
0001
0000
0000
0000
,  // measure 16
0000
0000
0000
0000
,  // measure 17
0100
0000
0000
0000
,  // measure 18
0010
0000
0010
0000
,  // measure 19
0100
0000
0000
0000
,  // measure 20
1000
0000
0001
0000
,  // measure 21
0000
0000
0000
0000
,  // measure 22
0100
0000
0100
0000
,  // measure 23
0010
0000
0000
0000
,  // measure 24
0000
0000
0000
0000
,  // measure 25
0100
0000
0000
0000
,  // measure 26
0000
0000
0000
0000
,  // measure 27
1000
0000
0000
0000
,  // measure 28
0001
0000
0000
0000
,  // measure 29
0100
0000
0100
0000
,  // measure 30
0100
0000
0100
0000
,  // measure 31
0000
0010
0000
0000
,  // measure 32
0000
0010
0000
0000
,  // measure 33
0000
0100
0000
0000
,  // measure 34
0000
0000
0000
0000
,  // measure 35
0000
1000
0000
0000
,  // measure 36
0000
0001
0000
0000
,  // measure 37
0000
0010
0000
0000
,  // measure 38
0100
0000
0000
0000
,  // measure 39
0000
1000
1000
0000
,  // measure 40
0000
0001
0001
0000
,  // measure 41
0000
0010
0010
0000
,  // measure 42
0010
0000
0010
0000
,  // measure 43
0000
0000
0100
0000
,  // measure 44
0000
0000
0000
0000
,  // measure 45
0000
0000
0100
0000
,  // measure 46
0000
0000
0000
0000
,  // measure 47
0000
0000
1001
0000
,  // measure 48
0000
0000
0000
0000
,  // measure 49
0000
0000
0001
0000
,  // measure 50
1000
0000
0100
0000
,  // measure 51
0000
0000
1000
0000
,  // measure 52
0000
0000
0000
0000
,  // measure 53
0100
0000
0000
0000
;
