#TITLE:Moon Race;
#SUBTITLE:;
#ARTIST:Elektel;
#TITLETRANSLIT:;
#SUBTITLETRANSLIT:;
#ARTISTTRANSLIT:;
#CREDIT:;
#BANNER:bn.PNG;
#BACKGROUND:bg.PNG;
#LYRICSPATH:;
#CDTITLE:12 happy.png;
#MUSIC:moonrace.ogg;
#OFFSET:1.070;
#SAMPLESTART:20.149;
#SAMPLELENGTH:11.960;
#SELECTABLE:YES;
#BPMS:0.000=147.000;
#STOPS:;
#BGCHANGES:;

//---------------dance-single - ----------------
#NOTES:
     dance-single:
     :
     Hard:
     7:
     0.450,0.525,0.114,0.257,0.148:
0000
0000
0000
0000
,
0000
0000
0000
0000
,
0000
0000
0000
0000
,
0000
0000
0000
0000
,
0000
0000
0000
0000
,
1000
0000
0000
0000
0001
0000
0000
0000
0010
0000
0000
0100
0000
0000
0001
0000
,
2000
3100
0001
0020
,
0031
0100
0020
1000
,
0200
0000
0000
0330
,
1000
0000
0000
0001
0000
0000
0100
0000
0010
0000
0000
1000
0000
0000
0001
0000
,
0100
0110
2000
0100
,
0020
3030
0002
0010
,
0200
0000
0000
0303
,
1001
0000
0000
0000
0000
0000
0000
0000
1000
0000
0000
0001
0000
0000
0100
0010
,
0100
0000
0000
0000
0000
1000
0001
0100
,
0001
0000
0000
0000
0000
0000
0000
0000
1000
0000
0000
0000
0000
0000
0000
0010
,
0100
1000
0001
0000
0000
0000
0000
0000
0000
0000
0000
0000
0000
0000
0000
0000
,
0110
0000
0000
0000
0000
0000
0000
0000
1000
0000
0000
0001
0000
0000
0100
0010
,
2000
0000
0100
0000
3010
0100
0010
1000
,
1001
0000
0000
0000
0001
0000
0000
0000
0011
0000
0000
0000
1000
0000
0000
0001
,
1000
0002
0200
0000
0000
0000
0000
0000
0000
0000
0000
0000
0000
0000
0303
0000
,
0010
1000
0001
0000
0100
0000
0100
0000
,
0010
1000
0001
0000
1000
0000
0100
0000
,
0010
1000
0001
0000
0100
0010
1000
0000
,
0001
1000
0010
0000
0100
1000
0001
0000
,
1000
0100
1000
0000
0020
0000
0130
0000
,
0001
1000
0010
0000
0200
0000
0310
0000
,
0001
1000
0010
0000
0010
1000
0001
0000
,
0100
0000
0100
0000
0010
1000
0001
0001
,
0000
0000
1000
0000
0000
0100
0000
0000
0010
0000
0000
0001
0000
0000
1000
0000
,
0002
0000
0000
0000
0003
0000
0000
0100
,
0010
0000
0000
0000
1000
0000
0000
0100
,
1000
0000
0100
0000
0010
0000
0001
0000
0010
0000
0000
0010
0000
0000
0010
0000
,
0000
0000
0001
0000
0000
1000
0000
0000
0010
0000
0000
1000
0000
0000
0010
0000
,
0200
0000
0000
0000
0000
0000
0000
0000
0000
0000
0000
0000
0300
0000
0010
1000
,
0010
0000
0000
0000
0011
0000
0000
0001
,
0001
1000
0200
0000
0000
0000
0000
0000
0000
0000
0000
0000
0300
0000
0000
0000
,
0001
0000
0000
0000
0000
0000
0000
0000
0000
0000
0000
0000
0100
0000
0000
0000
0000
0000
0000
0000
0000
0010
1000
0010
,
1000
0000
0000
0000
1000
0000
0000
0100
,
0001
0000
0000
0000
0000
0000
0000
0000
0001
0000
0000
0000
0000
0000
0001
1000
,
0010
0100
0010
0000
1000
0001
0100
0000
,
1100
0000
0000
0000
0000
0000
0010
0000
0000
0001
0000
0000
0010
0000
0000
0000
0000
0000
0100
0000
0000
0001
0100
0001
,
0100
0000
0010
0000
0110
0000
0010
1000
,
0001
0000
1000
0000
1100
0000
0010
0001
,
0100
0000
0010
0000
1000
0001
0100
0010
,
2000
0000
0000
3000
,
0002
0000
0000
0003
,
0200
0000
0000
0300
,
0020
0000
0000
0030
,
1000
0000
0000
1000
0000
0000
1000
0000
0000
1000
0000
0000
1000
0000
0000
0000
,
0001
0000
0000
0001
0000
0000
0001
0000
0000
0001
0000
0000
0001
0000
0000
0000
,
0100
0000
0000
0010
0000
0000
0100
0000
0000
0010
0000
0000
0100
0000
0000
0000
,
0001
0000
0000
0010
0000
0000
0100
0000
0000
1000
0000
0000
0100
0000
0000
0000
,
0001
0000
1001
0000
0010
1000
0001
0000
,
1000
0000
1100
0000
0010
1000
0010
0000
,
0200
0010
0010
0010
,
0001
0001
0001
0301
,
0001
0000
1001
0000
0001
1000
0100
0000
,
0010
0000
0100
0000
0010
0100
0001
0000
,
2000
0100
0010
0001
,
3002
0000
0100
0000
0010
0000
1003
0001
,
0100
0010
1000
0010
0200
0000
0310
0000
,
0001
1000
0010
0100
0020
0000
1030
0000
,
1000
0100
1000
0000
0001
0100
0001
0000
,
0001
1000
0010
1000
0001
0100
0010
1000
,
0010
0100
0001
1000
0200
0000
1300
0000
,
0010
1000
0010
0100
0020
0000
0130
0000
,
0001
1000
0010
0000
0001
1000
0010
0000
,
0010
1000
0001
0100
0001
0010
0100
1000
;

//---------------dance-single - ----------------
#NOTES:
     dance-single:
     :
     Medium:
     5:
     0.322,0.459,0.181,0.114,0.033:
0000
0000
0000
0000
,
0000
0000
0000
0000
,
0000
0000
0000
0000
,
0000
0000
0000
0000
,
0000
0000
0000
0000
,
1001
0000
0000
0000
0000
0000
0000
0000
0001
0000
0000
0100
0000
0000
0001
0000
,
0200
0000
0001
0001
,
0002
0303
1000
1000
,
2000
0000
0000
3000
,
0001
1000
0001
0100
,
0010
1000
0001
0001
,
0002
0000
1000
1000
,
2000
0000
0000
3003
,
0000
0000
0000
0000
0000
0000
0000
0000
0001
0000
0000
0100
0000
0000
0010
0000
,
1000
0000
0000
0000
0000
0001
1000
0001
,
1000
0000
1001
0000
,
0100
0010
0000
0000
0000
0000
0000
0000
,
1000
0000
0000
0000
0000
0000
0000
0000
0001
0000
0000
0100
0000
0000
0001
0000
,
0100
0000
0000
0000
0000
1000
0001
1000
,
0100
0000
0010
0000
,
0001
0100
0000
0000
0000
0000
0000
0000
,
1000
0001
0100
0010
,
1000
0000
0001
0000
1000
0000
0100
1000
,
0100
1000
0100
0010
,
0011
0011
1100
1100
,
0001
1000
0001
0000
0100
0000
0100
0000
,
0010
1000
0010
0000
0100
0000
0100
0000
,
0001
1000
0010
0000
0100
0000
0010
0000
,
1000
0001
0100
0000
0010
0000
1000
0000
,
0000
0000
0001
0000
0000
1000
0000
0000
0001
0000
0000
0100
0000
0000
0001
0000
,
0100
0000
0000
0000
0000
0000
0000
1000
,
0100
0000
0000
0000
1000
0000
0000
0001
,
0100
0000
0000
0000
,
0000
0000
0010
0000
0000
1000
0000
0000
0001
0000
0000
0100
0000
0000
0001
0000
,
0100
0000
0000
0000
0000
0000
0000
1000
,
0100
0000
0000
0000
0001
0000
0000
0100
,
0001
0000
0000
0000
,
1000
0000
0001
0000
,
0110
0000
0000
0000
0010
0000
0000
0100
,
0010
0000
1000
0000
,
1001
0000
0001
0100
,
1010
0000
0100
0000
,
1001
0000
0100
0000
,
1000
0000
0100
0000
,
0011
0000
0100
0000
,
0020
0000
0000
0030
,
2000
0000
0000
3000
,
0002
0000
0000
0003
,
0200
0000
0000
0300
,
0010
1000
0010
0100
,
0010
0000
0000
0000
,
1000
0001
0100
0010
,
2020
0000
0000
3030
,
1000
0001
0100
0010
,
1000
0000
0010
0000
0100
0000
0010
1000
,
0001
0001
1000
1000
,
1001
0000
0000
0101
0000
0000
0000
0000
,
1001
0001
0100
0010
,
1000
0000
1000
0000
0010
0000
0100
0010
,
2000
0000
0000
3000
,
1001
0000
0000
0101
0000
0000
0000
0000
,
0001
1000
0001
0000
0100
0000
0010
0000
,
1000
0010
1000
0000
0100
0000
0010
0000
,
1000
0001
0100
0000
0001
0000
0100
0000
,
0001
1000
0100
0000
1000
0100
1000
0000
,
1000
0100
1000
0000
0010
0000
0100
0000
,
0001
1000
0010
0000
0010
0000
0010
0000
,
0010
1000
0001
0000
0001
1000
0100
0000
,
1100
0000
0010
0000
0011
0000
0001
1000
;

//---------------dance-single - ----------------
#NOTES:
     dance-single:
     :
     Easy:
     3:
     0.239,0.295,0.000,0.162,0.000:
0000
0000
0000
0000
,
0000
0000
0000
0000
,
0000
0000
0000
0000
,
0000
0000
0000
0000
,
0000
0000
0000
0000
,
0000
0000
1000
0100
,
0002
0000
0010
0010
,
0023
0000
1000
1000
,
2000
0000
0000
3030
,
0001
1000
0100
0010
,
0001
1000
0100
1000
,
0200
0000
0001
0001
,
0002
0000
0000
0303
,
0000
0000
1000
0100
,
0010
0000
0000
1000
,
0001
0000
0010
0000
,
1000
0000
0000
0000
,
0100
0000
0010
1000
,
0001
0000
0000
1000
,
0100
0000
0010
0000
,
0002
0003
0000
0000
,
1000
0100
0001
0100
,
1000
0010
0001
0010
,
1000
0100
1000
0010
,
0001
0010
0100
1000
,
0001
1000
0001
0100
,
0010
0100
0010
1000
,
0100
0010
0001
1000
,
0001
0010
0100
1000
,
0001
0000
0010
0000
,
0100
0000
0000
0000
,
1000
0000
0001
0000
,
0010
0000
0000
0000
,
0000
0100
1000
0001
,
0010
0000
0000
0000
,
1000
0000
0001
0000
,
0010
0000
0000
0000
,
0100
0000
1000
0000
,
0010
0000
0001
0000
,
1000
0000
0001
0000
,
0010
0000
0100
0000
,
1000
0000
0010
0000
,
0001
0000
0100
0000
,
0010
0000
1000
0000
,
0001
0000
0100
0000
,
2000
0000
0000
3000
,
0002
0000
0000
0003
,
0020
0000
0000
0030
,
0200
0000
0000
0300
,
0002
0000
0000
0003
,
2000
0000
0000
3000
,
0020
0000
0000
0030
,
0200
0000
0000
0300
,
1000
0100
0001
0010
,
1000
0001
0100
0020
,
0002
0000
0000
0000
,
0000
0000
0000
0033
,
1000
0001
0100
0010
,
0001
1000
0001
0010
,
2000
0100
0000
0100
,
0000
0100
0000
3100
,
0001
1000
0100
0010
,
0001
1000
0001
0100
,
0010
1000
0100
0010
,
0001
1000
0001
0100
,
0010
1000
0100
0001
,
0010
1000
0001
0100
,
0010
1000
0100
0010
,
0001
1000
0100
0010
;

//---------------dance-double - ----------------
#NOTES:
     dance-double:
     :
     Challenge:
     7:
     0.401,0.526,0.333,0.229,0.100:
00000000
00000000
00000000
00000000
,
00000000
00000000
00000000
00000000
,
00000000
00000000
00000000
00000000
,
00000000
00000000
00000000
00000000
,
00000000
00000000
00000000
00000000
,
00000000
00000000
00000000
00000000
00000000
00000000
00000000
00000000
10000000
00000000
00000000
00010000
00000000
00000000
01000000
00000000
,
00200000
00000000
01000000
01000000
,
02300000
03010000
02010000
00010000
,
00002000
00000000
00000000
03003000
,
00000000
00000000
00000000
00000000
00000000
00000000
00000000
00000000
00001000
00000000
00000000
00000001
00000000
00000000
00000100
00000000
,
00000020
00000000
00000100
00000100
,
00000230
00000301
00000201
00000001
,
00000002
00000000
00000000
00000303
,
00000000
00000000
00000000
00000000
00000000
00000000
00000000
00000000
00000100
00000000
00000000
00000100
00000000
00000000
00000010
00000100
,
00000001
00000000
00000000
00000000
00000000
00000010
00000100
00001000
,
00001001
00000000
00000000
00000000
00000000
00000000
00000000
00000000
00001100
00000000
00000000
00000000
00000000
00000000
00000000
00001000
,
01000000
00100000
01000000
00000000
00000000
00000000
00000000
00000000
00000000
00000000
00000000
00000000
00000000
00000000
00000000
00000000
,
00000000
00000000
00000000
00000000
00000000
00000000
00000000
00000000
10000000
00000000
00000000
00010000
00000000
00000000
00100000
10000000
,
00010000
00000000
00000000
00000000
00000000
10000000
10000000
00010000
,
01100000
00000000
00000000
00000000
00000000
00000000
00000000
00000000
00011000
00000000
00000000
00000000
00000000
00000000
00000000
00000010
,
00000001
00000100
00000020
00000000
00000000
00000000
00000000
00000000
00000030
00000000
00000000
00000000
00000000
00000000
00000000
00000000
,
00000001
00000010
00000100
00000000
00001000
00000000
00001000
00000000
,
00000001
00001000
00000010
00000000
00000100
00000000
00001100
00000000
,
00000100
00010000
00001000
00000000
00110000
00000000
01100000
00000000
,
10000000
00010000
01000000
00000000
00100000
10000000
00010000
00000000
,
10000000
01000000
10000000
00000000
01000000
00000000
00100000
00000000
,
00010000
10000000
00010000
00000000
01000000
00000000
01000000
00000000
,
00001000
00100000
00010000
00000000
01000000
00001000
00010000
00000000
,
00010000
00000100
00000010
00000100
00001000
00000001
00000100
00000010
,
00001000
00000000
00000010
00000000
00000000
00000010
00000000
00000000
00000010
00000000
00000000
00000010
00000000
00000000
00000010
00000000
,
00001010
00000000
00000000
00000000
00000000
00000000
00000000
00000000
00000000
00000000
00000000
00000000
00000000
00000000
00001000
00100000
,
00010000
00000000
00000000
00000000
00110000
00000000
00000000
10000000
,
01000000
00000000
00000000
00000000
,
00000000
00000000
10000000
00000000
00000000
10000000
00000000
00000000
10000000
00000000
00000000
10000000
00000000
00000000
10000000
00000000
,
01010000
00000000
00000000
00000000
00000000
00000000
00000000
00000000
00000000
00000000
00000000
00000000
00000000
00000000
00100000
00001000
,
00010000
00000000
00000000
00000000
00011000
00000000
00000000
01000000
,
00001000
01000000
00001000
00000000
00000000
00000000
00000000
00000000
00000000
00000000
00000000
00000000
00000000
00000000
00000000
00000000
,
10010000
00000000
01010000
00000000
,
00011000
00000000
00001100
00000000
,
00001001
00000000
00000101
00000000
,
00011000
00000000
00011000
00000000
,
00001100
00000000
00000110
00000000
,
00011000
00000000
00110000
00000000
,
10010000
00000000
11000000
00000000
,
01100000
00000000
00110000
00000000
,
00000200
00000000
00000000
00000300
,
00020000
00000000
00000000
00030000
,
00002000
00000000
00000000
00003000
,
02000000
00000000
00000000
00000000
,
03100000
00000000
00000000
10000000
00000000
00000000
01000000
00000000
00000000
00100000
00000000
00000000
00010000
00000000
00000000
00000000
,
00000010
00000000
00000000
00001000
00000000
00000000
00000100
00000000
00000000
00000001
00000000
00000000
00001000
00000000
00000000
00000000
,
00000002
00000013
00000020
00000130
,
00002200
00000000
00000000
00003300
,
00000200
00001000
00010000
00001000
,
00010000
00001000
00010300
00011000
,
00210000
00001000
00010000
00001000
,
00010000
00001000
00010000
00301000
,
02000000
10000000
00100000
00010000
,
00010000
00000000
00100000
00000000
13000000
00000000
00010000
10000000
,
00200000
00010000
01000000
10000000
,
01000000
00010000
01000000
10300000
,
10010000
00010000
01000000
00000000
00010000
00000000
00010100
00000000
,
00001000
00000100
00001000
00000000
00000010
00000000
00000101
00000000
,
00000001
00000010
00000001
00000000
00001000
00000100
00001000
00000000
,
00000001
00000010
00000100
00000000
00010000
00001000
01000000
00000000
,
00100000
10000000
00010000
00000000
20000000
00000000
31000000
00000000
,
00010000
01000000
00100000
00000000
02000000
00000000
03100000
00000000
,
10000000
01000000
00100000
00000000
00010000
01000000
00100000
00000000
,
10000000
01000000
00100000
00010000
00100000
00001000
00010000
00000200
,
00000300
00000000
00000000
00000000
;

//---------------dance-single - ----------------
#NOTES:
     dance-single:
     :
     Beginner:
     1:
     0.073,0.130,0.019,0.000,0.000: // measure 1
0000
0000
0000
0000
,  // measure 2
0000
0000
0000
0000
,  // measure 3
0000
0000
0000
0000
,  // measure 4
0000
0000
0000
0000
,  // measure 5
0000
0000
0000
0000
,  // measure 6
1000
0000
0000
0000
,  // measure 7
1000
0000
0000
0000
,  // measure 8
0001
0000
0000
0000
,  // measure 9
0001
0000
0000
0000
,  // measure 10
0000
0000
1000
0000
,  // measure 11
0000
0000
1000
0000
,  // measure 12
0000
0000
0001
0000
,  // measure 13
0001
0000
0000
0000
,  // measure 14
0010
0000
0000
0000
,  // measure 15
0000
0000
0000
0000
,  // measure 16
0100
0000
0000
0000
,  // measure 17
0000
0000
0000
0000
,  // measure 18
0000
0000
1000
0000
,  // measure 19
0000
0000
0000
0000
,  // measure 20
0001
0000
0000
0000
,  // measure 21
0000
0000
0000
0000
,  // measure 22
0010
0000
0000
0000
,  // measure 23
1000
0000
0000
0000
,  // measure 24
0001
0000
0000
0000
,  // measure 25
0100
0000
0000
0000
,  // measure 26
0010
0000
0000
0000
,  // measure 27
1000
0000
0000
0000
,  // measure 28
0001
0000
0000
0000
,  // measure 29
1000
0000
0000
0000
,  // measure 30
0010
0000
0000
0000
,  // measure 31
0000
0000
0000
0000
,  // measure 32
0100
0000
0000
0000
,  // measure 33
0000
0000
0000
0000
,  // measure 34
1000
0000
0000
0000
,  // measure 35
0000
0000
0000
0000
,  // measure 36
0001
0000
0000
0000
,  // measure 37
1000
0000
0000
0000
,  // measure 38
0010
0000
0000
0000
,  // measure 39
0110
0000
0000
0000
,  // measure 40
0100
0000
0000
0000
,  // measure 41
0100
0000
0000
0000
,  // measure 42
1000
0000
0000
0000
,  // measure 43
1001
0000
0000
0000
,  // measure 44
0001
0000
0000
0000
,  // measure 45
0100
0000
0000
0000
,  // measure 46
0010
0000
0000
0000
,  // measure 47
0000
0000
0000
0000
,  // measure 48
0000
0000
0000
0000
,  // measure 49
0000
0000
0000
0000
,  // measure 50
1000
0000
0000
0000
,  // measure 51
1000
0000
0000
0000
,  // measure 52
0001
0000
0000
0000
,  // measure 53
0001
0000
0000
0000
,  // measure 54
0100
0000
0000
0000
,  // measure 55
0000
0000
0000
0010
,  // measure 56
0010
0000
0000
0000
,  // measure 57
0000
0000
0000
0000
,  // measure 58
1000
0000
0000
0000
,  // measure 59
0000
0000
0000
0001
,  // measure 60
0001
0000
0000
0000
,  // measure 61
0000
0000
0000
0000
,  // measure 62
0100
0000
0000
0000
,  // measure 63
0010
0000
0000
0000
,  // measure 64
1000
0000
0000
0000
,  // measure 65
0001
0000
0000
0000
,  // measure 66
0001
0000
0000
0000
,  // measure 67
1000
0000
0000
0000
,  // measure 68
0010
0000
0000
0000
,  // measure 69
0100
0000
0000
0000
;
