#TITLE:Mind Mapping;
#SUBTITLE:;
#ARTIST:Ryu☆;
#TITLETRANSLIT:;
#SUBTITLETRANSLIT:;
#ARTISTTRANSLIT:Ryu*;
#CREDIT:DMAxel;
#BANNER:bn.PNG;
#BACKGROUND:bg.PNG;
#LYRICSPATH:;
#CDTITLE:Beatmania IIDX.png;
#MUSIC:Mind Mapping.mp3;
#OFFSET:-0.040;
#SAMPLESTART:18.715;
#SAMPLELENGTH:12.000;
#SELECTABLE:YES;
#BPMS:0.000=128.000;
#STOPS:;
#BGCHANGES:;

//---------------dance-single - ----------------
#NOTES:
     dance-single:
     :
     Hard:
     7:
     0.384,0.412,0.052,0.279,0.031:
0000
0000
0000
0000
,
0000
0000
0000
0000
,
0000
0000
0000
0000
,
0000
0000
0000
0000
,
0000
0000
0000
0000
,
0020
0230
0302
1003
,
2000
3002
0203
0310
,
0020
0230
0302
2003
,
3001
0000
0000
0000
,
0110
0110
0110
0000
,
1000
0100
1000
0100
0010
0000
0001
0100
,
0010
0001
0010
0001
0010
0000
1000
0000
,
0001
1000
0001
1000
0100
0000
1000
0001
,
0100
0000
0000
0010
0100
0000
0000
0000
,
1000
0001
0100
0001
1000
0000
1000
0010
,
1000
0001
0010
0100
1000
0000
0001
0000
,
0001
1000
0010
1000
0010
0000
1000
0100
,
1000
1000
1000
1000
,
0001
1000
0001
0200
0000
0310
0000
0002
,
0000
1003
0000
0200
0000
1300
0000
0100
,
0000
0001
1000
0002
0000
0103
0000
2000
,
0000
0000
0000
3200
0000
0000
0300
0000
,
0001
1000
0001
0200
0000
0301
0000
0020
,
0000
0130
0000
0020
0000
1030
0000
0100
,
0001
0010
1000
0001
0000
2000
0000
0100
,
0000
0010
0000
0002
0000
0000
3003
0000
,
1000
0000
0000
0000
0100
0000
0000
1000
0000
0000
0100
0000
0010
0000
0000
0000
,
0001
0000
0000
0000
1000
0000
0000
0001
0000
0000
0100
0000
0010
0000
0000
0000
,
0001
0000
0000
0000
1000
0000
0000
0100
0000
0000
1000
0000
0100
0000
0000
0000
,
0010
0000
0000
0000
0001
0000
0000
0100
0000
0000
0001
0000
0100
0000
0000
0000
,
0010
0000
0000
0000
1000
0000
0000
0001
0000
0000
0100
0000
0010
0000
0000
0000
,
1000
0000
0000
0000
0001
0000
0000
0100
0000
0000
0010
0000
1000
0000
0000
0000
,
0101
0000
0000
0000
0001
0000
0000
0000
1000
0000
0000
0100
0000
0000
0001
0000
,
0101
0001
0100
0000
0010
1000
0001
0000
,
1000
0100
1000
0100
1000
0010
1000
0010
,
0001
0010
0001
0010
0002
0000
0013
0000
,
0001
0100
0001
0100
0010
0100
0010
0100
,
0010
0000
0000
1000
0100
0000
0000
0000
,
1000
0100
1000
0100
1000
0000
0001
0100
,
0001
0100
0010
0100
0001
0000
1000
0000
,
0001
0100
0010
1000
0010
0000
1000
0100
,
1000
0000
0000
0000
,
1000
0100
0010
0001
1000
0100
0010
0001
,
0010
0100
0010
1000
0001
0000
0010
0100
,
0001
1000
0100
0010
0001
0000
0101
0000
,
0001
0100
0001
0100
0010
0000
0001
1000
,
0010
0000
0000
1000
1000
0000
0000
0000
,
1000
0100
0010
0001
0010
0000
0100
0001
,
1000
0010
1000
0001
1000
0000
1000
0000
,
1000
0100
0010
0001
1000
0000
0001
0100
,
0010
0000
0000
0000
,
1000
0100
1000
0200
0000
1000
0000
1000
,
0000
1000
0000
1000
0000
1000
0000
1300
,
0000
0001
0100
0002
0000
0100
0000
0020
,
0000
0003
0000
0002
0000
0000
0033
0000
,
0001
0100
0001
2000
0000
3001
0000
0020
,
0000
0130
0000
2000
0000
3100
0000
0020
,
0031
0001
0010
0100
0000
2000
0000
0100
,
0000
0010
0000
0002
0000
0000
0000
0000
,
3003
0000
0000
0000
;

//---------------dance-single - ----------------
#NOTES:
     dance-single:
     :
     Medium:
     4:
     0.291,0.309,0.096,0.210,0.000:
0000
0000
0000
0000
,
0000
0000
0000
0000
,
0000
0000
0000
0000
,
0000
0000
0000
0000
,
0000
0000
0000
0000
,
0001
0000
0001
0000
0001
0000
1000
0001
,
1000
1000
2000
3100
,
0010
0000
0010
0000
0010
0000
0010
0100
,
0001
0000
0000
0000
,
1001
1001
1001
0000
,
0001
0000
1000
0000
0001
0000
0100
0001
,
0100
0010
2000
3100
,
0010
0000
1000
0000
0010
0000
0100
0010
,
1000
0000
0000
0001
0001
0000
0000
0000
,
0002
0000
2003
0000
,
3002
0000
0203
0000
,
0320
0000
2030
0000
,
0200
0000
0000
3300
,
0001
0000
0100
0010
0000
0010
0000
1000
,
0000
0001
0000
1000
0000
0001
0000
0100
,
0000
0010
0100
0010
0000
0100
0000
0200
,
0000
0000
0000
0020
0000
0000
0330
0000
,
0001
0000
1000
0001
0000
1000
0000
0001
,
0000
0100
0000
0010
0000
1000
0000
0100
,
0000
1000
0000
0100
0000
1000
0000
0100
,
0000
0020
0000
0002
0000
0000
0033
0000
,
0001
0000
0100
0000
0010
0100
0010
0000
,
1000
0000
0001
0000
1000
0001
1000
0000
,
0001
0000
0100
0000
0010
1000
0010
0000
,
0100
1000
0100
1000
,
0010
0000
0100
0000
0001
0100
0001
0000
,
1000
0000
0001
0000
0010
0001
0010
0000
,
0110
0010
0200
0000
,
1300
0000
0010
0000
0001
0100
1000
0000
,
0002
0000
1003
0000
,
1000
0100
0010
0001
2000
0000
3001
0000
,
0002
0000
1000
0000
,
1003
0000
0000
0010
0100
0000
0000
0000
,
1000
0001
1000
0001
,
1000
0001
2000
3100
,
0001
1000
0001
1000
,
0002
0000
0000
0000
,
0200
0000
0000
0303
,
0010
0100
0110
0010
,
1000
0100
0010
0011
,
0001
0010
0100
1000
,
1100
0000
0110
0000
,
0001
0000
0100
0000
1010
0000
0010
1000
,
0010
0001
1000
1100
,
0001
0000
1000
0001
1000
0000
0100
0000
,
0110
0000
0000
0000
,
0001
0000
0100
0010
0000
0010
0000
0100
,
0000
0100
0000
1000
0000
1000
0000
0001
,
0000
0001
1000
0001
0000
1000
0000
0002
,
0000
0000
0000
0200
0000
0000
0303
0000
,
0010
0100
0010
0100
0000
0010
0000
1000
,
0000
0100
0000
0010
0000
0001
0000
0010
,
0001
1000
0001
1000
0000
0001
0000
1000
,
0000
0020
0000
0200
0000
0000
0000
0000
,
0330
0000
0000
0000
;

//---------------dance-single - ----------------
#NOTES:
     dance-single:
     :
     Easy:
     3:
     0.201,0.258,0.017,0.114,0.000:
0000
0000
0000
0000
,
0000
0000
0000
0000
,
0000
0000
0000
0000
,
0000
0000
0000
0000
,
0000
0000
0000
0000
,
1000
1000
1000
0001
,
0100
0010
2000
3100
,
1000
0100
0010
0002
,
2000
0000
0000
0000
,
3003
0000
0000
0000
,
0010
0100
0010
1000
,
0001
1000
0001
0100
,
0001
1000
0001
1000
,
0001
0000
0010
0000
,
1000
0100
0010
0001
,
0100
0001
1000
0001
,
0010
0100
1000
0200
,
2000
0000
0000
3300
,
0001
0000
1000
0000
,
0100
0000
0010
0000
,
0001
0000
1000
0000
,
0002
0000
0200
0303
,
0010
0000
0100
0000
,
1000
0000
0001
0000
,
2000
0000
0000
0000
,
0000
0000
3000
0000
,
1001
0001
0100
0010
,
1000
0001
0100
0001
,
0010
1000
0100
1000
,
0100
0010
0000
0000
,
0001
1000
0001
0100
,
0010
1000
0100
0010
,
0001
0000
1000
0000
,
1001
0000
0000
0000
,
0010
0000
0010
0000
,
0100
0000
0100
0000
,
1000
0000
0001
0000
,
0100
0000
0010
0000
,
1000
1000
1000
0001
,
1000
0100
0010
0001
,
0001
0010
0100
1000
,
0001
0000
0000
0000
,
0020
0000
0000
0000
,
0130
0100
0100
0010
,
1000
0001
0100
0001
,
1000
0001
0010
0100
,
1000
0000
0001
0000
,
1000
1000
1000
0001
,
0100
0010
1000
0100
,
1000
1000
1000
0001
,
0100
0000
0000
0000
,
0010
0100
0000
0100
,
0000
1000
0000
0001
,
0000
0010
0000
0100
,
2000
0000
0000
0000
0000
3000
0000
0000
,
0001
0000
1000
0000
,
0001
0000
0100
0000
,
0010
0100
1000
0100
,
0020
0032
0200
0000
,
0303
0000
0000
0000
;

//---------------dance-single - ----------------
#NOTES:
     dance-single:
     :
     Beginner:
     1:
     0.054,0.155,0.009,0.000,0.000: // measure 1
0000
0000
0000
0000
,  // measure 2
0000
0000
0000
0000
,  // measure 3
0000
0000
0000
0000
,  // measure 4
0000
0000
0000
0000
,  // measure 5
0000
0000
0000
0000
,  // measure 6
1000
0000
0000
0000
,  // measure 7
0000
0000
0000
0000
,  // measure 8
0000
0000
0000
0000
,  // measure 9
0000
0000
0000
0000
,  // measure 10
0001
0001
0001
0000
,  // measure 11
0100
0000
0000
0000
,  // measure 12
0000
0000
0000
0000
,  // measure 13
0010
0000
0000
0000
,  // measure 14
1000
0000
0001
0000
,  // measure 15
1000
0000
0000
0000
,  // measure 16
0000
0000
0000
0000
,  // measure 17
0100
0000
0000
0000
,  // measure 18
0000
0000
0000
0000
,  // measure 19
0001
0000
0000
0000
,  // measure 20
0000
0000
0000
0000
,  // measure 21
1000
0000
0000
0000
,  // measure 22
0000
0000
0000
0000
,  // measure 23
0010
0000
0000
0000
,  // measure 24
0000
0000
0000
0000
,  // measure 25
0100
0000
0000
0000
,  // measure 26
0000
0000
0000
0000
,  // measure 27
0001
0000
0000
0000
,  // measure 28
0001
0000
0000
0000
,  // measure 29
1000
0000
0000
0000
,  // measure 30
1000
0000
0000
0000
,  // measure 31
0100
0000
0000
0000
,  // measure 32
0100
0000
0000
0000
,  // measure 33
0010
0000
0000
0000
,  // measure 34
0010
0000
0000
0000
,  // measure 35
1000
0000
0000
0000
,  // measure 36
0000
0000
0000
0000
,  // measure 37
0001
0000
0000
0000
,  // measure 38
0000
0000
0000
0000
,  // measure 39
0100
0000
0000
0000
,  // measure 40
0000
0000
0000
0000
,  // measure 41
0010
0000
0000
0000
,  // measure 42
0000
0000
0000
0000
,  // measure 43
1000
1000
1000
1000
,  // measure 44
1001
0000
0000
0000
,  // measure 45
0000
0000
0000
0000
,  // measure 46
0001
0000
0000
0000
,  // measure 47
0100
0000
0100
0000
,  // measure 48
0100
0000
0000
0000
,  // measure 49
0010
0000
0000
0000
,  // measure 50
1000
0000
0000
0000
,  // measure 51
0000
0000
0000
0000
,  // measure 52
0001
0000
0000
0000
,  // measure 53
0000
0000
0000
0000
,  // measure 54
0000
0000
0000
0000
,  // measure 55
1000
0000
0000
0000
,  // measure 56
0100
0000
0000
0000
,  // measure 57
0000
0000
0000
0000
,  // measure 58
0010
0000
0000
0000
,  // measure 59
0000
0000
0000
0000
,  // measure 60
0001
0000
0000
0000
;
