#TITLE:Metal Gear Solid;
#SUBTITLE:;
#ARTIST:Espacto Brothers;
#TITLETRANSLIT:;
#SUBTITLETRANSLIT:;
#ARTISTTRANSLIT:;
#CREDIT:;
#BANNER:bn.PNG;
#BACKGROUND:bg.PNG;
#LYRICSPATH:;
#CDTITLE:Beatmania IIDX.png;
#MUSIC:Metal Gear Solid Remix.mp3;
#OFFSET:-2.000;
#SAMPLESTART:22.000;
#SAMPLELENGTH:12.000;
#SELECTABLE:YES;
#BPMS:0.000=140.240,204.750=140.230,205.641=143.000,206.438=161.400,206.438=142.960,206.438=84.010,206.500=140.240,207.000=140.190,208.000=140.240,215.500=140.250;
#STOPS:44.000=0.201
,44.250=0.200
,44.500=0.440
,78.250=0.321
,78.500=0.320
,78.750=0.220
,160.000=1.497
,189.500=1.070
;
#BGCHANGES:;

//---------------dance-single - ----------------
#NOTES:
     dance-single:
     :
     Challenge:
     8:
     0.550,0.521,0.384,0.228,0.239:
0000
0000
0000
0000
,
0000
0000
0000
0000
,
1001
0000
0000
0100
0000
0000
1000
0000
0100
0000
0001
0000
0000
0000
0000
0000
,
0010
0000
1000
0000
0010
0000
0001
0010
0001
0000
0010
1000
0010
1000
0001
0000
,
0010
0000
0000
0100
0000
0000
1000
0000
0100
0000
0010
0000
0100
0000
0000
0000
,
1001
0000
0000
1001
0000
0000
0000
0000
0000
0000
0010
0000
0110
0000
0000
0000
,
0010
0000
0000
1000
0000
0000
0100
0000
0010
0000
0100
0000
0001
0000
0000
0000
,
0001
0000
0001
0000
0001
0000
0001
0000
0000
0000
0010
0100
0010
0000
0000
0000
,
1000
0000
0000
0100
0000
0000
0010
0000
0100
0000
0002
0000
0000
0000
0000
0000
,
0100
0003
0000
1000
0000
0000
0100
0000
0010
0000
0100
0000
0000
0000
0000
0000
,
1010
0000
0000
0101
0000
0000
1000
0000
0100
0000
0010
0000
0000
0000
0000
0000
,
1001
0110
1001
0000
0000
0000
0000
0000
0110
0000
0010
0000
1000
0000
0010
0000
,
0100
0000
0010
0000
0100
0000
0001
0100
0002
0000
0000
0003
0200
0000
0000
0000
,
0310
1000
0010
0001
0110
0000
0010
0110
,
0000
0000
0010
0000
1000
0000
0010
1000
0002
0000
0000
0000
2003
0000
0000
0000
,
3001
0100
0010
0100
0101
0000
0010
1010
,
0000
0000
0010
0000
0100
0000
0010
0100
0010
0000
0000
0000
1001
0000
0000
0000
,
0010
1000
0001
0100
0011
0000
0000
0001
,
0100
0000
0000
0100
0000
0000
0100
0000
2000
0000
0000
0000
3010
0000
0000
0000
,
0010
0000
0100
0000
0001
0000
0000
0000
0000
0200
0320
0230
0300
0000
0000
0000
,
1000
0100
0010
0001
0100
0010
1000
0001
,
1000
0010
0100
0010
0001
0010
0100
1000
,
0010
1000
0001
0100
0010
0001
0100
1000
,
0100
0010
1000
0001
0010
0001
0010
0100
,
1000
0100
0010
0100
0001
1000
0001
1000
,
0010
1000
0001
0100
1000
0100
0010
0001
,
0010
0100
0001
1000
0010
0100
0001
1000
,
1010
0000
0000
1010
0000
0000
0001
0000
0100
0000
1000
0000
1100
0000
0000
0000
,
0011
0000
0000
0110
0000
0000
0010
0000
1001
0000
0100
0000
0000
0000
0000
0000
,
1001
0000
0000
0020
,
0230
0000
2300
3002
0003
0000
0000
0000
,
0000
0000
0000
0000
0002
0203
0000
0000
0320
0000
0000
0230
0000
0000
0302
0003
,
0000
0000
0000
0000
0000
1000
1100
0000
,
0110
0000
0000
1010
0000
0000
0001
0000
0100
0000
1000
0000
0000
0000
0010
0100
,
0001
0000
0000
1000
0000
0000
0100
0000
0010
0000
0001
0000
0000
0000
0010
1000
,
0001
0000
0000
0100
0000
0000
1000
0000
0100
0000
0010
0000
0000
0000
0001
1000
,
0002
0000
0000
0000
,
1003
0100
1000
0000
0010
0100
0010
0000
0000
0000
0000
0000
0010
0000
0010
0100
,
0010
0000
0000
0010
0000
0000
1000
0000
0001
0000
0100
0000
0000
0000
1000
0100
,
1000
0000
0000
0010
0000
0000
0001
0000
0100
0000
0010
0000
0000
0000
0100
0010
,
0100
0010
1000
0001
0100
0010
1000
0010
,
0100
0000
0100
0000
1000
0000
0010
0000
0100
0000
0001
0000
0010
0100
0010
0100
,
0010
0010
1000
0100
0001
0100
0100
0100
,
1000
0000
1100
0000
0010
0000
0001
0000
0010
0000
1001
0000
0010
0100
0010
0000
,
0000
0000
1001
0000
0000
0010
0000
0000
0010
0000
0100
0000
0010
0000
1000
0000
,
0000
1001
0000
0110
0000
0010
1000
0001
,
0100
0000
0011
0000
0000
1100
0000
0000
0010
0000
0100
0000
0002
0000
0000
0000
,
1003
0000
1010
0000
0000
0000
0000
0000
1100
0000
0000
0011
0000
0000
0010
0000
,
0100
0000
1000
0000
0000
0000
0010
1000
0001
0000
0000
0100
0000
0000
1000
0000
,
0100
0000
0010
0000
0000
0000
0001
0100
0010
0000
0000
1000
0000
0000
0100
0000
,
0010
0000
0100
0000
0000
0000
0010
0100
0010
0000
0000
0000
2002
0000
0000
0000
,
0000
0000
0000
0000
,
0000
0000
0000
0000
0000
0000
0000
0000
0000
0000
0000
0000
0000
3003
0000
0000
;

//---------------dance-single - ----------------
#NOTES:
     dance-single:
     :
     Hard:
     7:
     0.436,0.465,0.197,0.208,0.156:
0000
0000
0000
0000
,
0000
0000
0000
0000
,
1001
0000
0000
0001
0000
0000
1000
0000
0100
0000
1000
0000
0000
0000
0000
0000
,
2100
0100
0100
3100
,
0110
0000
0010
0001
1000
0100
1000
0000
,
1100
0100
0010
0001
,
1000
0000
0000
0001
0000
0000
0100
0000
0010
0000
0100
0000
0010
0000
0000
0000
,
0001
0001
1000
0001
0000
0000
0000
0000
,
0001
0000
0000
0100
0000
0000
0010
0000
1000
0000
0010
0000
0000
0000
0000
0000
,
1000
0000
0000
0100
0000
0000
1000
0000
0100
0000
1000
0000
0000
0000
0000
0000
,
0001
0000
0000
0100
0000
0000
0001
0000
1000
0000
0001
0000
0000
0000
0000
0000
,
0001
1000
0001
0000
1000
0000
0100
0000
2000
0000
0000
0000
0000
0000
3100
0000
,
0000
1000
0100
0010
0002
0000
0100
0000
,
0013
0000
0010
0100
0120
0000
0000
0130
,
0000
0010
1000
0001
2000
0000
0100
0000
,
3010
0000
0001
0100
0102
0000
0000
0103
,
0000
0000
0010
0100
0020
0000
0100
0000
,
0130
0000
1000
0001
1002
0000
0000
1003
,
0000
0000
1000
0100
1000
0000
0100
1000
,
0100
0000
0000
0000
1000
0000
0000
0000
0000
0001
0100
1000
0001
0000
1000
0000
,
0002
0000
0100
0000
0013
0000
0001
0010
,
0200
0000
0010
0000
0301
0000
0010
1000
,
0020
0000
0130
0000
1000
0100
0010
0001
,
0200
0000
0010
0000
0310
0000
0010
1000
,
1020
0000
1000
0000
1030
0100
1000
0100
,
2100
0000
0100
0000
3100
0000
1000
0100
,
1100
0000
0000
0000
0010
0000
0100
0000
0010
0000
0000
0010
0000
0000
0100
0000
,
1000
0000
0000
0100
0000
0000
0001
0000
0100
0000
1000
0000
0000
0000
0000
0000
,
0011
0000
0000
0010
0000
0000
0100
0000
1000
0000
0100
0000
0000
0000
0000
0000
,
1001
0000
0000
0001
,
0100
0000
1000
1000
0000
0000
0000
0000
,
0000
0000
0000
0000
1000
0100
0000
0000
0010
0000
0000
0001
0000
0000
0100
0000
,
0000
0000
0000
0000
,
0001
0000
0000
1000
0000
0000
0100
0000
1000
0000
0100
0000
0000
0000
0010
0100
,
0010
0000
0000
1000
0000
0000
0100
0000
0010
0000
0002
0000
0000
0000
1003
0001
,
1000
0000
0000
0001
0000
0000
0010
0000
0100
0000
0010
0000
0000
0000
1000
0100
,
2000
0000
0000
3000
,
0001
0000
0000
0100
0000
0000
0010
0000
0100
0000
0010
0000
0000
0000
1000
0000
,
0100
0000
0000
1000
0000
0000
0100
0000
1000
0000
0100
0000
0000
0000
0010
0000
,
0001
0000
0000
0010
0000
0000
0100
0000
1000
0000
0100
0000
0000
0000
0001
1000
,
0001
1000
0100
0010
0001
0010
0100
0010
,
1000
0001
1000
0010
0000
0100
0000
0010
,
0000
1100
0000
0101
0000
1100
0101
1100
,
0000
0010
0100
0010
1000
0001
0000
0000
,
0000
1100
0000
1000
0100
1000
0000
0000
,
0010
0010
0000
0100
0000
1000
0100
1000
,
0000
0000
0010
0000
0000
0001
0000
0000
0100
0000
1000
0000
0001
0000
0000
0000
,
0002
0000
2000
0000
0000
0000
3003
0000
0010
0000
0000
0100
0000
0000
1000
0000
,
0100
0000
1000
0000
0000
0000
0001
0100
0001
0000
0000
0010
0000
0000
0100
0000
,
1000
0000
0100
0000
0000
0000
0001
1000
0001
0000
0000
0100
0000
0000
1000
0000
,
0100
0000
0010
0000
0000
0000
0001
0100
0001
0000
0000
0000
2200
0000
0000
0000
,
0000
0000
0000
0000
,
0000
0000
0000
3300
;

//---------------dance-single - ----------------
#NOTES:
     dance-single:
     :
     Medium:
     5:
     0.323,0.356,0.135,0.311,0.026:
0000
0000
0000
0000
,
0000
0000
0000
0000
,
0001
1000
0100
0000
,
0010
0000
0100
0000
0010
0000
0001
1000
,
0001
1000
0100
1000
,
0101
0000
0000
0000
,
0010
0200
1300
0000
,
0001
1000
0001
1000
0000
0000
0000
0000
,
1000
0100
1000
0000
,
0101
0100
0001
0000
,
0011
0010
0100
0000
,
2002
3003
0001
1000
0002
0000
0000
0000
,
0003
0010
0100
0010
0200
0000
0020
0000
,
0330
0000
0001
1000
0002
0000
0000
0000
,
1003
0000
0100
1000
0200
0000
2000
0000
,
3300
0000
0010
1000
0010
0000
0000
0000
,
0100
0000
0001
1000
0002
0000
2000
0000
,
3003
0000
0010
0100
0010
0000
0000
1000
,
0100
1000
0200
0000
,
0000
0000
0300
0000
0000
0000
0001
1000
,
0001
0000
0000
0000
0000
0010
0100
0010
,
0200
0000
0020
0000
0330
0000
0001
1000
,
0002
0000
0000
0000
0003
1000
0100
0010
,
0002
0000
0020
0000
0033
0000
0001
0100
,
0002
0000
0000
0000
0000
0013
0100
0010
,
0200
0000
0310
0000
0000
0000
1000
0100
,
1000
0000
0000
0000
0000
0000
0100
0000
1000
0000
0000
0100
0000
0000
0010
0000
,
0002
0000
0003
0000
,
2000
0000
3000
0000
,
1001
0000
0000
0100
,
0100
0000
0100
0100
0000
0000
0000
0000
,
0000
0000
0010
0000
0020
0000
0000
0030
,
0000
0000
0000
0000
,
1000
0001
0101
0001
,
0010
0100
1100
1000
,
0100
0000
0010
0000
0001
0000
0100
0020
,
0200
0000
0000
0330
,
0002
0203
0310
1000
,
1100
0010
0100
0001
,
0101
1000
1100
0010
,
1001
0001
0000
1000
0000
0100
0000
0010
,
0000
0001
0100
0001
0000
0000
0000
0000
,
0000
1000
0000
0001
0000
0100
0010
0100
,
0000
1000
0000
0100
0000
0010
0000
0011
,
0000
0001
0000
0200
0000
0310
0000
0000
,
0010
0100
0000
1000
0000
0100
0000
0000
,
0000
2000
0000
0000
0000
3100
0000
0000
,
0010
0000
0001
0000
0000
0000
0001
0000
1000
0000
0000
0100
0000
0000
1000
0000
,
0100
0000
1000
0000
0000
0000
0000
0000
0001
0000
0000
0100
0000
0000
0010
0000
,
1000
0000
0001
0000
0000
0000
0000
0000
1000
0000
0000
0100
0000
0000
0010
0000
,
0001
0000
0010
0000
0000
0000
1000
0001
1000
0000
0000
0000
2002
0000
0000
0000
,
0000
0000
0000
0000
,
0000
0000
0000
3003
;

//---------------dance-single - ----------------
#NOTES:
     dance-single:
     :
     Easy:
     3:
     0.260,0.329,0.125,0.291,0.000:
0000
0000
0000
0000
,
0000
0000
0000
0000
,
0001
0100
0010
0000
,
0220
0000
0330
0000
,
0001
1000
0100
1000
,
1010
0000
0000
0000
,
0010
0100
0010
1000
,
2002
0000
3003
0000
,
0001
0100
0001
0000
,
0010
0100
0010
0000
,
1000
0100
1000
0000
,
1001
0010
0020
0030
,
0000
1000
0100
2000
,
3000
0010
0200
0300
,
0010
1000
0001
0200
,
0300
0010
2000
3000
,
0001
1000
0100
0020
,
0030
0001
0100
0000
,
0010
0100
2000
0000
,
0000
3000
0000
0001
,
2000
0000
3000
0100
,
1000
0100
0010
0001
,
0202
0303
0001
0100
,
0020
0130
0000
1000
,
2200
3300
0010
1000
,
0002
0103
0000
0010
,
0220
0330
0010
0100
,
2000
0000
0000
0000
0000
3000
0000
0000
,
0002
0000
0000
0000
0000
0003
0000
0000
,
1001
0000
0000
0001
,
1000
0000
0001
1000
0000
0000
0000
0000
,
0000
2000
0200
0000
,
3300
0000
0000
0000
,
0001
1000
0100
0000
,
0010
0001
0100
0000
,
0010
0100
1000
0000
,
0001
0000
0000
0000
,
2000
3002
0103
0010
,
0100
0010
1000
0100
,
1100
0100
0110
0010
,
0101
0001
0000
1000
0000
0100
0000
0010
,
0000
0001
0000
0100
0000
0000
0000
0000
,
0000
0010
0000
0010
0000
0100
0010
0100
,
0000
1000
0000
0100
0000
0010
0000
0000
,
0000
0001
0000
1000
0000
0100
0000
0000
,
0000
0010
0000
0100
0000
0010
0000
0000
,
0000
0000
0000
0001
0000
1000
0000
0000
,
0100
1000
0000
0000
0001
0000
1000
0000
,
0100
0000
0010
0001
,
0100
0000
0010
1000
,
0100
0000
0010
2002
,
0000
0000
0000
0000
,
0000
0000
0000
3003
;

//---------------dance-single - ----------------
#NOTES:
     dance-single:
     :
     Beginner:
     1:
     0.080,0.132,0.042,0.000,0.000: // measure 1
0000
0000
0000
0000
,  // measure 2
0000
0000
0000
0000
,  // measure 3
0010
0000
0000
0000
,  // measure 4
0000
0000
0000
0000
,  // measure 5
0100
0000
0000
0000
,  // measure 6
0000
0000
0000
0000
,  // measure 7
0001
0000
0000
0000
,  // measure 8
0000
0000
0000
0000
,  // measure 9
1000
0000
0000
0000
,  // measure 10
0001
0000
0000
0000
,  // measure 11
0010
0000
0000
0000
,  // measure 12
0110
0000
0100
0000
,  // measure 13
0000
0000
1000
0000
,  // measure 14
0000
0000
0001
0000
,  // measure 15
0000
0000
0010
0000
,  // measure 16
0000
0000
0100
0000
,  // measure 17
0000
0000
1000
0000
,  // measure 18
0000
0000
0001
0000
,  // measure 19
0000
0000
1000
0000
,  // measure 20
0000
0000
0000
0000
,  // measure 21
0100
0000
0000
0000
,  // measure 22
0010
0000
0000
0000
,  // measure 23
1000
0000
0000
0000
,  // measure 24
0001
0000
0000
0000
,  // measure 25
0100
0000
0000
0000
,  // measure 26
0010
0000
0000
0000
,  // measure 27
1000
0000
0000
0000
,  // measure 28
0001
0000
0000
0000
,  // measure 29
0001
0000
0000
0000
,  // measure 30
0000
0000
0000
0100
,  // measure 31
0100
0000
0000
0000
,  // measure 32
0000
0010
0000
0000
,  // measure 33
0000
0000
0000
0000
,  // measure 34
0001
0000
0000
0000
,  // measure 35
1000
0000
0000
0000
,  // measure 36
0010
0000
0000
0000
,  // measure 37
0100
0000
0000
0000
,  // measure 38
0001
0000
0000
0000
,  // measure 39
1000
0000
0000
0000
,  // measure 40
0010
0000
0010
0000
,  // measure 41
0010
0100
0000
0000
0000
0000
0000
0000
,  // measure 42
0000
0100
0000
0000
0000
0000
0000
0000
,  // measure 43
0000
1000
0000
0000
0000
0001
0000
0000
,  // measure 44
0000
1000
0000
1000
0000
1000
0000
0000
,  // measure 45
0000
1001
0000
0000
0000
0000
0000
0000
,  // measure 46
0000
0000
0000
0000
,  // measure 47
0000
0000
0000
0000
,  // measure 48
0000
0000
0000
0110
0100
0000
0000
0000
,  // measure 49
0000
0000
1000
0000
,  // measure 50
0000
0000
0001
0000
,  // measure 51
0000
0000
0010
1001
;
