#TITLE:Mei Li De Jia Xiang;
#SUBTITLE:;
#ARTIST:Liu Feng;
#TITLETRANSLIT:;
#SUBTITLETRANSLIT:;
#ARTISTTRANSLIT:;
#CREDIT:;
#BANNER:bn.PNG;
#BACKGROUND:bg.PNG;
#LYRICSPATH:;
#CDTITLE:;
#MUSIC:meilidejiaxiang.mp3;
#OFFSET:-1.940;
#SAMPLESTART:2.040;
#SAMPLELENGTH:12.000;
#SELECTABLE:YES;
#BPMS:0.000=145.000;
#STOPS:;
#BGCHANGES:;

//---------------dance-single - ----------------
#NOTES:
     dance-single:
     :
     Hard:
     7:
     0.506,0.564,0.284,0.426,0.061:
2002
0000
3003
0001
1000
0001
0100
0001
,
0101
0000
2000
0001
0001
0001
3001
0000
,
0202
0000
0303
0001
1000
0001
1000
0001
,
0102
0000
0010
0010
0010
0010
0013
0000
,
1000
0000
0000
0001
0000
0000
0100
0000
,
0010
0000
0000
0100
0000
0000
1000
0000
,
1100
0000
0000
1000
0100
0010
0001
0000
,
0022
0000
0000
0000
0000
0000
0033
0000
1000
0001
1000
0001
1000
0001
1000
0001
,
1000
0000
0000
0100
0000
0010
0001
0000
,
0101
0000
0010
0100
0000
0010
0100
0000
,
1100
0000
0010
1000
0000
0001
0100
0000
,
1000
0001
1000
0001
0000
0100
0010
0000
,
0110
0000
0010
0100
0000
0001
1000
0000
,
1000
0000
1000
0100
0000
0100
0010
0000
,
0011
0000
0001
0100
0000
0010
1000
0010
,
0000
0001
1000
1000
0001
0001
0000
0000
,
1002
0000
0100
0000
1003
0000
0001
0100
,
2000
0000
0100
0000
3100
0000
0010
0100
,
0010
0000
0010
1000
0010
1000
0020
0000
,
0200
0000
0000
0330
,
1002
0000
0100
0000
1003
0000
0001
1000
,
0002
0000
0100
0000
0013
0000
0010
0100
,
0010
0000
0010
1000
0010
1000
0002
0000
,
0200
0000
0000
0303
,
0220
0000
0000
0330
0000
0010
1000
0001
,
2000
0100
0100
3100
,
2100
3100
0120
0130
,
0012
0000
0013
0000
0100
0000
0001
0100
,
0020
0130
2000
3100
,
0001
1000
0001
1000
0020
0000
0130
0000
,
1000
0100
0010
0001
0010
0100
1000
0000
,
0202
0000
0000
0000
0303
0000
0000
0000
0010
1000
0010
1000
0010
1000
0010
1000
,
0020
0000
0000
1030
0100
0010
0001
0010
,
0011
0000
0001
0010
0100
0100
0100
0000
,
0220
0000
0330
0010
1000
0001
0100
0010
,
1001
0000
1000
1000
0001
0001
0001
0000
,
0002
0000
0000
0103
0000
0000
1000
0000
,
0200
0000
0000
1300
0000
0000
0010
0000
,
0110
0000
0000
0010
0100
0001
1000
0000
,
2002
0000
0000
3003
,
0002
0000
0000
0103
0001
0100
0010
0100
,
0110
0000
0010
1000
1000
1000
1000
0000
,
2200
0000
3300
1000
0100
0010
0001
0010
,
0101
0000
0001
0100
0100
0100
0100
0000
,
0020
0000
0000
0130
0000
0000
1000
0000
,
0200
0000
0000
1300
0000
0000
0100
0000
,
0010
0000
0000
0001
0010
0100
2000
0000
,
0002
0000
0000
0000
0000
0000
3003
0000
0001
0010
0001
0010
0001
0010
0001
0010
,
0001
0000
0000
0100
0000
0000
1000
0000
,
0010
0000
0000
0100
0000
0010
0100
0000
,
1001
0000
0000
1000
0000
0100
1000
0000
,
1000
1000
0001
0001
0000
0100
0010
0000
,
0120
0000
0000
0130
0000
1000
0100
0000
,
0010
0000
0001
0010
0000
0100
0010
0000
,
1001
0000
1000
0100
0000
0010
0001
0010
,
0000
0001
0100
0100
0010
1000
0000
0000
;

//---------------dance-single - ----------------
#NOTES:
     dance-single:
     :
     Medium:
     5:
     0.355,0.367,0.173,0.365,0.000:
0110
0000
1000
0100
,
0010
0000
0001
0100
0001
0100
0001
0000
,
0110
0000
0010
1000
,
0010
0000
0001
0010
0100
1000
0100
0000
,
1000
0000
0000
0010
0000
0000
0100
0000
,
0010
0000
0000
0001
0000
0000
1000
0000
,
1001
0000
0000
0010
0100
1000
0002
0000
,
2000
0000
0000
3003
,
0020
0000
0000
0100
0000
0000
0130
0000
,
2000
0000
0000
0100
0000
0000
3001
0000
,
0020
0000
0000
0001
0000
0000
0130
0000
,
1000
0001
1000
0001
0000
0010
0100
0000
,
0020
0000
0000
0100
0000
0000
0130
0000
,
2000
0000
0000
0100
0000
0000
3100
0000
,
0020
0000
0000
0001
0000
0000
0031
0000
,
0000
1000
0001
1000
0001
1000
0000
0000
,
0110
0000
0000
0000
0000
0000
1000
0100
,
0010
0000
0000
0000
0000
0000
0001
0100
,
0010
0000
1000
0001
0100
0010
1000
0000
,
0022
0000
0000
0000
0000
0033
0000
0000
,
0100
0000
0000
0000
0000
0000
0001
1000
,
0010
0000
0000
0000
0000
0000
0100
1000
,
0100
1000
0010
0100
,
2002
0000
0000
0000
0000
3000
0003
0000
,
0020
0000
0000
0000
0000
0000
0031
0100
,
0010
1000
0100
0010
,
2002
0000
3000
0103
,
2200
0000
0000
0000
3300
0000
0010
1000
,
0010
0000
0100
0000
1000
0000
0001
0100
,
0010
0000
1000
0100
0010
0000
0001
0000
,
1001
0000
0010
0100
0010
0000
1000
0000
,
2002
0000
0000
3003
,
1000
0000
0100
0010
,
0001
0000
0001
0010
0100
0100
0100
0000
,
1000
0000
0010
0001
,
0100
0000
1000
0100
1000
1000
1000
0000
,
0110
0000
0000
0020
0000
0000
0130
0000
,
2000
0000
0000
3001
0000
0000
0010
0000
,
0011
0000
0000
0000
0001
0100
0001
0000
,
2020
3000
0200
0330
,
0001
0000
1000
0100
,
0010
0000
0001
0100
0010
0010
0010
0000
,
2002
3003
0100
1000
,
0010
0000
1000
0100
0010
0010
0010
0000
,
0001
0000
0000
1000
0000
0000
0100
0000
,
0012
0000
0000
0203
0000
0000
0310
0000
,
0110
0000
0000
0010
0100
0001
2000
0000
,
0002
0000
0000
3003
,
0010
0000
0000
0000
,
0100
0000
0000
1000
0000
0000
0010
0000
,
0002
0000
0000
0000
0000
0000
0000
0003
,
1000
0100
0010
0001
0000
0010
0100
0000
,
0002
0000
0000
0000
,
2003
0000
0000
3200
0000
0000
0320
0000
,
0002
0000
0000
0033
,
0000
0100
0010
1000
0001
1001
0000
0000
;

//---------------dance-single - ----------------
#NOTES:
     dance-single:
     :
     Easy:
     4:
     0.286,0.452,0.345,0.447,0.000:
2002
0000
0000
3003
,
0100
1000
0010
1001
,
0020
0000
0000
0030
,
0100
1000
0001
1001
,
0020
0000
0030
0000
,
0200
0000
0300
0000
,
1000
0000
0001
0000
,
0220
0000
0000
0330
,
2000
0000
0000
0000
,
0000
0000
0000
3000
,
0002
0000
0000
0003
,
0220
0000
0300
0130
,
0200
0000
0000
0000
,
0000
0000
0000
0300
,
0020
0000
0000
0030
,
0000
1000
0001
0000
,
1000
0000
0000
0001
,
0100
0000
0000
0010
,
1000
0001
0100
0010
,
0002
0000
0003
0000
,
1010
0000
0000
0100
,
1000
0000
0000
0001
,
0010
0100
1000
0001
,
0200
0000
0000
0300
,
0020
0000
0030
1000
,
0001
0000
0000
0010
,
0200
0000
0301
1000
,
0020
0000
0030
0100
,
1002
0000
0100
1003
,
0020
0031
2000
3000
,
0100
1000
0010
0001
,
2002
0000
0000
3003
,
2002
3003
0010
1000
,
1100
0101
0011
1010
,
2002
3003
0010
0100
,
1100
0011
1010
0101
,
0002
0000
0000
0000
,
2003
0000
0000
0000
,
3100
0000
0001
0010
,
2020
0030
0200
3300
,
0011
0000
1000
0001
,
1001
1001
0110
0110
,
2200
3300
1000
0001
,
0011
1010
1100
0100
,
2002
0000
3003
0000
,
2020
0000
3030
0000
,
0101
0000
1100
0011
,
0220
0300
0200
0330
,
1000
0000
0000
0000
,
0001
0000
0000
0100
,
0010
0000
0000
0000
,
1000
0001
0100
0010
,
0002
0000
0000
0003
,
2000
0000
3000
0000
,
0020
0000
0000
0030
,
0000
1000
0010
0001
1000
0001
0000
0000
;

//---------------dance-single - ----------------
#NOTES:
     dance-single:
     :
     Beginner:
     1:
     0.080,0.137,0.020,0.000,0.000: // measure 1
0001
0000
0000
0000
,  // measure 2
0000
0000
0000
0000
,  // measure 3
1000
0000
0000
0000
,  // measure 4
0000
0000
0000
0000
,  // measure 5
0010
0000
0000
0000
,  // measure 6
0010
0000
0000
0000
,  // measure 7
0100
0000
0100
0000
,  // measure 8
0100
0000
0000
0000
,  // measure 9
1000
0000
0000
0000
,  // measure 10
0000
0000
0000
0000
,  // measure 11
0001
0000
0000
0000
,  // measure 12
0100
0000
0000
0000
,  // measure 13
0010
0000
0000
0000
,  // measure 14
0000
0000
0000
0000
,  // measure 15
0010
0000
0000
0000
,  // measure 16
0000
0000
0000
0000
,  // measure 17
1000
0000
0000
0000
,  // measure 18
0001
0000
0000
0000
,  // measure 19
0100
0000
0100
0000
,  // measure 20
0100
0000
0000
0000
,  // measure 21
0010
0000
0000
0000
,  // measure 22
0010
0000
0000
0000
,  // measure 23
1000
0000
1000
0000
,  // measure 24
1000
0000
0000
0000
,  // measure 25
0001
0000
0000
0000
,  // measure 26
0001
0000
0000
0000
,  // measure 27
0010
0000
0010
0000
,  // measure 28
0010
0000
0000
0000
,  // measure 29
0100
0000
0100
0000
,  // measure 30
0100
0000
0100
0000
,  // measure 31
0001
0000
0000
0000
,  // measure 32
1000
0000
0000
0000
,  // measure 33
0100
0000
0000
0000
,  // measure 34
0000
0000
0000
0000
,  // measure 35
0010
0000
0000
0000
,  // measure 36
0000
0000
0000
0000
,  // measure 37
1000
0000
0000
0000
,  // measure 38
0001
0000
0000
0000
,  // measure 39
0100
0000
0010
0000
,  // measure 40
1001
0000
0000
0000
,  // measure 41
0100
0000
0000
0000
,  // measure 42
0000
0000
0000
0000
,  // measure 43
0010
0000
0000
0000
,  // measure 44
0000
0000
0000
0000
,  // measure 45
1000
0000
0000
0000
,  // measure 46
0000
0000
0000
0000
,  // measure 47
0001
0000
1000
0000
,  // measure 48
1001
0000
0000
0000
,  // measure 49
0010
0000
0000
0000
,  // measure 50
0100
0000
0000
0000
,  // measure 51
0010
0000
0000
0000
,  // measure 52
0100
0000
0000
0000
,  // measure 53
1000
0000
0000
0000
,  // measure 54
0001
0000
0000
0000
,  // measure 55
1000
0000
0000
0000
;
