#TITLE:MY FUTURE;
#SUBTITLE:;
#ARTIST:PINK PONG;
#TITLETRANSLIT:;
#SUBTITLETRANSLIT:;
#ARTISTTRANSLIT:;
#CREDIT:DMAxel;
#BANNER:bn.PNG;
#BACKGROUND:bg.PNG;
#LYRICSPATH:;
#CDTITLE:kxlxj.png;
#MUSIC:MY FUTURE.mp3;
#OFFSET:-0.060;
#SAMPLESTART:13.420;
#SAMPLELENGTH:12.000;
#SELECTABLE:YES;
#BPMS:0.000=148.000,165.000=74.000,181.000=148.000;
#STOPS:;
#BGCHANGES:;

//---------------dance-single - ----------------
#NOTES:
     dance-single:
     :
     Hard:
     9:
     0.531,0.737,0.135,0.175,0.517: // measure 1
0000
0000
0000
0000
,  // measure 2
0000
0000
0000
0000
,  // measure 3
0000
0000
0000
0000
,  // measure 4
0000
0000
0000
0000
,  // measure 5
0000
0000
0000
0000
1000
0100
1000
0100
1000
0100
1000
0000
1000
0010
1000
0010
,  // measure 6
1000
0010
1000
0000
1000
0001
1000
0001
1000
0001
1000
0000
1000
0100
1000
0100
,  // measure 7
1000
0100
1000
0000
1000
0100
0010
0001
1000
0100
0010
0001
1000
0100
0010
0001
,  // measure 8
1000
0100
0010
0001
2000
0000
0000
0000
3100
0000
0000
0000
0020
0000
0000
0000
,  // measure 9
0031
0000
0000
0000
1000
0000
0000
0100
0000
0000
0010
0000
0000
0100
0000
0001
,  // measure 10
0100
0000
0001
0000
0100
0000
0000
0001
0000
0000
0100
0000
0000
0010
0000
0010
,  // measure 11
1000
0000
0010
0000
1000
0000
0000
0100
0000
0000
0010
0000
0000
0001
0000
1000
,  // measure 12
0001
0000
1000
0000
0001
0000
0000
1000
0000
0000
0010
0000
0000
1000
0000
0010
,  // measure 13
1000
0000
1000
0000
0100
0000
0000
0010
0000
0000
0001
0000
0000
0010
0000
0001
,  // measure 14
0010
0000
0100
0000
0001
0000
0000
0100
0000
0000
0001
0000
0000
0100
0000
0010
,  // measure 15
1000
0000
0010
0000
1000
0000
0000
0001
0000
0000
1000
0000
0000
0001
0000
0100
,  // measure 16
0001
0100
0002
0203
0320
0230
0320
2030
,  // measure 17
3200
0000
0300
0000
1000
0000
0000
0000
0001
0000
0001
0000
0000
0001
0000
0000
,  // measure 18
0001
0000
0000
0001
0000
0000
0000
0000
0001
0000
0001
0000
0000
0001
0000
0000
,  // measure 19
0001
0000
0000
0001
0000
0000
0000
0000
1000
0000
1000
0000
0000
1000
0000
0000
,  // measure 20
1000
0000
0000
1000
0000
0000
0000
0000
1000
0000
1000
0000
0000
1000
0000
0000
,  // measure 21
1000
0000
0000
1000
0000
0000
0000
0000
0100
0000
0100
0000
0000
0100
0000
0000
,  // measure 22
0100
0000
0000
0100
0000
0000
0000
0000
0100
0000
0100
0000
0000
0100
0000
0000
,  // measure 23
0100
0000
0000
0100
0000
0000
0000
0000
0010
0000
0010
0000
0000
0010
0000
0000
,  // measure 24
0010
0000
0000
0010
0000
0000
1000
0000
0100
0000
0010
0000
0001
0000
0010
0000
,  // measure 25
0100
0000
1000
0000
0001
0000
1000
0000
0000
0000
0001
0000
0100
0000
0000
0010
,  // measure 26
0000
1000
0000
0100
0000
0000
0001
0000
1000
0000
0100
0000
0000
1000
0000
0100
,  // measure 27
0000
0001
0010
0001
0010
0000
0000
0010
0000
0000
0010
0000
0000
0010
0000
0000
,  // measure 28
0100
1000
0000
0001
0000
1000
0001
0010
,  // measure 29
0100
0000
1000
0000
0100
0000
0000
0100
0000
0000
0100
0000
0000
0000
0000
0000
,  // measure 30
0000
0000
0000
0000
0010
0000
0000
0010
0000
0000
0010
0000
0000
0000
0000
0000
,  // measure 31
0000
0000
0000
0000
1000
0000
0000
1000
0000
0000
1000
0000
0001
0000
0000
0100
,  // measure 32
0000
0000
0010
0000
1010
0000
0000
0101
0000
0000
1100
0000
0202
0000
0000
0000
,  // measure 33
0303
0000
0000
0000
0010
0000
0010
0100
0010
0000
0100
0000
0000
0000
1000
0000
,  // measure 34
0100
0000
0010
0000
0001
0000
0010
0001
0010
0000
0100
0000
0000
0000
0001
0000
,  // measure 35
0100
0000
0001
0000
1000
0000
0010
1000
0010
0000
1000
0000
0000
0000
1000
0000
,  // measure 36
0100
0000
0010
0000
0001
0000
0010
0001
0010
0000
0100
0000
0000
0000
1000
0000
,  // measure 37
0000
0000
0001
0000
0100
0000
0000
0100
0000
0000
0010
0000
0000
0010
0000
0000
,  // measure 38
1000
0000
0001
0000
1000
0000
0000
1000
0000
0000
0100
0000
0000
0010
0000
0000
,  // measure 39
0001
0100
0001
0100
0001
0000
0010
0000
0100
0000
1000
0000
0100
0000
0010
0000
,  // measure 40
0001
0010
1000
0001
1000
0010
1000
0100
,  // measure 41
1000
0002
2000
0000
0000
0000
0000
0000
,  // measure 42
3003
1001
0000
0000
,  // measure 43
1000
0000
0000
0100
0000
0000
0010
0000
0001
0000
0000
0000
0000
0000
0000
0000
0100
0000
0000
0000
0000
0000
0000
0000
0000
0000
0000
0000
0000
0000
0001
0000
,  // measure 44
0010
0000
0000
0100
1000
0000
0000
0000
0001
0000
0000
0000
0000
0000
0000
0000
,  // measure 45
0100
0000
0000
0010
2000
0000
0000
0000
0002
0000
0000
0000
0000
0000
0000
0000
,  // measure 46
0000
3003
1000
0000
0100
0000
0010
0000
,  // measure 47
0001
0000
0000
0000
0100
0000
0000
0000
1000
0000
0000
0000
0010
0000
0000
1000
,  // measure 48
0000
0100
1000
0000
0100
0000
0011
0000
,  // measure 49
0100
0000
0001
0000
1000
0001
1000
0000
,  // measure 50
0001
0100
0001
0000
0010
0000
0110
0000
,  // measure 51
1000
0100
0010
0001
,  // measure 52
1000
0000
0000
0000
0001
0000
0000
1000
0000
0000
0100
0000
0000
0010
0000
0000
,  // measure 53
0001
0010
2000
0000
3002
0000
0203
0000
,  // measure 54
0320
0000
0000
0000
0130
0000
0000
0100
0000
0000
1000
0000
0000
0100
0000
0000
,  // measure 55
0010
0000
0001
0000
0010
0000
0000
0100
0000
0000
0001
0000
0000
0100
0000
0000
,  // measure 56
0010
0000
1000
0000
0010
0000
0000
1000
0000
0000
0100
0000
0000
0010
0000
0000
,  // measure 57
0001
0000
1000
0000
0001
0000
0000
0100
0000
0000
0001
0000
0000
0100
0000
0000
,  // measure 58
0010
0000
1000
0000
0010
0000
0000
1000
0000
0000
0100
0000
0000
0010
0000
0000
,  // measure 59
0001
0000
0010
0000
0001
0000
0000
0100
0000
0000
0010
0000
0000
1000
0000
0000
,  // measure 60
0100
0000
1000
0000
0100
0000
0000
1000
0000
0000
0100
0000
0010
0000
0000
0001
,  // measure 61
0000
0000
0100
0000
1001
0000
0000
1100
0000
0000
0011
0000
0120
0000
0000
1030
,  // measure 62
0000
0000
1100
0000
1001
0000
0001
1000
0000
0001
0000
1000
0000
0000
1000
0000
,  // measure 63
0100
0000
0010
0000
0001
0000
0010
0001
0000
0010
0000
0001
0000
0000
0010
0000
,  // measure 64
0100
0000
1000
0000
0100
0000
1000
0100
0000
1000
0000
0100
0000
0000
0010
0000
,  // measure 65
1000
0000
0001
0000
0000
0000
1000
0000
0100
1000
0000
0001
0000
0010
0000
0100
,  // measure 66
1000
0000
0100
0000
0001
0000
1000
0001
0000
1000
0000
0010
0000
0000
1000
0000
,  // measure 67
0100
0000
0010
0000
0000
0000
0010
0000
0001
0000
1000
0001
0000
0000
0001
0000
,  // measure 68
1000
0100
1000
1100
0000
0011
0000
0110
,  // measure 69
0100
0000
0010
0000
1000
0100
0010
0001
1000
0100
0010
0001
1000
0100
0010
0001
,  // measure 70
1000
0100
0010
0001
1000
0000
0000
1000
0000
0000
0001
0000
0100
0000
0000
0010
,  // measure 71
0000
1000
2002
0000
0000
0000
0000
0000
,  // measure 72
0000
3003
0000
0000
;

//---------------dance-single - ----------------
#NOTES:
     dance-single:
     :
     Medium:
     6:
     0.361,0.419,0.119,0.087,0.036:
0000
0000
0000
0000
,
0000
0000
0000
0000
,
0000
0000
0000
0000
,
0000
0000
0000
0000
,
0000
1100
0100
0110
,
0010
0011
0010
0110
,
0100
1100
0011
0110
,
1010
0000
0001
0000
1001
0000
1000
0100
,
0001
1000
0100
0010
,
0001
0100
0001
0000
0100
0000
1000
0000
,
0010
1000
0010
0000
1000
0000
0100
0000
,
0010
0001
0010
0000
0100
0000
0001
0000
,
0010
1000
0010
0000
1000
0000
0001
0000
,
0100
0010
0100
0000
0010
0000
1000
0000
,
0001
0100
0001
0000
1000
0000
0100
0000
,
0010
0001
0020
0000
0032
0000
0203
0000
,
0310
1000
0001
1000
,
0100
0010
0001
0100
,
1000
0100
0010
0001
,
0100
1000
0010
0100
,
0002
0103
1000
0100
,
0010
0001
1000
0001
,
0100
1000
0010
1000
,
0001
0000
0100
0000
1000
0100
0010
0001
,
0010
0000
0001
0010
0000
0001
0010
0000
,
0100
1000
0100
1000
,
0100
1000
0100
0000
0010
0000
0001
0000
,
1000
0001
1000
0000
0010
0000
0100
0000
,
0010
0011
0100
1000
,
0000
1010
0100
0010
,
0000
1000
0001
0100
,
0010
0000
0000
0000
1000
0000
0000
0001
0000
0000
0100
0000
0010
0000
0000
0000
,
0010
0000
1000
0100
1000
0100
0000
0010
,
0001
0000
0010
0100
0010
0100
0000
0001
,
1000
0000
1000
0100
1000
0100
0000
0010
,
0001
0000
0100
0001
0100
0001
0000
0100
,
0000
1000
0100
0000
1000
0000
0100
0000
,
0010
0001
0010
0000
0100
0000
0001
0000
,
1000
0010
1000
0000
0100
0000
0010
0000
,
0001
1000
0100
0010
,
0002
0200
0000
0000
,
0303
1000
0000
0000
,
0001
0000
0000
0000
0010
0000
0000
0000
0100
0000
0000
0000
0000
0000
0000
1000
,
0100
0000
0000
0010
0001
0000
0000
0000
0100
0000
0000
0000
0000
0000
0000
0000
,
0010
0000
0000
1000
0001
0000
0000
0000
0200
0000
0000
0000
0300
0000
0000
0000
,
0000
1000
0100
0010
,
0001
0000
0000
0000
0100
0000
0000
0000
0001
0000
0000
0000
1000
0000
0000
0001
,
0000
1000
0001
0000
1000
0000
1010
0000
,
1000
0000
0100
0000
0010
0001
0010
0000
,
0000
0100
1000
0000
0000
0000
0001
0000
,
0000
0000
0000
0000
0000
1000
0001
0000
,
0000
1000
0001
0000
0000
0000
0100
0000
,
0000
0000
0000
0000
2000
0000
0000
0000
3002
0000
0000
0003
0200
0000
0000
0000
,
0302
0000
0000
0003
0100
0000
0000
0000
0001
0000
0000
0000
1000
0000
0000
0000
,
0100
1000
0100
0000
1000
0000
0010
0000
,
0001
1000
0100
0000
1000
0000
0010
0000
,
0001
0100
0001
0000
0010
0000
0001
0000
,
1000
0100
1100
0000
0010
0000
1000
0000
,
0001
1000
0001
0000
0100
0000
1000
0000
,
0010
0001
0010
0000
0100
0000
1100
0000
,
0010
0000
0000
0000
1000
0000
0000
0001
0000
0000
0100
0000
1000
0000
0000
0100
,
0000
1000
0100
0000
1000
0000
0100
0000
,
0010
0001
0010
0000
0100
0000
0001
0000
,
0010
1000
0010
0000
1000
0000
0100
0000
,
0010
0001
0010
0000
0100
0000
0001
0000
,
1000
0001
1000
0000
0100
1000
0100
0000
,
1000
0100
0010
0001
,
0001
0010
0100
0000
0000
0000
1000
0000
,
0000
1000
0100
0010
,
0001
0000
0000
0000
1000
0000
0000
0001
0000
0000
0010
0000
0100
0000
0000
1000
,
0000
0001
0101
0000
0000
0000
0000
0000
;

//---------------dance-single - ----------------
#NOTES:
     dance-single:
     :
     Easy:
     3:
     0.226,0.279,0.072,0.127,0.000:
0000
0000
0000
0000
,
0000
0000
0000
0000
,
0000
0000
0000
0000
,
0000
0000
0000
0000
,
0000
2000
0000
3002
,
0000
2003
0000
3002
,
0000
0203
0302
0203
,
0302
2000
0000
0000
,
3003
1000
0001
1000
,
0001
0100
0001
0100
,
0001
0010
1000
0010
,
1000
0100
1000
0100
,
1000
0010
0001
0010
,
0001
0100
0001
0100
,
0001
0010
1000
0001
,
0100
2002
0000
0000
,
3003
0000
1000
0000
,
0001
0000
1000
0000
,
1000
0000
0100
0000
,
0010
0000
0001
0000
,
0100
0000
0010
0000
,
1000
0000
0001
0000
,
0100
0000
0010
0000
,
1000
0000
0001
1000
,
0100
0010
0000
0001
,
0000
0100
0000
1000
,
0001
1000
0000
0001
,
0000
0100
0000
0010
,
0000
1001
0000
0000
,
0000
1100
0000
0000
,
0000
0011
0000
0000
,
0000
0101
0010
1000
,
1001
0001
1000
0000
,
1000
0100
0010
0000
,
0001
0100
0010
0000
,
1000
0001
0100
0000
,
0000
0010
0000
0000
,
0100
0100
0000
0000
,
1000
0001
0100
1000
,
0010
0001
0100
0010
,
1000
0000
0000
0000
,
0000
1001
0000
0000
,
0001
1000
1000
0000
,
1000
0001
0100
0000
,
0010
1000
0001
0000
,
0000
1000
0000
0000
,
0000
0000
0000
0001
,
0000
0100
0000
1000
,
0000
0000
0000
0010
,
0000
1000
0000
0001
,
0000
0000
0000
0100
,
0000
0010
0000
1000
,
0000
2002
0000
0000
,
3003
1001
1000
0001
,
1000
0001
0100
0001
,
0100
1000
0010
1000
,
0010
1000
0100
0010
,
0001
0100
0001
0100
,
0001
0010
1000
0100
,
0010
0002
0000
0000
,
0000
1000
0000
1000
,
0000
1003
0001
1000
,
0100
0010
0001
0010
,
0001
0100
1000
0100
,
0001
0000
0100
1000
,
0010
0001
1000
0001
,
0100
0010
1000
0100
,
0010
0001
0000
1000
,
0000
0001
1000
0100
,
0010
0002
0000
2003
,
0000
3100
0000
0000
;

//---------------dance-single - ----------------
#NOTES:
     dance-single:
     :
     Beginner:
     1:
     0.077,0.168,0.056,0.000,0.000:
0000
0000
0000
0000
,
0000
0000
0000
0000
,
0000
0000
0000
0000
,
0000
0000
0000
0000
,
0000
1000
0000
0000
,
0000
0000
0000
0000
,
0000
0000
0000
0000
,
0000
0000
0000
0000
,
0000
0001
0000
0000
,
0000
0001
0000
0000
,
0000
0100
0000
0000
,
0000
0100
0000
0000
,
0000
0010
0000
0000
,
0000
0010
0000
0000
,
0000
1000
0000
0000
,
0000
1000
0000
0000
,
0000
0001
0000
0000
,
0000
0000
0000
0000
,
0000
1000
0000
0000
,
0000
0000
0000
0000
,
0000
0010
0000
0000
,
0000
0000
0000
0000
,
0000
0100
0000
0000
,
0000
0000
0000
0000
,
0000
1000
0000
0001
,
0000
0000
0000
0000
,
0000
0001
0000
0000
,
0000
0000
0000
0000
,
0000
1000
0000
0000
,
0000
0001
0000
0000
,
0000
0010
0000
0000
,
0000
0110
0000
0000
,
0000
0100
0000
0000
,
0000
0100
0000
0000
,
0000
0100
0000
0000
,
0000
0100
0000
0000
,
0000
1000
0000
0000
,
0000
0001
0000
0000
,
0000
0001
0000
0000
,
0000
0000
0000
0000
,
0000
1001
0000
0000
,
0000
1000
0000
0000
,
0001
0000
0000
0000
,
0000
1000
0000
0000
,
0000
0100
0010
0000
,
0000
0001
0000
0000
,
0000
0000
0000
0000
,
0000
1000
0000
0001
,
0000
0000
0000
0000
,
0000
0010
0000
0100
,
0000
0000
0000
0001
,
0000
0001
0000
0001
,
0000
1000
0000
0000
,
0000
1001
0000
0000
,
0000
0100
0000
0000
,
0000
0100
0000
0000
,
0000
0001
0000
0000
,
0000
1000
0000
0000
,
0000
0010
0000
0000
,
0000
0001
0000
0000
,
0000
1001
0000
0110
,
0000
1001
0000
0000
,
0000
1000
0000
0000
,
0000
0001
0000
0000
,
0000
0000
0000
0000
,
0000
0100
0000
0100
,
0000
0000
0000
0001
,
0000
0001
0000
0000
,
0000
0000
0000
0000
,
0000
1000
0000
0001
,
0000
1001
0000
0000
;
