#TITLE:MINT;
#SUBTITLE:;
#ARTIST:SLAKE;
#TITLETRANSLIT:;
#SUBTITLETRANSLIT:;
#ARTISTTRANSLIT:;
#CREDIT:;
#BANNER:bn.png;
#BACKGROUND:bg.png;
#LYRICSPATH:;
#CDTITLE:Beatmania IIDX.png;
#MUSIC:MINT.mp3;
#OFFSET:-0.976;
#SAMPLESTART:7.360;
#SAMPLELENGTH:12.000;
#SELECTABLE:YES;
#DISPLAYBPM:150.000;
#BPMS:0.000=150.000;
#STOPS:;
#BGCHANGES:;

//---------------dance-single - ----------------
#NOTES:
     dance-single:
     :
     Hard:
     8:
     0.539,0.559,0.432,0.000,0.348:
0000
0000
0000
0000
,
0000
0000
0000
0000
,
1000
0000
0000
0000
0101
0000
0000
0000
0001
0000
0000
0001
0000
0000
0100
0000
,
0000
0010
1000
0100
1000
0010
0100
0000
,
1000
0000
0001
0000
0010
0000
0001
0000
0100
0000
0000
0100
0000
0000
0100
0000
,
0000
0010
0100
1000
0010
1000
0001
0010
,
0001
0000
0000
0000
1000
0100
0000
0001
0010
0000
0000
0001
0000
0000
0001
0000
,
0000
0001
0100
0001
0010
0001
0100
0000
,
0101
0000
0000
0000
1100
0000
0000
0000
0001
0000
0000
1000
0000
0000
1100
0000
,
0000
1000
0001
0100
0001
0010
0001
0100
,
0010
0000
0000
0000
0110
0000
0000
0000
0010
0000
0000
0100
0000
0000
1100
0000
,
0000
0001
0100
0001
0010
0001
0100
0010
,
1000
0100
1000
0001
0100
0010
1000
0100
1000
0000
0000
1000
0000
0000
1000
0000
,
0000
1000
0001
0100
0001
0010
0001
0000
,
1001
0000
0000
0000
1001
0000
0000
0000
0001
0000
0000
0100
0000
0000
0010
0000
,
0000
1000
0100
0010
0001
0010
0100
1000
,
0001
0000
0001
0000
0001
0000
0001
0000
0011
0000
0000
0010
0000
0000
0010
0000
,
0000
0001
0100
0010
1000
0100
1000
0010
,
0100
0000
0100
0000
0100
0000
0100
0000
0110
0000
0000
0010
0000
0000
0010
0000
,
0000
0010
0100
0010
1000
0100
0001
0010
,
0100
0000
0100
0000
0100
0000
0100
0000
1100
0000
0000
1000
0000
0000
1000
0000
,
0000
1000
0001
0100
0001
0010
0001
0100
,
0010
0000
0010
0000
0010
0000
0010
0000
1010
0000
0000
1000
0000
0000
1000
0000
,
0000
1000
0001
0100
0001
0010
0001
0100
,
0010
0100
0000
0000
0010
0100
0000
0000
0010
0000
0000
1000
0000
0000
1001
0000
,
0000
1000
1000
0001
0100
0100
0010
0010
,
1000
0010
0000
0000
0001
0100
0000
0000
0001
0000
0000
1001
0000
0000
1100
0000
,
0000
1000
1000
0001
0100
0100
0010
0010
,
0010
1000
0000
0000
1000
0100
0000
0000
0011
0000
0000
0100
0000
0000
1001
0000
,
0000
1000
0001
0100
0010
0010
1000
0100
,
1000
0100
0000
0000
0001
0100
0000
0000
1000
0000
0001
0100
0000
0010
0100
0000
,
0000
0010
0010
1000
0001
0100
0001
0010
,
0001
0000
0000
0000
0000
0010
0000
0001
0000
0010
0000
0000
0001
0000
0000
0100
,
0000
0010
0000
1000
0001
0000
0000
0000
,
0010
0000
0000
0000
0000
1000
0000
0010
0000
1000
0000
0000
0010
0000
0000
0001
,
0000
0100
0000
0100
0010
0000
0000
0000
,
0001
0000
0000
0000
0000
0011
0000
0101
0000
1010
0000
0000
0011
0000
0000
1100
,
0000
0110
0000
1001
0101
0000
0000
0000
,
1000
0000
0000
0000
0000
1000
0000
1000
0000
1000
0000
0000
1000
0000
0000
1000
,
0000
1000
0000
1000
1000
0000
0000
0000
,
0010
0101
0010
1100
,
0010
0101
0010
1100
,
0100
1010
0100
0011
,
0100
1010
0100
0011
,
0001
0110
0001
0110
,
0001
1100
0010
0101
,
0010
1100
0010
0101
,
0010
1001
1000
1100
,
0001
0000
0000
0001
0000
0000
0001
0000
0000
0001
0000
0000
0001
0000
0000
0001
,
0000
0000
0001
0000
0000
0001
0000
0000
0001
0000
0000
0001
0000
0000
0001
0000
,
1000
0000
0000
1000
0000
0000
1000
0000
0000
1000
0000
0000
1000
0000
0000
1000
,
0000
0000
1000
0000
0000
1000
0000
0000
1000
0000
0000
1000
0000
0000
1000
0000
,
0010
0000
0000
0010
0000
0000
0010
0000
0000
0010
0000
0000
0010
0000
0000
0010
,
0000
0000
0010
0000
0000
0010
0000
0000
0010
0000
0000
0010
0000
0000
0010
0000
,
0100
0000
0000
0100
0000
0000
0100
0000
0000
0100
0000
0000
0100
0000
0000
0100
,
0000
0000
0100
0000
0000
0100
0000
0000
0100
0000
0000
0100
0000
0000
0100
0000
;

//---------------dance-single - ----------------
#NOTES:
     dance-single:
     :
     Medium:
     6:
     0.382,0.472,0.443,0.000,0.047:
0000
0000
0000
0000
,
0000
0000
0000
0000
,
0000
0000
0000
0000
,
0000
0000
0000
0000
,
1000
0001
0100
0001
,
0000
0001
1000
0100
,
1000
0000
0000
0000
0001
0000
0000
0000
1000
0000
0000
1000
0000
0000
1000
0000
,
0000
0001
1000
0001
,
0100
0000
0000
0000
0010
0000
0000
0000
1000
0000
0000
1000
0000
0000
1000
0000
,
0000
0010
1000
0100
,
1100
0000
0000
0000
0100
0000
0000
0000
1000
0000
0000
1000
0000
0000
1000
0000
,
0000
1000
0001
0100
,
0010
0000
0000
0000
1000
0000
0000
0000
0010
0000
0000
0010
0000
0000
0010
0000
,
0000
1000
0001
0100
,
0101
0000
0000
0000
1100
0000
0000
0000
0001
0000
0000
1000
0000
0000
0001
0000
,
0000
0001
0100
0010
,
1000
0000
0010
0000
1000
0000
0010
0000
1000
0000
0000
1000
0000
0000
1000
0000
,
0000
1000
0001
0100
,
0010
0000
0100
0000
0010
0000
0100
0000
0010
0000
0000
0010
0000
0000
0010
0000
,
0000
0010
1000
0001
,
1000
0000
0001
0000
0100
0000
0001
0000
0100
0000
0000
0100
0000
0000
0100
0000
,
0000
0010
1000
0100
,
1000
0000
0100
0000
1000
0000
0010
0000
0001
0000
0000
0010
0000
0000
0001
0000
,
0000
0001
0100
0010
,
1010
0000
0101
0000
1000
0001
0100
0000
,
1000
0000
0001
0000
0001
0100
0010
0000
,
1010
0000
0101
0000
0001
1000
0100
0000
,
1100
0000
0011
0000
0001
1000
0100
0000
,
0001
1000
0001
0000
0001
0000
0101
0000
,
0001
0100
0010
0000
0010
0000
1010
0000
,
1000
0100
1000
0000
1000
0000
1100
0000
,
0010
0001
0100
0000
0010
0000
1000
0000
,
1001
0000
0000
0100
,
0000
0000
0010
0000
,
1010
0000
0000
1000
,
0000
0000
0001
0000
,
1001
0000
0000
0000
0000
0000
0000
1000
,
0000
0000
0010
0000
,
0100
0000
0000
0000
0000
0000
0000
0010
,
0000
0000
1000
0000
,
0001
1001
1000
1001
,
0001
1001
1000
1001
,
0010
0110
0100
0110
,
0010
0110
0100
0110
,
0010
1010
1000
1010
,
0010
1010
1000
1010
,
0001
0101
0100
0101
,
0001
0101
0100
0101
,
0001
1000
0001
0000
1000
0000
1001
0000
,
0001
0100
0001
0000
0100
0000
1010
0000
,
0010
1000
0100
0000
1000
0000
1100
0000
,
1000
0001
0100
0000
0010
0000
0110
0000
,
0010
1000
0001
0000
1000
0000
1001
0000
,
0001
0100
0010
0000
1000
0000
1010
0000
,
1000
0001
0100
0000
1010
0000
1100
0000
,
1000
0100
1000
0000
1100
0000
0011
0000
,
1001
0000
0000
0000
;

//---------------dance-single - ----------------
#NOTES:
     dance-single:
     :
     Easy:
     3:
     0.230,0.266,0.074,0.000,0.000:
0000
0000
0000
0000
,
0000
0000
0000
0000
,
0000
0000
0000
0000
,
0000
0000
0000
0000
,
0010
0000
0000
0000
,
0000
0010
1000
0001
,
1000
0000
0000
0000
,
0000
1000
0001
0100
,
0010
0000
0000
0000
,
0000
0010
1000
0100
,
1100
0000
0000
0000
,
1000
0000
0001
0000
,
1001
0000
0001
0000
,
0000
0001
0100
0010
,
1010
0000
1000
0000
,
0000
1000
0001
1000
,
0001
0100
0001
0100
0001
0000
0000
0000
,
0000
1000
0001
0100
,
0010
0000
0010
0000
,
0000
0100
0010
1000
,
1001
0000
0001
0000
,
0000
0001
1000
0100
,
1000
0000
1000
0000
,
0000
0010
1000
0010
,
0100
0100
0100
0100
,
0010
1000
0010
1000
,
0010
1000
0001
0100
,
0001
0010
0001
0100
,
0010
1000
0100
1000
,
0100
1000
0010
0100
,
0010
1000
0001
0001
,
1000
0001
0100
0010
,
0100
0000
0000
0000
,
0000
0000
0000
0000
,
0001
0000
0000
0000
,
0000
0000
0000
0000
,
1000
0000
0000
0000
,
0000
0000
0000
0000
,
0010
0000
0000
0000
,
0000
0000
0000
0000
,
1000
0001
1000
0001
,
1000
0001
1000
0001
,
0100
0010
0100
0010
,
0100
0010
0100
0010
,
0100
0001
0100
0001
,
0100
0001
0100
0001
,
0010
1000
0010
1000
,
0010
1000
0010
1000
,
0010
0010
1000
1000
,
0001
0001
1001
0000
,
0001
0100
0010
1000
,
0100
1000
1010
0000
,
1000
0001
0100
0010
,
1000
0100
1100
0000
,
1000
0001
0100
0010
,
1000
0100
0010
0001
,
1000
0000
0000
0000
;

//---------------dance-single - ----------------
#NOTES:
     dance-single:
     :
     Beginner:
     1:
     0.066,0.118,0.000,0.000,0.000: // measure 1
0000
0000
0000
0000
,  // measure 2
0000
0000
0000
0000
,  // measure 3
0000
0000
0000
0000
,  // measure 4
0000
0000
0000
0000
,  // measure 5
0010
0000
0000
0000
,  // measure 6
0000
0000
0000
0000
,  // measure 7
0001
0000
0000
0000
,  // measure 8
0000
0000
0000
0000
,  // measure 9
1000
0000
0000
0000
,  // measure 10
0000
0000
0000
0000
,  // measure 11
0010
0000
0000
0000
,  // measure 12
0000
0000
0000
0000
,  // measure 13
0100
0000
0000
0000
,  // measure 14
0000
0000
0000
0000
,  // measure 15
1000
0000
0000
0000
,  // measure 16
0000
0000
0000
0000
,  // measure 17
0001
0000
0001
0000
,  // measure 18
0000
0000
0000
0000
,  // measure 19
1000
0000
0000
0000
,  // measure 20
0000
0000
0000
0000
,  // measure 21
0010
0000
0000
0000
,  // measure 22
0000
0000
0000
0000
,  // measure 23
0100
0000
0000
0000
,  // measure 24
0000
0000
0000
0000
,  // measure 25
0010
0000
0010
0000
,  // measure 26
0010
0000
0000
0000
,  // measure 27
1000
0000
1000
0000
,  // measure 28
1000
0000
0000
0000
,  // measure 29
0001
0000
0001
0000
,  // measure 30
0001
0000
0000
0000
,  // measure 31
0100
0000
0100
0000
,  // measure 32
0100
0000
0000
0000
,  // measure 33
0010
0000
0000
0000
,  // measure 34
0000
0000
0000
0000
,  // measure 35
1000
0000
0000
0000
,  // measure 36
0000
0000
0000
0000
,  // measure 37
0001
0000
0000
0000
,  // measure 38
0000
0000
0000
0000
,  // measure 39
0100
0000
0000
0000
,  // measure 40
0000
0000
0000
0000
,  // measure 41
0010
0000
0000
0000
,  // measure 42
0010
0000
0000
0000
,  // measure 43
1000
0000
0000
0000
,  // measure 44
0001
0000
0000
0000
,  // measure 45
0100
0000
0000
0000
,  // measure 46
0010
0000
0000
0000
,  // measure 47
1000
0000
0000
0000
,  // measure 48
0001
0000
0000
0000
,  // measure 49
1000
0000
0000
0000
,  // measure 50
1000
0000
0000
0000
,  // measure 51
0001
0000
0000
0000
,  // measure 52
0001
0000
0000
0000
,  // measure 53
0100
0000
0000
0000
,  // measure 54
0100
0000
0000
0000
,  // measure 55
0010
0000
0000
0000
,  // measure 56
0010
0000
0000
0000
,  // measure 57
0001
0000
0000
0000
;
