#TITLE:MARS WAR 3;
#SUBTITLE:(From NONSTOP MEGAMIX);
#ARTIST:JET GIRL SPIN;
#TITLETRANSLIT:;
#SUBTITLETRANSLIT:;
#ARTISTTRANSLIT:;
#CREDIT:;
#BANNER:bn.PNG;
#BACKGROUND:bg.PNG;
#LYRICSPATH:;
#CDTITLE:Dance Dance Revolution SuperNova2.png;
#MUSIC:MARS WAR 3 (From NONSTOP MEGAMIX).MP3;
#OFFSET:-0.020;
#SAMPLESTART:31.148;
#SAMPLELENGTH:12.000;
#SELECTABLE:YES;
#BPMS:0.000=100.020;
#STOPS:;
#BGCHANGES:;

//---------------dance-single - ----------------
#NOTES:
     dance-single:
     :
     Hard:
     9:
     0.670,0.705,0.576,0.159,0.452:
0000
0000
0000
0000
,
0001
0100
1000
0100
0010
0001
0010
0100
,
1100
1000
0100
0010
0001
0010
0100
1000
,
1100
1000
0100
0010
1100
0100
0010
0001
,
0011
0001
0101
0010
1000
0010
0100
0010
,
0001
0000
0001
0100
0001
0000
1000
0000
0100
0000
1000
0100
1000
0000
0010
0000
,
0100
0000
1000
0100
0010
0000
0001
0000
0010
0000
0010
0100
0010
0000
1000
0000
,
0200
0000
0000
0000
1000
0000
0000
0000
1000
0000
1000
0000
1000
0300
0000
0000
,
1000
0100
1000
0000
0010
0000
0100
0000
0001
0010
0100
1000
0100
0000
0000
0000
,
0120
0000
0100
0000
0130
0000
1000
0000
0100
0000
0010
0000
0001
0010
0001
0000
,
0102
0100
0103
1000
1020
1000
0130
0010
,
1001
0000
0010
0000
0100
0000
1000
0100
1000
0000
0010
0000
0010
0010
0000
0000
,
0100
1000
0100
0010
0001
0100
1000
0010
,
1001
0001
1000
0001
1000
0001
1000
0000
0010
0100
0001
1000
0010
0100
0001
0000
,
0010
0100
0001
1000
0010
0100
0001
0000
1000
0100
0010
0001
0010
0100
1000
0000
,
0010
1000
0001
0100
0010
1000
0001
0000
1000
0100
0010
0001
0100
1000
0100
0000
,
0010
1000
0010
1000
0010
0100
0001
0100
0010
0001
0010
0100
1000
0100
0000
0000
,
0010
1000
0010
1000
0001
0100
0010
0000
1000
0100
0010
0001
0010
0100
1000
0000
,
0010
0000
0010
1000
0000
0001
0100
0000
1000
0100
0000
0010
0001
0010
0100
0000
,
1001
0000
0110
0000
1000
0100
0010
0000
0011
0000
1100
0000
0010
0100
0010
0000
,
1001
0110
1100
0011
0110
1001
0110
1001
,
0001
0000
0010
0100
0002
0000
1000
0000
1000
0000
1000
0000
1000
0000
1000
0000
,
0103
0000
1000
0100
2000
0000
0100
0000
0100
0000
0100
0000
3010
0000
0000
0000
,
0101
0000
0001
0100
1000
0000
1000
0100
0010
0000
0001
0000
0200
0000
1000
0300
,
0010
0000
1000
0000
0010
0000
0100
0010
0100
0000
0010
0000
0100
0000
1000
0000
,
1100
0000
0010
0100
0110
0000
0001
0010
0011
0000
0001
0100
0101
0000
0010
1000
,
1010
0000
0010
0100
0110
0000
0001
1000
1001
0000
1000
1000
1100
0000
0010
0000
,
0120
0000
1000
0000
1000
0000
1000
0000
1030
0100
0010
0001
0010
0100
1000
0100
,
0020
0000
0100
0000
1000
0000
0100
0000
1000
0030
0100
0000
1000
0000
0100
0000
,
0010
1000
0010
1000
0010
1000
0010
0000
0001
0100
0001
0100
0001
0100
0001
0000
,
0010
0001
0010
0001
0010
0001
0010
0000
0100
1000
0100
1000
0100
1000
0100
0000
,
1001
0000
0110
0000
0110
0000
1000
0000
0100
0000
0010
0000
0001
0100
0001
0000
,
0100
0000
1000
0000
1100
0000
0010
1000
0010
1000
0001
0100
0010
1000
0001
0000
,
1001
0000
0110
0000
1000
0100
0010
0000
0011
0000
1100
0000
0010
1000
0010
0000
,
1001
0010
0110
1000
1100
0010
0011
0100
,
2000
0000
3200
0000
0010
0010
0320
0000
,
0032
0000
0203
0000
1000
1000
1300
0000
,
0020
0000
0130
0000
1000
0001
0100
0000
,
0020
1030
0200
1300
,
1010
0000
0010
0100
0110
0000
0010
0001
0011
0000
0001
0100
0101
0000
0010
1000
,
1010
0000
0010
0100
0110
0000
1000
0100
1100
0000
0010
0001
0011
0000
0001
0100
,
0101
0000
0010
0100
0110
0000
0100
1000
1100
0000
0010
0100
0110
0000
0001
1000
,
1001
0000
0010
0100
0110
0000
1000
0100
1100
0000
0010
0001
0011
0000
0010
0000
,
1001
0110
1001
0110
2000
0100
0010
0001
,
0001
0001
0001
0001
0001
0001
0001
3001
,
0101
0000
0010
0000
0100
0000
1000
0000
0100
0000
1000
0000
1000
0100
0010
0000
,
0001
0000
0100
0000
1000
0000
0100
0000
0010
1000
0010
0100
0001
0100
0000
0000
;

//---------------dance-single - ----------------
#NOTES:
     dance-single:
     :
     Medium:
     6:
     0.484,0.538,0.425,0.328,0.049:
0000
0000
0000
0000
,
0010
0100
0010
0100
0010
0100
0010
0100
,
0001
1000
0001
1000
0001
1000
0001
1000
,
0010
1000
0010
1000
0001
0100
0001
0100
,
0010
0001
0100
1000
0010
0001
0010
0100
,
2000
0000
3200
0000
0010
0010
0310
0000
,
1001
0000
0010
0000
0001
0010
0100
0000
,
0020
0000
0130
0000
0001
1000
0100
0000
,
0010
0001
0010
0100
1000
0010
0002
0000
,
0103
0000
2000
0000
0100
0010
3001
0000
,
0010
0100
0010
1000
0001
0100
0101
0000
,
0020
0001
0001
0031
,
0001
0100
0010
1000
0100
0010
0001
0000
,
0010
0100
1000
0100
0010
0001
0100
0001
,
0010
1000
0010
1000
0010
0100
0001
0100
,
0001
0010
1000
0010
0100
0001
0010
0001
,
0010
0000
0010
0100
0000
0100
1000
0100
0000
1000
0000
1000
0100
0000
0010
0000
,
0001
0000
0001
0100
0000
0010
0100
0000
1000
0000
0100
0000
0010
0000
0001
0000
,
1000
0000
0001
1000
0000
0001
1000
0000
0010
0000
1000
0000
0010
0000
0100
0000
,
0101
1100
0010
1000
0101
1100
0010
1000
,
1001
0110
0001
1000
0100
0010
0001
0010
,
0200
0310
0020
1030
,
0002
0000
0103
0000
1000
0001
0101
0000
,
0020
1030
0200
0310
,
2000
3001
0200
0301
,
1001
0110
1100
0011
,
0101
1010
1100
0011
,
1001
0000
1000
0000
0001
0000
1000
0000
0001
1000
0001
1000
0001
0000
1000
0000
,
0010
1000
0100
0010
0001
0010
0100
1000
,
2000
0100
0010
3001
,
0002
0100
0010
1003
,
0010
0100
1000
0100
0010
0001
0011
0000
,
0001
0010
0100
1000
0010
1000
1010
0000
,
1000
1100
0010
0001
0011
0011
0001
0100
,
0101
0101
1010
1010
0110
0110
1001
1001
,
0002
0023
0230
2300
,
3200
0320
0032
0203
,
0302
0203
0320
2030
,
3020
0000
0000
0000
0230
0000
0000
0000
0320
0000
0000
0000
2030
0000
0000
3000
,
1001
0001
1001
0001
1001
0001
1001
1000
,
1010
0010
1010
1000
1010
0010
1010
1000
,
0110
0100
0110
0010
0110
0100
0110
0010
,
1001
1000
1001
0001
1001
1000
1001
0001
,
0110
1000
0100
0010
0002
0010
0010
0013
,
0010
0100
1000
0100
0010
0001
0010
0100
,
2000
3002
0100
0103
,
2000
3020
0032
1003
;

//---------------dance-single - ----------------
#NOTES:
     dance-single:
     :
     Easy:
     3:
     0.269,0.373,0.230,0.292,0.000:
0000
0000
0000
0000
,
1000
0000
0000
0000
,
1000
0000
0000
0000
,
1000
0000
1000
0000
,
1000
0000
1000
0000
1000
1000
1000
1000
,
0002
2003
0002
0000
,
3003
0010
0100
0010
,
0002
0203
0302
0000
,
0100
0000
0100
0103
,
2000
3200
2300
0000
,
0100
0000
0100
3100
,
0020
0000
0032
0000
0200
0000
0000
0303
,
1000
0000
0001
0000
1000
0000
0100
0010
,
1000
0000
0001
0000
1000
0000
1000
0100
,
1000
0000
0100
0000
0010
0000
0001
0010
,
0001
0000
1000
0000
0001
0000
0100
0010
,
0100
0000
0010
0000
1000
0000
0001
1000
,
0100
0010
0001
0100
,
0100
1000
0001
1000
,
0001
0001
0000
0000
1000
1000
0000
0000
,
0100
0100
0010
0010
,
2000
3002
0000
0203
,
0302
0000
0200
0000
0003
0000
0002
0303
,
0020
0000
2000
0000
0000
3030
2000
0000
,
3200
2000
0000
3300
,
1100
0011
0110
1001
,
1100
0011
0101
1010
,
1000
0001
1000
0100
,
0010
0001
0100
1000
,
0220
0000
0000
0000
,
0000
0000
0000
0330
,
1000
0001
0100
0010
,
1000
0000
0100
0000
0010
0000
0001
0010
,
0011
0010
0000
0000
1000
1000
0000
0000
,
0100
0100
0010
0010
1000
1000
0001
0001
,
2000
0001
0000
0001
,
0001
0002
0000
3003
,
0020
0100
0000
0100
,
0100
0200
0000
0330
,
0110
0110
0110
0110
,
1001
1001
1001
1001
,
0110
1001
0110
1001
,
1100
0101
0011
1010
,
1000
0100
0010
0002
0020
0000
0000
0000
,
0000
0000
0000
0000
0000
0000
0000
0033
,
2000
0000
0000
0000
,
0002
0000
0000
3003
;

//---------------dance-single - ----------------
#NOTES:
     dance-single:
     :
     Beginner:
     1:
     0.067,0.122,0.009,0.000,0.000: // measure 1
0000
0000
0000
0000
,  // measure 2
0010
0000
0000
0000
,  // measure 3
0010
0000
0000
0000
,  // measure 4
0010
0000
0010
0000
,  // measure 5
0010
0000
0000
0000
,  // measure 6
1000
0000
0000
0000
,  // measure 7
0000
0000
0000
0000
,  // measure 8
0001
0000
0000
0000
,  // measure 9
0000
0000
0000
0000
,  // measure 10
0010
0000
0000
0000
,  // measure 11
0000
0000
0000
0000
,  // measure 12
1000
0000
0000
0000
,  // measure 13
0000
0000
0000
0000
,  // measure 14
0001
0000
0000
0000
,  // measure 15
1000
0000
0000
0000
,  // measure 16
0010
0000
0000
0000
,  // measure 17
0100
0000
0000
0000
,  // measure 18
1000
0000
0000
0000
,  // measure 19
0001
0000
0000
0000
,  // measure 20
0010
0000
0010
0000
,  // measure 21
0010
0010
0010
0010
,  // measure 22
0010
0000
0000
0000
,  // measure 23
1000
0000
0000
0000
,  // measure 24
0001
0000
0000
0000
,  // measure 25
0100
0000
0000
0000
,  // measure 26
1001
0000
0010
0010
,  // measure 27
0010
0000
0100
0100
,  // measure 28
0100
0000
0000
0000
,  // measure 29
0000
0000
0000
0000
,  // measure 30
1000
0000
0000
0000
,  // measure 31
0001
0000
0000
0000
,  // measure 32
0100
0000
0000
0000
,  // measure 33
0010
0000
0000
0000
,  // measure 34
1000
0000
1000
0000
,  // measure 35
0001
0000
0100
0000
,  // measure 36
0010
0000
0000
0000
,  // measure 37
0010
0000
0000
0000
,  // measure 38
0010
0000
0000
0000
,  // measure 39
0010
0000
0000
0000
,  // measure 40
1000
0000
0000
0000
,  // measure 41
0001
0000
0000
0000
,  // measure 42
0100
0000
0000
0000
,  // measure 43
0010
0000
1000
0000
,  // measure 44
0001
0000
0000
0000
,  // measure 45
0000
0000
0000
0000
,  // measure 46
0100
0000
0000
0000
,  // measure 47
0010
0000
0000
0000
;
