#TITLE:Loveholic;
#SUBTITLE:;
#ARTIST:Sana;
#TITLETRANSLIT:;
#SUBTITLETRANSLIT:;
#ARTISTTRANSLIT:;
#CREDIT:;
#BANNER:bn.png;
#BACKGROUND:bg.png;
#LYRICSPATH:;
#CDTITLE:;
#MUSIC:308-[emotional]_loveholic.mp3;
#OFFSET:0.000;
#SAMPLESTART:64.500;
#SAMPLELENGTH:12.000;
#SELECTABLE:YES;
#BPMS:0.000=150.020;
#STOPS:214.500=1.600
;
#BGCHANGES:;

//---------------dance-single - ----------------
#NOTES:
     dance-single:
     :
     Hard:
     7:
     0.372,0.477,0.094,0.197,0.030:
0000
0000
0000
0000
,
0000
0000
0000
0000
,
0000
0000
0000
0000
,
0000
0000
0000
0000
,
0000
0000
0000
0002
,
0000
0000
0000
0000
,
0000
0000
0003
0100
0000
0010
2000
0000
,
0000
0200
0000
0000
0000
0000
0000
0000
,
0000
3000
0300
0010
,
0000
0100
0000
0000
1000
0000
0000
0001
,
0000
0000
0100
0010
0100
0000
2000
0000
,
0000
0000
3000
0001
0000
1000
0000
0100
,
0000
0010
0000
0001
0000
0100
0010
0000
,
0100
1000
0000
0001
0100
0000
0001
1000
,
0000
0000
0010
0100
0010
0000
0200
0000
,
0000
0000
0000
0010
0300
0010
0000
0001
,
0000
0000
1000
0000
0001
1000
0000
0001
1000
0000
0001
0000
0100
0000
0010
0000
,
0100
0010
0000
1000
0000
0100
0000
0010
,
0001
0010
0000
0100
1000
0100
0000
0000
,
1000
0001
0000
1000
0001
1000
0000
0000
,
0000
0000
0000
0000
0000
0000
0001
1000
,
0001
0100
0000
1000
0100
1000
0000
0010
,
1000
0001
0000
0010
0100
0001
1000
0000
,
0000
0000
0000
0000
,
0000
0000
0000
0000
0000
0000
0001
1000
,
0100
1000
0000
1000
0001
0100
0000
0010
,
1000
0001
0000
1000
0100
1000
0000
0000
,
1000
0001
0000
0001
1000
0100
0000
0000
,
0000
0000
0000
0010
0000
0001
1000
0100
,
1000
0100
0000
0001
1000
0010
0000
1000
,
0100
0001
0000
0001
1000
0010
0100
0000
,
0000
0000
0000
1000
0000
0100
0000
0010
,
0000
0000
0001
0000
1000
0001
0000
0001
1000
0000
0200
0000
0000
0000
0000
0000
,
0000
0300
0000
0010
1000
0020
0000
0000
,
0000
0030
0000
0001
1000
0002
0000
0000
,
0000
0003
0000
1000
0100
1000
0000
0001
,
0100
0100
0000
0001
1000
0200
0000
0000
,
0000
0300
0000
0010
1000
0002
0000
0000
,
0000
0003
0000
0001
0100
0000
0010
0000
,
1000
0000
0100
0000
0010
1000
0000
0001
,
1000
0000
0001
1000
0001
1001
0000
1000
,
0100
1100
0000
0010
0001
0011
0000
0001
,
0100
0101
0000
0010
1000
1010
0000
1000
,
0100
0010
0001
0000
0200
0020
0000
0000
,
0330
0000
0000
0010
1000
0010
0000
0001
,
0100
0001
0000
1000
0100
1000
0000
0010
,
0001
0010
0000
0001
1000
0020
0000
0000
,
0000
0000
0000
0000
,
0030
0000
0000
0001
0100
0101
0000
1000
,
0100
1100
0000
0010
1000
1010
0000
0010
,
0001
0011
0000
0001
0100
0101
0000
0001
,
1000
0000
0010
0000
0100
0000
0000
0001
0000
0000
1000
0000
0000
0000
0000
0000
,
0000
0000
0000
0000
1000
0001
0000
0000
,
1000
0010
0000
0000
0010
1000
0002
0000
,
0000
0103
0000
0000
0020
0000
0000
0130
,
0000
0000
1000
0100
1000
0000
0020
0000
,
0000
0000
0000
1000
0000
1000
0000
1000
,
0000
1000
0000
2000
0000
3030
2000
0000
,
3100
2000
0000
3100
0010
0000
0001
0010
,
0000
0001
1000
0010
0200
0000
0020
0000
,
0330
0000
0000
0001
0000
1000
0000
0100
,
0000
0010
0000
0001
1000
0000
1000
0000
,
0100
0000
0000
1000
0000
0100
0000
0010
,
0000
0001
0000
0010
0000
0100
1000
0000
,
0100
0000
0000
1000
0000
0001
0000
0100
,
0000
0010
0000
1000
0000
0100
2000
0000
,
3100
0000
0000
1000
0000
0100
0000
0010
,
0000
0001
0000
1000
0000
0010
0200
0000
,
0310
0000
0000
0010
0000
0100
0000
1000
,
0000
0000
1000
0000
0001
0100
0000
0010
1000
0000
1001
0000
0000
0000
0000
0000
;

//---------------dance-single - ----------------
#NOTES:
     dance-single:
     :
     Medium:
     4:
     0.272,0.328,0.051,0.231,0.000:
0000
0000
0000
0000
,
0000
0000
0000
0000
,
0000
0000
0000
0000
,
0000
0000
0000
0000
,
0000
0000
0000
0002
,
0000
0000
0000
0000
,
0000
0000
0000
2000
,
0000
0000
0000
0000
,
0000
3003
0000
2000
,
0000
3100
0000
0000
0010
0000
0000
0001
,
0000
0000
0001
0100
0020
0000
0200
0000
,
0000
0000
0000
0000
,
0000
0000
0330
0002
,
0000
1003
0000
0000
0100
0000
0000
1000
,
0000
0000
1000
0100
0001
0000
0200
0000
,
0000
0000
0000
0000
,
0000
0000
0000
0000
0300
0000
0010
1000
,
0010
1000
0000
0100
0000
1000
0000
1000
,
0100
1000
0000
0001
0100
0001
0000
0000
,
0010
0100
0000
0010
1000
0010
0000
0000
,
0000
0000
0000
0001
,
1000
0100
0000
0010
0001
0010
0000
0001
,
0100
0001
0000
0010
1000
0010
1000
0000
,
0000
0000
0000
0000
,
0000
0000
0000
0001
,
1000
0100
0000
0010
0000
0001
0000
0001
,
0100
0001
0000
0010
1000
0010
1000
0000
,
0100
0000
0001
0000
1000
0100
0000
0000
,
0000
0000
0000
0001
,
1000
0001
0000
0100
0000
0010
0000
0010
,
0100
0010
0000
1000
0000
0001
0100
0000
,
0000
0000
0000
0000
,
0000
0000
0000
1000
0100
2000
0000
0000
,
0000
3000
0000
0001
0100
0002
0000
0000
,
0000
0003
0000
0010
0100
0020
0000
0000
,
0000
0030
0000
0010
0100
0010
0000
0001
,
0000
1000
0000
0100
1000
0200
0000
0000
,
0000
0000
0300
0000
0000
2000
0000
0000
,
0000
3000
0000
0001
,
1000
0000
0100
0000
0020
0002
0000
0000
,
0000
0033
0000
0000
0000
0101
0000
0000
,
0000
1100
0000
0000
0000
0110
0000
0000
,
0000
1001
0000
0000
0000
1100
0000
0010
,
0100
0010
0100
0000
0020
2000
0000
0000
,
0000
3030
0000
0000
0000
0001
0000
0000
,
0000
1000
0000
0000
0000
0001
0000
0000
,
0000
0100
0000
0010
2000
0002
0000
0000
,
0000
0000
0000
3003
,
0000
0000
0000
0010
1000
0010
0000
0001
,
0100
0001
0000
1000
0100
1000
0000
0010
,
0001
0010
0000
0100
0010
1000
0000
0000
,
0001
0000
0200
0000
0000
0020
0000
0000
,
0000
0330
0000
0000
0001
1000
0000
0000
,
1000
0100
0000
0000
0010
0001
2000
0000
,
0000
3100
0000
0000
0010
0000
0000
0001
,
0000
0000
0010
2000
0001
0000
0002
0000
,
0000
0000
0000
0000
,
0000
0000
3003
0002
,
0000
0103
0000
0000
0010
0000
0000
0100
,
0000
0000
0010
1000
0002
0000
0200
0000
,
0000
0000
0000
0000
,
0303
0000
0000
0020
,
1030
0000
0000
1000
0000
0100
0000
0010
,
0000
0001
0000
0010
0000
0001
0100
0000
,
0010
0000
0000
1000
0000
0001
0000
0100
,
0000
0010
0000
1000
0000
0100
1000
0000
,
1000
0000
0000
1000
0000
1000
0000
0100
,
0000
0010
0000
0001
0000
0100
0010
0000
,
1000
0000
0000
0001
0000
0100
0000
1000
,
0000
0100
1000
0000
0001
1001
0000
0000
;

//---------------dance-single - ----------------
#NOTES:
     dance-single:
     :
     Easy:
     2:
     0.152,0.238,0.043,0.163,0.000:
0000
0000
0000
0000
,
0000
0000
0000
0000
,
0000
0000
0000
0000
,
0000
0000
0000
0000
,
0000
0000
0000
0000
,
0000
0000
0000
0000
,
0000
0000
0000
0000
,
0000
0000
0000
0000
,
0000
0000
0000
2000
,
0000
0000
0000
0000
,
0000
0001
0001
0002
,
0000
0000
0000
0000
,
0000
3003
0000
0002
,
0000
0000
0000
0000
,
0000
1000
1000
2000
,
0000
0000
0000
0000
,
0000
3000
0003
0100
,
0010
0000
0000
0000
0000
0100
0000
0000
,
0000
0010
0000
0000
1000
0000
0000
0000
,
0000
0001
0000
0000
0000
1000
0000
0000
,
0000
0000
0000
1000
,
0100
0000
0000
0000
0000
1000
0000
0000
,
0000
0100
0000
0000
0010
0000
0010
0000
,
0000
0000
0000
0000
,
0000
0000
0000
0001
,
0000
1000
0000
0100
0000
1000
0000
0100
,
0000
0010
0000
0001
0000
0100
0000
0000
,
0000
0010
0000
0000
0000
0100
0000
0000
,
0000
0000
0000
0010
0000
0000
0010
0000
,
0000
0100
0000
0010
0000
1000
0000
0000
,
0000
0001
0000
1000
0000
0000
0100
0000
,
0000
0000
0000
0000
,
0000
0000
0000
0000
0000
0002
0000
0000
,
0000
0003
0000
0000
0000
1000
0000
0000
,
0000
0000
0000
0000
0000
0020
0000
0000
,
0000
0030
0000
0000
0000
0100
0000
0000
,
0000
0010
0000
0000
0000
2000
0000
0000
,
0000
3000
0000
0000
0000
0001
0000
0000
,
0000
0000
0010
0100
,
1000
0000
0001
0000
0200
0020
0000
0000
,
0330
0000
0000
0000
0000
0010
0000
0000
,
0000
0010
0000
0000
0000
0100
0000
0000
,
0000
0100
0000
0000
0000
1000
0000
0000
,
0000
0002
0000
0003
,
0000
0000
0000
0000
0000
1000
0000
0000
,
0000
1000
0000
0000
0000
0001
0000
0000
,
0000
0100
0000
0000
0000
0020
0000
0000
,
0000
0000
0000
0000
,
0030
0000
0000
0000
0000
1001
0000
0000
,
0000
0101
0000
0000
0000
1100
0000
0000
,
0000
1010
0000
0000
0000
0011
0000
0000
,
0000
0002
0000
0000
0000
0000
0003
0000
,
0000
0000
0000
0000
0000
1000
0000
0000
,
0000
0001
0000
0000
0000
0000
0010
0000
,
0000
0100
0000
0000
0010
0000
0000
0100
,
0000
0010
1000
0002
,
0000
0000
0000
0000
,
0000
0003
0000
1000
,
0000
0001
0000
0000
0100
0000
0000
0010
,
0000
0100
0100
0200
,
0000
0000
0000
0000
,
0000
0000
0300
0010
,
0010
0000
0000
1000
0000
1000
0000
1000
,
0000
2000
0000
0000
3000
0000
0001
0000
,
0001
0000
0000
0200
0000
0000
0000
0000
,
0000
0000
0000
0300
0000
0000
0010
0000
,
0010
0000
0000
0020
0000
0000
0000
0000
,
0000
0000
0000
0030
0000
0000
1000
0000
,
0002
0000
0000
2000
0000
0000
0000
0000
,
0000
0003
3000
0000
;

//---------------dance-single - ----------------
#NOTES:
     dance-single:
     :
     Beginner:
     1:
     0.065,0.089,0.000,0.000,0.000: // measure 1
0000
0000
0000
0000
,  // measure 2
0000
0000
0000
0000
,  // measure 3
0000
0000
0000
0000
,  // measure 4
0000
0000
0000
0000
,  // measure 5
0000
0000
0000
0000
,  // measure 6
0000
0000
0000
0000
,  // measure 7
0000
0000
0000
0000
,  // measure 8
0000
0000
0000
0000
,  // measure 9
0000
0000
0000
1000
,  // measure 10
0000
0000
0000
0000
,  // measure 11
0000
0000
0000
1000
,  // measure 12
0000
0000
0000
0000
,  // measure 13
0000
0000
0000
0001
,  // measure 14
0000
0000
0000
0000
,  // measure 15
0000
0000
0000
0001
,  // measure 16
0000
0000
0000
0000
,  // measure 17
0000
0000
0000
0010
,  // measure 18
0000
0000
0000
0010
,  // measure 19
0000
0000
0000
0000
,  // measure 20
0000
0000
0000
0000
,  // measure 21
0000
0000
0000
0100
,  // measure 22
0000
0000
0000
0000
,  // measure 23
0000
0000
0000
0100
,  // measure 24
0000
0000
0000
0000
,  // measure 25
0000
0000
0000
0001
,  // measure 26
0000
0000
0000
0001
,  // measure 27
0000
0000
0000
1000
,  // measure 28
0000
0000
0000
0000
,  // measure 29
0000
1000
0000
1000
,  // measure 30
0000
0000
0000
0000
,  // measure 31
0000
0000
0000
0100
,  // measure 32
0000
0000
0000
0000
,  // measure 33
0000
0000
0000
0001
,  // measure 34
0000
0000
1000
0000
,  // measure 35
0000
0000
0001
0000
,  // measure 36
0000
0000
0100
0000
,  // measure 37
0100
0000
0010
0000
,  // measure 38
0000
0000
0000
1000
,  // measure 39
0000
0000
0000
0001
,  // measure 40
0000
1000
0000
0001
,  // measure 41
0000
0000
0000
0100
,  // measure 42
0000
0000
0000
0010
,  // measure 43
0000
0000
0000
1000
,  // measure 44
0000
0000
0000
0001
,  // measure 45
0000
0000
0000
0100
,  // measure 46
0000
0100
0000
0100
,  // measure 47
0000
0100
0000
0100
,  // measure 48
0000
0000
0000
0000
,  // measure 49
0000
0000
0000
0010
,  // measure 50
0000
0000
0000
0100
,  // measure 51
0000
0000
0000
1000
,  // measure 52
0000
0000
0000
0001
,  // measure 53
0000
0000
0000
0100
,  // measure 54
0000
0010
0000
0100
,  // measure 55
0000
0000
0000
0000
,  // measure 56
0000
0000
0000
0100
,  // measure 57
0000
0000
0000
0000
,  // measure 58
0000
0000
0000
0010
,  // measure 59
0000
0000
0000
0000
,  // measure 60
0000
0000
0000
0010
,  // measure 61
0000
0000
0000
0000
,  // measure 62
0000
0000
0000
1000
,  // measure 63
1000
0000
0000
0000
,  // measure 64
0000
0000
0000
0001
,  // measure 65
0001
0000
0000
0000
,  // measure 66
0000
0000
0000
0100
,  // measure 67
0100
0000
0000
0000
,  // measure 68
0000
0000
0000
0010
,  // measure 69
0010
0000
0000
0000
,  // measure 70
0000
1000
0001
0000
;
