#TITLE:Love This Feelin';
#SUBTITLE:(From Nonstop Megamix);
#ARTIST:Chang Ma;
#TITLETRANSLIT:;
#SUBTITLETRANSLIT:;
#ARTISTTRANSLIT:;
#CREDIT:;
#BANNER:LtF.png;
#BACKGROUND:LOVE THIS FEELIN'-bg.png;
#LYRICSPATH:;
#CDTITLE:Konami Original Remix.png;
#MUSIC:224.love_this_feelin'.mp3;
#OFFSET:-0.200;
#SAMPLESTART:31.420;
#SAMPLELENGTH:12.000;
#SELECTABLE:YES;
#BPMS:0.000=115.240;
#STOPS:56.500=0.521
,80.500=0.521
;
#BGCHANGES:;

//---------------dance-single - ----------------
#NOTES:
     dance-single:
     :
     Hard:
     9:
     0.593,0.663,0.303,0.083,0.537:
0000
0000
0000
0000
,
1000
0000
0100
0000
0000
0000
0010
0000
0100
0000
0000
0000
0001
1000
0001
0000
,
0100
0000
1000
0000
0100
0000
0010
0000
0001
0000
0001
1000
0010
0000
0000
0000
,
0100
0000
1000
0000
0100
0000
0000
1000
0000
0000
0100
0000
0000
0010
0000
0000
,
0000
0000
0010
0100
0001
0000
0000
0000
1000
0000
0100
0000
0010
0000
0001
0000
,
0010
0000
0001
0010
0001
0000
0010
0000
0000
0000
0100
0000
1000
0000
0000
0000
,
0100
0001
0000
0220
0000
0330
1000
0000
,
0100
0000
0000
0000
0010
0000
1000
0000
0010
0000
0010
0100
0010
0000
1000
0000
,
0001
0000
0100
0010
0100
0000
0010
0000
2000
0000
0000
0000
3010
0000
0000
0000
,
1000
0000
0100
0000
0000
0010
0000
1000
0000
0001
0100
0000
0010
0000
1000
0000
,
0001
0000
0100
0000
0010
1000
0000
0001
0000
0100
0010
0000
0001
1000
0010
0100
,
0001
0000
1000
0000
0010
1000
0000
0001
0000
0100
0000
1000
0100
0000
0010
0000
,
1000
0000
0001
0000
0100
0010
0000
1000
0000
0001
0100
0000
0010
0000
1000
0000
,
0001
0000
0100
0000
0010
1000
0000
0001
0000
0100
0000
1000
0100
0000
0010
0000
,
0011
1100
0102
0000
0103
0000
1000
0100
,
0000
0000
0010
0000
0100
0000
0000
0000
0010
1000
0010
0000
0100
0000
0001
0000
,
1000
0000
0010
0000
0100
0000
1000
0001
0100
0000
0000
0000
0010
0000
0100
0000
,
1010
0000
0000
0101
0000
0000
1100
0000
0000
0011
0000
0000
0000
0000
0010
0100
,
0010
0000
0000
0000
0100
0000
1000
0000
0100
0000
0010
0000
1000
0000
0001
1000
,
0001
0100
0010
0000
0000
0000
1000
0000
0100
0000
0000
0000
1000
0000
0100
0000
,
0000
0000
1001
0000
0010
0000
0000
0001
0010
0000
0000
0000
0010
0100
0010
0000
,
0010
0000
0001
1000
0001
0000
0100
0000
1000
0000
0100
1000
0100
0000
0010
0000
,
1000
0000
0000
0000
0110
0000
0000
0000
0010
0000
0001
1000
0010
0000
0100
1000
,
0100
0000
0010
0100
0001
0000
0000
0000
0010
1000
0010
0000
0001
0000
0100
0000
,
1001
0000
1010
0000
0101
0000
1100
0000
0120
0000
0000
0130
0000
0000
0010
0100
,
0010
1000
0001
0100
0011
0000
1100
0000
,
1010
0000
0000
0101
0000
0000
1100
0000
0001
0000
0010
0000
0100
0000
0010
0100
,
0010
0000
1000
0000
0010
0000
0100
0000
1000
0100
0000
0000
0010
0000
0100
0000
,
0010
1000
0010
0100
0110
0000
0110
0000
,
0110
0000
0000
0000
0102
0000
0000
0000
0103
0000
1000
0000
0100
0000
0000
1000
,
0000
0000
0100
0000
0010
0000
1000
0000
0010
0000
0010
0100
0010
0000
1000
0000
,
0001
0100
0001
0000
0010
0000
1000
0000
0010
0000
0010
0100
0010
0000
1000
0000
,
0001
1000
0001
1000
0010
0000
0100
0000
1000
0100
1000
0000
0010
0000
0100
0010
,
0100
0000
0010
0000
1000
0000
0010
0000
0000
0100
0000
1000
0000
0000
0100
0000
,
0000
0020
0000
0000
0000
0030
0000
0000
0001
0000
0100
0000
1000
0000
0100
0000
,
0010
0100
0001
1000
0010
0100
1000
0100
,
1000
0100
1000
0000
0010
0100
0010
0100
0010
0100
0010
0000
0010
0100
0010
0000
,
1001
0000
1001
0000
0010
0000
0100
0000
1000
0001
0100
0010
0001
0100
0010
0100
,
0010
0100
0010
0100
0000
0000
0010
0100
0000
0000
0010
0100
0000
0000
0010
0000
,
0100
0000
1000
0000
0010
0000
0010
0100
0010
0000
0010
1000
0000
0000
0000
0000
,
0010
0000
0101
0000
0000
1100
0000
0000
0011
0000
0000
0220
0000
0000
0000
0000
,
0330
0000
0000
1000
0000
0000
0100
0000
0000
0010
0000
0000
0011
0000
0000
0000
0100
0000
1000
0000
0000
0000
0010
0000
,
1000
0000
0000
0000
0000
0000
0000
0000
0100
0000
0000
0000
0001
0000
0000
0000
0000
0000
0000
0000
0000
0000
0000
0000
1000
0000
0000
0000
0000
0000
0100
0000
0000
0000
0000
0000
0000
0000
0000
0010
0000
0000
0000
0000
0000
1000
0000
0000
,
0000
0001
0100
0000
0010
0000
1000
0000
0010
0000
0100
0000
0001
1000
0000
0010
,
0000
0010
0100
0000
0001
1000
0010
0100
0001
0000
1000
0000
0010
0100
0000
0001
,
0000
1000
0000
0100
0000
0010
0100
0000
0001
0000
1000
0000
0010
1000
0000
0001
,
0000
1000
0000
1000
0100
1000
0100
0000
0010
0000
0100
0000
0001
1000
0000
0010
,
0000
0100
0000
0001
1000
0000
0010
0000
0100
0000
0001
0000
1000
0010
0000
0100
,
0000
0001
0000
0001
0010
0001
0010
0000
0010
0000
0100
0000
0001
1000
0000
0010
,
0000
0100
0000
0001
1000
0000
0010
0000
0100
0001
0000
0000
0100
0010
0000
1000
,
0000
0001
0000
0000
0100
0000
0010
0000
1000
0000
0010
0000
0100
0001
0000
1000
,
0000
0010
0100
0000
0000
0010
1000
0000
1001
0000
1001
0000
0000
0000
0000
0000
;

//---------------dance-single - ----------------
#NOTES:
     dance-single:
     :
     Medium:
     5:
     0.389,0.355,0.248,0.119,0.000:
0000
0000
0000
0000
,
1000
0100
0000
0010
0100
0000
0010
1000
,
0001
0100
0010
1000
0001
0100
0010
0000
,
0010
1000
0010
0100
0001
0100
0010
0000
,
0010
0100
0010
0000
2000
0000
3100
0000
,
0010
0100
0010
1000
0000
1000
0100
0000
,
0010
0100
0000
0110
0000
0000
0000
0000
,
0010
0000
0100
1000
0001
0100
0010
1000
,
0010
1000
0010
0200
0000
0000
0000
0000
,
0320
0000
1030
0000
1000
0100
0010
0000
,
0011
0000
0101
0000
0010
1000
0100
0000
,
0020
0000
0130
0000
0001
1000
0001
0000
,
1000
0000
1010
0000
1000
0100
0010
0000
,
0001
0000
0011
0000
0001
0100
0010
0000
,
1100
1100
0002
0000
0103
0000
0001
1000
,
0000
1000
0100
0000
0010
0000
0001
0100
,
0001
0100
0010
1000
0010
0000
0001
1000
,
0001
0000
0100
0010
0100
0000
1000
0100
,
1000
0000
0001
0000
0100
0000
0010
0100
,
0010
1000
0000
0001
1000
0001
0100
0010
,
0000
0110
0000
0010
0000
0000
0010
0100
,
0010
1000
0001
1000
0001
0001
1000
1000
,
0000
0000
0001
1000
,
0010
0100
0010
0000
0110
0000
1100
0000
,
0011
0101
2002
3003
,
0001
0000
1000
0100
1000
0000
0100
0000
,
0010
0001
0010
0100
1000
0000
0001
0000
,
0100
0001
1000
0000
0001
0000
1000
0000
,
0100
0010
0101
0101
,
0101
0000
0012
0000
0013
0001
0010
0000
,
0100
0000
1000
0000
0001
0001
0001
0000
,
0100
0000
0010
0000
1000
1000
1000
0000
,
0010
0100
0010
0000
1000
0001
1000
0000
,
0100
1000
1100
0011
,
0220
0000
0330
0000
0001
0100
0000
0100
,
0000
0100
0000
0100
0000
0100
0000
0100
,
0010
0100
0100
0100
0100
0100
0010
0010
,
1000
1000
0000
0000
0001
0001
0001
0001
,
0001
0001
0001
0000
0000
0000
0000
0000
,
0000
0000
0000
1000
0100
0000
0000
0000
,
0000
0010
0000
0001
0200
0000
0020
0000
,
0000
0330
1001
1100
,
0101
0000
1001
0000
0001
1000
0001
0000
,
0010
0000
0100
0000
0010
1000
0001
0000
,
1000
0000
0100
1000
0100
0000
0010
0000
,
0001
0100
0001
0100
0001
0000
0010
0000
,
0001
0000
0010
0100
1000
0000
0001
0000
,
1000
0001
0100
0000
0010
0100
0010
0000
,
1000
0000
0001
0001
0001
0000
0100
0000
,
0010
0000
1000
0100
1100
0000
0011
0000
,
0001
0000
0100
0000
0010
0100
2000
0000
,
0100
0000
0010
0000
3001
1001
0000
0000
;

//---------------dance-single - ----------------
#NOTES:
     dance-single:
     :
     Easy:
     4:
     0.268,0.355,0.138,0.101,0.000:
0000
0000
0000
0000
,
0001
0000
1000
0001
,
1000
0100
0010
0001
,
0100
0000
0000
0000
,
0000
0000
0010
0000
,
0010
0100
0000
0010
,
1000
1001
0000
0000
,
0001
1000
0100
0010
,
0001
0200
0020
0330
,
0001
1000
0100
0011
,
0001
0100
1000
0001
,
0001
1000
0001
0100
,
0010
0100
0010
1000
,
0001
1000
0001
0100
,
0110
0020
0130
1000
,
0000
1000
1000
0001
,
0100
0010
1000
0001
,
1000
1000
1000
0001
,
0100
0000
0000
0110
,
0010
0100
1000
0010
,
0000
1001
0000
0000
0001
0000
1000
0000
,
0001
0100
0010
0010
,
0000
0000
0010
0100
,
1000
0001
1000
0001
,
1000
0001
0100
0010
1000
0000
1000
0000
,
0001
0100
0011
1100
,
0100
0000
0100
1000
,
0001
0100
1000
0000
0000
0000
0010
0000
,
0010
0010
0110
0110
,
0110
0000
0220
0330
0001
0000
1000
0000
,
0100
1000
0010
1000
,
0001
2000
3100
0010
,
0001
0100
0001
0000
1000
0000
0001
0000
,
0100
0010
0100
0020
,
2000
3030
0001
1000
,
0001
0100
0010
1000
,
0100
0000
0010
0001
0010
0000
0001
0000
,
0100
0000
0000
0000
0001
1000
0001
1000
,
0001
1000
0001
0200
0000
0300
0000
0000
,
0000
0000
0010
0000
,
0000
0000
0010
0000
0200
0000
0000
0300
,
0000
0000
1001
1001
,
1001
1001
0001
1000
,
0001
0100
0010
1000
,
0100
0010
0001
0010
,
0100
1000
0001
1000
,
0001
0100
0010
0100
,
0001
1000
0001
1000
,
0001
0100
0010
1000
,
0010
1000
0010
0100
,
0000
0000
0002
0000
,
0000
0000
0000
0000
1000
1003
0000
0000
;

//---------------dance-single - ----------------
#NOTES:
     dance-single:
     :
     Beginner:
     1:
     0.077,0.162,0.009,0.000,0.000: // measure 1
0000
0000
0000
0000
,  // measure 2
0100
0000
0000
0000
,  // measure 3
0000
0000
0000
0000
,  // measure 4
1000
0000
0000
0000
,  // measure 5
0000
0000
0000
0000
,  // measure 6
0001
0000
0000
0000
,  // measure 7
0000
0000
0000
0000
,  // measure 8
0010
0000
0000
0000
,  // measure 9
0100
0000
0000
0000
,  // measure 10
1000
0000
0000
0000
,  // measure 11
0001
0000
0000
0000
,  // measure 12
0100
0000
0000
0000
,  // measure 13
0010
0000
0000
0000
,  // measure 14
1000
0000
0000
0000
,  // measure 15
1001
0000
0000
0100
,  // measure 16
0000
0000
0000
0010
,  // measure 17
0000
0000
0000
1000
,  // measure 18
0000
0000
0000
0001
,  // measure 19
0000
0000
0000
0100
,  // measure 20
0000
0000
0000
0010
,  // measure 21
0000
0000
0100
0000
,  // measure 22
0000
0000
0000
0000
,  // measure 23
0000
0000
0001
0000
,  // measure 24
0000
0000
1000
0000
,  // measure 25
0000
0000
0100
0000
,  // measure 26
0000
0000
0010
0000
,  // measure 27
0010
0000
0100
0000
,  // measure 28
0000
0000
1000
0000
,  // measure 29
0000
0000
0001
0001
,  // measure 30
0001
0001
0100
0000
,  // measure 31
0000
0000
0010
0000
,  // measure 32
0000
0000
0100
0000
,  // measure 33
0000
0000
1000
0000
,  // measure 34
0000
0000
0001
0000
,  // measure 35
0000
0000
0100
0000
,  // measure 36
0000
0000
0000
0000
,  // measure 37
0100
0000
0100
0100
,  // measure 38
0100
0000
0010
0010
,  // measure 39
0010
0000
0000
0000
,  // measure 40
0000
0000
0001
0000
,  // measure 41
0000
1000
1000
0000
,  // measure 42
0000
0000
0100
0100
,  // measure 43
0100
0000
0001
0000
,  // measure 44
0000
0000
1000
0000
,  // measure 45
0000
0000
0100
0000
,  // measure 46
0000
0000
0010
0000
,  // measure 47
0000
0000
0001
0000
,  // measure 48
0000
0000
1000
0000
,  // measure 49
0000
0000
0100
0000
,  // measure 50
0000
0000
0010
0010
,  // measure 51
0000
0000
0100
0000
;
